Subcategories
Tags
Language
Tags

Trettioåriga Kriget - 7 Studio Albums (1974-2011) (Re-up)

Posted By: gribovar
Trettioåriga Kriget - 7 Studio Albums (1974-2011) (Re-up)

Trettioariga Kriget - 7 Studio Albums (1974-2011)
EAC Rip | FLAC (image/tracks+.cue+log) - 2,52 GB | MP3 CBR 320 kbps (LAME 3.93) - 858 MB | Covers - 270 MB
Genre: Progressive Rock | RAR 3% Rec. | Label: Mellotronen, NEG

Legendary Swedish heavy-progressive band who released 6 albums between 1974 and 1992 (plus a retrospective in 1996) and reunited and released a couple of new albums from 2004 and on. However, the only addition to the normal guitar, bass and drums instrumentation is some mellotron here and there. It's musical excellence with plenty of extended gratuitous guitar jams and very intricate lyrics. In several ways, Trettioåriga Kriget ("The 30-year War" in English) can be compare to Änglagård and Landberk to sense their influence. The first, self-titled is in many ways like Rush circa 1980. "Krigssång" is an album that fans of 70's rock in general will enjoy, and not just progressive rock listeners. In sum, this is one of the defining Scandinavian prog albums. The first two albums are necessary for any serious exploration of the region. The albums released after the reunion show that the band hasn't lost their touch!

Trettioåriga Kriget - 7 Studio Albums (1974-2011) (Re-up)

Trettioåriga Kriget - Trettioåriga Kriget (1974) [Reissue 2004]
EAC Rip | FLAC (image+.cue+log) - 418 MB | MP3 CBR 320 kbps (LAME 3.93) - 138 MB | Covers - 32 MB
Genre: Progressive Rock | RAR 3% Rec. | Label: Mellotronen (MELLOCD 016)

Tracklist:
01. Kaledoniska orogenesen
02. Röster från minus till plus
03. Fjärilsattityder
04. Mina löjen
05. Ur djupen
06. Handlingens skugga
07. Under The Pendant Roof (Bonus track)
08. I've Got No Time (Bonus track)
09. Perspektiv (Bonus track)

Total time: 58:50

Exact Audio Copy V1.0 beta 3 from 29. August 2011

Отчёт EAC об извлечении, выполненном 15. января 2014, 13:14

Trettioariga Kriget / Trettioariga Kriget

Дисковод: ASUS BW-12D1S-U Adapter: 0 ID: 0

Режим чтения : Достоверность
Использование точного потока : Да
Отключение кэша аудио : Да
Использование указателей C2 : Нет

Коррекция смещения при чтении : 667
Способность читать области Lead-in и Lead-out : Нет
Заполнение пропущенных сэмплов тишиной : Да
Удаление блоков с тишиной в начале и конце : Нет
При вычислениях CRC использовались нулевые сэмплы : Да
Интерфейс : Установленный внешний ASPI-интерфейс

Выходной формат : Пользовательский кодировщик
Выбранный битрейт : 1024 kBit/s
Качество : Высокий
Добавление ID3-тега : Нет
Утилита сжатия : C:\Program Files (x86)\Exact Audio Copy\Flac\flac.exe
Дополнительные параметры : -V -8 -T "Date=%year%" -T "Genre=%genre%" %source%


TOC извлечённого CD

Трек | Старт | Длительность | Начальный сектор | Конечный сектор
––––––––––––––––––––––––––––––––––-
1 | 0:00.00 | 5:18.34 | 0 | 23883
2 | 5:18.34 | 7:48.67 | 23884 | 59050
3 | 13:07.26 | 5:24.27 | 59051 | 83377
4 | 18:31.53 | 8:05.23 | 83378 | 119775
5 | 26:37.01 | 3:45.16 | 119776 | 136666
6 | 30:22.17 | 7:35.25 | 136667 | 170816
7 | 37:57.42 | 9:30.54 | 170817 | 213620
8 | 47:28.21 | 3:36.05 | 213621 | 229825
9 | 51:04.26 | 7:45.16 | 229826 | 264716


Характеристики диапазона извлечения и сообщения об ошибках

Выбранный диапазон

Имя файла F:\Pasheka-Pacheka\Trettioariga Kriget (S&LD)\Trettioariga Kriget (1974) - Trettioariga Kriget (2004)\Trettioariga Kriget - Trettioariga Kriget.wav

Пиковый уровень 100.0 %
Скорость извлечения 1.1 X
Качество диапазона 100.0 %
CRC теста F6A5F727
CRC копии F6A5F727
Копирование… OK

Ошибок не произошло


AccurateRip: сводка

Трек 1 : извлечено точно (доверие 2) [341282D3] (AR v1)
Трек 2 : извлечено точно (доверие 2) [643649FE] (AR v1)
Трек 3 : извлечено точно (доверие 2) [90EDD177] (AR v1)
Трек 4 : извлечено точно (доверие 2) [625646D8] (AR v1)
Трек 5 : извлечено точно (доверие 2) [33B09D1F] (AR v1)
Трек 6 : извлечено точно (доверие 2) [82648DD1] (AR v1)
Трек 7 : извлечено точно (доверие 2) [4D086930] (AR v1)
Трек 8 : извлечено точно (доверие 2) [38D0799D] (AR v1)
Трек 9 : извлечено точно (доверие 2) [B03F6865] (AR v1)

Все треки извлечены точно

Конец отчёта

==== Контрольная сумма отчёта 78BA918092D022D0E3BFBF0B5064FD87B0D1A85F273FDC7C180CAE01CAD1440D ====

[CUETools log; Date: 07.06.2021 14:20:54; Version: 2.1.4]
[CTDB TOCID: 9IyW7uCe3kDpoeL.GRLNux1oWGo-] found.
Track | CTDB Status
1 | (7/7) Accurately ripped
2 | (7/7) Accurately ripped
3 | (7/7) Accurately ripped
4 | (7/7) Accurately ripped
5 | (7/7) Accurately ripped
6 | (7/7) Accurately ripped
7 | (7/7) Accurately ripped
8 | (7/7) Accurately ripped
9 | (7/7) Accurately ripped
[AccurateRip ID: 0013dce9-009272a7-7e0dc909] found.
Track [ CRC | V2 ] Status
01 [341282d3|c21a3950] (2+5/7) Accurately ripped
02 [643649fe|d0eb5cba] (2+5/7) Accurately ripped
03 [90edd177|d558d72e] (2+5/7) Accurately ripped
04 [625646d8|71b97ede] (2+5/7) Accurately ripped
05 [33b09d1f|2da44f49] (2+5/7) Accurately ripped
06 [82648dd1|eba641f2] (2+5/7) Accurately ripped
07 [4d086930|25192bbd] (2+5/7) Accurately ripped
08 [38d0799d|d06c9f54] (2+5/7) Accurately ripped
09 [b03f6865|d57b589d] (2+5/7) Accurately ripped

Track Peak [ CRC32 ] [W/O NULL] [ LOG ]
– 100,0 [F6A5F727] [87CF520B] CRC32
01 97,7 [93B0CA4C] [46D0676D]
02 97,7 [547AA65A] [867E471B]
03 97,7 [457C14C5] [6D2BBA2A]
04 97,7 [A5B2C07B] [73B49E61]
05 97,7 [D0A8D120] [4A2701A2]
06 97,7 [2A7CD57E] [8CD2D4A6]
07 100,0 [CC90DDE2] [77DB885A]
08 97,7 [5661FA48] [110FD0BD]
09 97,7 [BC0B23AB] [451B10D2]

Trettioåriga Kriget - 7 Studio Albums (1974-2011) (Re-up)

Trettioåriga Kriget - Krigssång (1975) [Reissue 2004]
EAC Rip | FLAC (image+.cue+log) - 371 MB | MP3 CBR 320 kbps (LAME 3.93) - 123 MB | Covers - 33 MB
Genre: Progressive Rock | RAR 3% Rec. | Label: Mellotronen (MELLOCD 017)

Tracklist:
01. Krigssång
02. Metamorfoser
03. Jag och jag och "jag"
04. Murar
05. Krigssång II
06. En Kvall Hos X (Bonus track)
07. Dagspress -76 (Bonus track)
08. Moln (Bonus track)

Total time: 52:21

Exact Audio Copy V1.0 beta 3 from 29. August 2011

Отчёт EAC об извлечении, выполненном 15. января 2014, 14:56

Trettioariga Kriget / Krigssang

Дисковод: ASUS BW-12D1S-U Adapter: 0 ID: 0

Режим чтения : Достоверность
Использование точного потока : Да
Отключение кэша аудио : Да
Использование указателей C2 : Нет

Коррекция смещения при чтении : 667
Способность читать области Lead-in и Lead-out : Нет
Заполнение пропущенных сэмплов тишиной : Да
Удаление блоков с тишиной в начале и конце : Нет
При вычислениях CRC использовались нулевые сэмплы : Да
Интерфейс : Установленный внешний ASPI-интерфейс

Выходной формат : Пользовательский кодировщик
Выбранный битрейт : 1024 kBit/s
Качество : Высокий
Добавление ID3-тега : Нет
Утилита сжатия : C:\Program Files (x86)\Exact Audio Copy\Flac\flac.exe
Дополнительные параметры : -V -8 -T "Date=%year%" -T "Genre=%genre%" %source%


TOC извлечённого CD

Трек | Старт | Длительность | Начальный сектор | Конечный сектор
––––––––––––––––––––––––––––––––––-
1 | 0:00.00 | 4:40.27 | 0 | 21026
2 | 4:40.27 | 4:40.25 | 21027 | 42051
3 | 9:20.52 | 3:22.03 | 42052 | 57204
4 | 12:42.55 | 3:36.07 | 57205 | 73411
5 | 16:18.62 | 4:25.28 | 73412 | 93314
6 | 20:44.15 | 17:37.05 | 93315 | 172594
7 | 38:21.20 | 5:18.10 | 172595 | 196454
8 | 43:39.30 | 5:15.55 | 196455 | 220134
9 | 48:55.10 | 3:25.65 | 220135 | 235574


Характеристики диапазона извлечения и сообщения об ошибках

Выбранный диапазон

Имя файла F:\Pasheka-Pacheka\Trettioariga Kriget (S&LD)\Trettioariga Kriget (1975) - Krigssang (2004)\Trettioariga Kriget - Krigssang.wav

Пиковый уровень 100.0 %
Скорость извлечения 7.4 X
Качество диапазона 100.0 %
CRC теста EBA908BE
CRC копии EBA908BE
Копирование… OK

Ошибок не произошло


AccurateRip: сводка

Трек 1 : извлечено точно (доверие 4) [49126F9A] (AR v2)
Трек 2 : извлечено точно (доверие 4) [BEEC2FFF] (AR v2)
Трек 3 : извлечено точно (доверие 4) [8647000C] (AR v2)
Трек 4 : извлечено точно (доверие 4) [1AF6B082] (AR v2)
Трек 5 : извлечено точно (доверие 4) [5F9B9B1C] (AR v2)
Трек 6 : извлечено точно (доверие 4) [515B1F55] (AR v2)
Трек 7 : извлечено точно (доверие 4) [C5021B5A] (AR v2)
Трек 8 : извлечено точно (доверие 4) [5B0A2FDA] (AR v2)
Трек 9 : извлечено точно (доверие 4) [63F692F3] (AR v2)

Все треки извлечены точно

Конец отчёта

==== Контрольная сумма отчёта 2863FF36292BBD7E91A47C431D2B110313376B91938B64892D2AE2CB577BBF4A ====

[CUETools log; Date: 07.06.2021 14:22:22; Version: 2.1.4]
[CTDB TOCID: ja90NF0v.n6rCjyc.5DlMrHH0N4-] found.
Track | CTDB Status
1 | (12/12) Accurately ripped
2 | (12/12) Accurately ripped
3 | (12/12) Accurately ripped
4 | (12/12) Accurately ripped
5 | (12/12) Accurately ripped
6 | (12/12) Accurately ripped
7 | (12/12) Accurately ripped
8 | (12/12) Accurately ripped
9 | (12/12) Accurately ripped
[AccurateRip ID: 0010f6db-0080cbaf-720c4509] found.
Track [ CRC | V2 ] Status
01 [8571a260|49126f9a] (04+06/10) Accurately ripped
02 [eae85864|beec2fff] (04+06/10) Accurately ripped
03 [ce18816f|8647000c] (04+06/10) Accurately ripped
04 [be91fffe|1af6b082] (04+06/10) Accurately ripped
05 [c7fb50c6|5f9b9b1c] (04+06/10) Accurately ripped
06 [8ddd7e9d|515b1f55] (04+06/10) Accurately ripped
07 [88cc6ec1|c5021b5a] (04+06/10) Accurately ripped
08 [7ec3bf2e|5b0a2fda] (04+06/10) Accurately ripped
09 [db4461af|63f692f3] (04+06/10) Accurately ripped

Track Peak [ CRC32 ] [W/O NULL] [ LOG ]
– 100,0 [EBA908BE] [72172DA5] CRC32
01 97,7 [FA82C82F] [9862D17F]
02 97,7 [B154D73D] [B5DF72AA]
03 86,1 [469394A0] [7BA2BFAB]
04 97,7 [0A60E6DB] [FF341DE6]
05 97,7 [251B3E29] [7B2C248B]
06 97,7 [DD498DC6] [95EBEE53]
07 97,7 [B492CDDA] [E421151E]
08 100,0 [CA4B12AA] [B4C3EF35]
09 97,7 [A49B8EFB] [EAA89D7E]

Trettioåriga Kriget - 7 Studio Albums (1974-2011) (Re-up)

Trettioåriga Kriget - Hej På Er! (1978) [Reissue 2005]
EAC Rip | FLAC (image+.cue+log) - 391 MB | MP3 CBR 320 kbps (LAME 3.93) - 131 MB | Covers - 40 MB
Genre: Progressive Rock | RAR 3% Rec. | Label: NEG (MNWCDD 3004)

Tracklist:
01. Hej på er
02. Natten som alltid
03. Stan tur o retur
04. Moln på marken
05. Dagspress
06. En kväll hos x
07. Ser du mig
08. En dag om natten
09. Andra sidan
10. Mot Alla Odds (Bonus track)
11. Rapport (Bonus track)
12. Hur star Det Till? (Bonus track)
13. Rockgift (Bonus track)

Total time: 55:35

Exact Audio Copy V1.0 beta 3 from 29. August 2011

Отчёт EAC об извлечении, выполненном 15. января 2014, 15:37

Trettioariga Kriget / Hej pa er!

Дисковод: ASUS BW-12D1S-U Adapter: 0 ID: 0

Режим чтения : Достоверность
Использование точного потока : Да
Отключение кэша аудио : Да
Использование указателей C2 : Нет

Коррекция смещения при чтении : 667
Способность читать области Lead-in и Lead-out : Нет
Заполнение пропущенных сэмплов тишиной : Да
Удаление блоков с тишиной в начале и конце : Нет
При вычислениях CRC использовались нулевые сэмплы : Да
Интерфейс : Установленный внешний ASPI-интерфейс

Выходной формат : Пользовательский кодировщик
Выбранный битрейт : 1024 kBit/s
Качество : Высокий
Добавление ID3-тега : Нет
Утилита сжатия : C:\Program Files (x86)\Exact Audio Copy\Flac\flac.exe
Дополнительные параметры : -V -8 -T "Date=%year%" -T "Genre=%genre%" %source%


TOC извлечённого CD

Трек | Старт | Длительность | Начальный сектор | Конечный сектор
––––––––––––––––––––––––––––––––––-
1 | 0:00.00 | 4:32.46 | 0 | 20445
2 | 4:32.46 | 4:02.51 | 20446 | 38646
3 | 8:35.22 | 4:04.04 | 38647 | 56950
4 | 12:39.26 | 3:22.03 | 56951 | 72103
5 | 16:01.29 | 4:17.33 | 72104 | 91411
6 | 20:18.62 | 5:37.12 | 91412 | 116698
7 | 25:55.74 | 4:39.38 | 116699 | 137661
8 | 30:35.37 | 3:17.03 | 137662 | 152439
9 | 33:52.40 | 5:31.15 | 152440 | 177279
10 | 39:23.55 | 3:58.52 | 177280 | 195181
11 | 43:22.32 | 4:48.47 | 195182 | 216828
12 | 48:11.04 | 4:31.19 | 216829 | 237172
13 | 52:42.23 | 2:52.58 | 237173 | 250130


Характеристики диапазона извлечения и сообщения об ошибках

Выбранный диапазон

Имя файла F:\Pasheka-Pacheka\Trettioariga Kriget (S&LD)\Trettioariga Kriget (1979) - Hej Pa Er (2005)\Trettioariga Kriget - Hej pa er!.wav

Пиковый уровень 100.0 %
Скорость извлечения 7.8 X
Качество диапазона 100.0 %
CRC теста B61E2266
CRC копии B61E2266
Копирование… OK

Ошибок не произошло


AccurateRip: сводка

Трек 1 : извлечено точно (доверие 5) [43CD7B13] (AR v2)
Трек 2 : извлечено точно (доверие 5) [11C12E95] (AR v2)
Трек 3 : извлечено точно (доверие 5) [51F2B7BD] (AR v2)
Трек 4 : извлечено точно (доверие 5) [3882BFD2] (AR v2)
Трек 5 : извлечено точно (доверие 5) [9A9C70C6] (AR v2)
Трек 6 : извлечено точно (доверие 5) [2D5FC5EB] (AR v2)
Трек 7 : извлечено точно (доверие 5) [B6ACD30D] (AR v2)
Трек 8 : извлечено точно (доверие 5) [7F282833] (AR v2)
Трек 9 : извлечено точно (доверие 5) [A4719197] (AR v2)
Трек 10 : извлечено точно (доверие 5) [669998CF] (AR v2)
Трек 11 : извлечено точно (доверие 5) [FF6A5625] (AR v2)
Трек 12 : извлечено точно (доверие 5) [2CAA2530] (AR v2)
Трек 13 : извлечено точно (доверие 5) [E1216F2D] (AR v2)

Все треки извлечены точно

Конец отчёта

==== Контрольная сумма отчёта 3E0168A53C1DD405B71A673875D656D93829AF889FD72892BAC52E22B78BEC51 ====

[CUETools log; Date: 07.06.2021 14:23:07; Version: 2.1.4]
[CTDB TOCID: y2cdt8XfPjzCQWjCkdURciZH5tY-] found.
Track | CTDB Status
1 | (15/15) Accurately ripped
2 | (15/15) Accurately ripped
3 | (15/15) Accurately ripped
4 | (15/15) Accurately ripped
5 | (15/15) Accurately ripped
6 | (15/15) Accurately ripped
7 | (15/15) Accurately ripped
8 | (15/15) Accurately ripped
9 | (15/15) Accurately ripped
10 | (15/15) Accurately ripped
11 | (15/15) Accurately ripped
12 | (15/15) Accurately ripped
13 | (15/15) Accurately ripped
[AccurateRip ID: 001ae68c-010deff4-af0d070d] found.
Track [ CRC | V2 ] Status
01 [2ebf523a|43cd7b13] (04+09/13) Accurately ripped
02 [c265b2cc|11c12e95] (04+09/13) Accurately ripped
03 [7297cf19|51f2b7bd] (04+09/13) Accurately ripped
04 [f7d03843|3882bfd2] (04+09/13) Accurately ripped
05 [d86c1f8a|9a9c70c6] (04+09/13) Accurately ripped
06 [7175b7b3|2d5fc5eb] (04+09/13) Accurately ripped
07 [c7ff44ef|b6acd30d] (04+09/13) Accurately ripped
08 [e1256ba8|7f282833] (04+09/13) Accurately ripped
09 [c4fdc910|a4719197] (04+09/13) Accurately ripped
10 [6ec2707e|669998cf] (04+09/13) Accurately ripped
11 [46bfdf12|ff6a5625] (04+09/13) Accurately ripped
12 [b91e9a1c|2caa2530] (04+09/13) Accurately ripped
13 [ac8d6538|e1216f2d] (04+09/13) Accurately ripped

Track Peak [ CRC32 ] [W/O NULL] [ LOG ]
– 100,0 [B61E2266] [8F314383] CRC32
01 99,9 [AB773390] [B9F35B3D]
02 100,0 [58543288] [AF4E1E31]
03 99,9 [7D0608BC] [E11E7BCD]
04 99,9 [2627B946] [B45E695A]
05 99,9 [96FE4620] [2DBE9387]
06 100,0 [00F15C91] [8E9C3010]
07 100,0 [C57BB398] [48F06CD1]
08 99,9 [17BE1823] [49A3A5A2]
09 99,9 [4CB6AB8B] [2D9477E8]
10 95,7 [00418038] [7251EF09]
11 95,8 [D0B88133] [93B9C618]
12 95,6 [F0FF9992] [DAF9A27B]
13 94,9 [D74E4C2F] [704FB68A]

Trettioåriga Kriget - 7 Studio Albums (1974-2011) (Re-up)

Trettioariga Kriget - Kriget (1981) [Reissue 2016]
EAC Rip | FLAC (tracks+.cue+log) - 323 MB | MP3 CBR 320 kbps (LAME 3.93) - 107 MB | Covers - 43 MB
Genre: Progressive Rock | RAR 3% Rec. | Label: Mellotronen (MELLO CD037)

Tracklist:
01. Om Kriget Kommer (Bonus Track)
02. Regn (Regn, Regn)
03. Tåget
04. Moderna Tider
05. Europa
06. En Liten Man
07. Den Rätta Vägen
08. Blues
09. På Jakt Efter Rock
10. Höghus (Bonus Track)
11. 3 Strofer
12. Som Förut
13. Tack Och Adjö

Total time: 45:22

Exact Audio Copy V1.0 beta 3 from 29. August 2011

EAC extraction logfile from 26. May 2016, 0:23

Trettioariga Kriget / Kriget

Used drive : _NEC DVD_RW ND-3540A Adapter: 1 ID: 0

Read mode : Secure
Utilize accurate stream : Yes
Defeat audio cache : Yes
Make use of C2 pointers : No

Read offset correction : 48
Overread into Lead-In and Lead-Out : No
Fill up missing offset samples with silence : Yes
Delete leading and trailing silent blocks : No
Null samples used in CRC calculations : Yes
Used interface : Native Win32 interface for Win NT & 2000
Gap handling : Appended to previous track

Used output format : User Defined Encoder
Selected bitrate : 1024 kBit/s
Quality : High
Add ID3 tag : Yes
Command line compressor : C:\Program Files (x86)\Exact Audio Copy\FLAC\FLAC.EXE
Additional command line options : -6 -V -T "ARTIST=%artist%" -T "TITLE=%title%" -T "ALBUM=%albumtitle%" -T "DATE=%year%" -T "TRACKNUMBER=%tracknr%" -T "GENRE=%genre%" -T "COMMENT=%comment%" %hascover%–picture="%coverfile%"%hascover% %source% -o %dest%


TOC of the extracted CD

Track | Start | Length | Start sector | End sector
––––––––––––––––––––––––––––-
1 | 0:00.00 | 4:14.23 | 0 | 19072
2 | 4:14.23 | 3:48.45 | 19073 | 36217
3 | 8:02.68 | 4:51.71 | 36218 | 58113
4 | 12:54.64 | 1:44.22 | 58114 | 65935
5 | 14:39.11 | 6:07.21 | 65936 | 93481
6 | 20:46.32 | 3:21.51 | 93482 | 108607
7 | 24:08.08 | 1:37.24 | 108608 | 115906
8 | 25:45.32 | 3:15.33 | 115907 | 130564
9 | 29:00.65 | 3:45.58 | 130565 | 147497
10 | 32:46.48 | 2:34.43 | 147498 | 159090
11 | 35:21.16 | 2:51.73 | 159091 | 171988
12 | 38:13.14 | 5:07.03 | 171989 | 195016
13 | 43:20.17 | 2:02.47 | 195017 | 204213


Track 1

Filename F:\Music\olaf_alien\Trettioariga Kriget - Kriget (1981, Mistlur - 2016, Mellotronen)\01 - Om Kriget Kommer.wav

Pre-gap length 0:00:02.00

Peak level 100.0 %
Extraction speed 3.7 X
Track quality 99.9 %
Test CRC CBA62ED7
Copy CRC CBA62ED7
Track not present in AccurateRip database
Copy OK

Track 2

Filename F:\Music\olaf_alien\Trettioariga Kriget - Kriget (1981, Mistlur - 2016, Mellotronen)\02 - Regn (Regn, Regn).wav

Peak level 100.0 %
Extraction speed 4.7 X
Track quality 100.0 %
Test CRC 9F267740
Copy CRC 9F267740
Track not present in AccurateRip database
Copy OK

Track 3

Filename F:\Music\olaf_alien\Trettioariga Kriget - Kriget (1981, Mistlur - 2016, Mellotronen)\03 - Taget.wav

Peak level 100.0 %
Extraction speed 5.4 X
Track quality 100.0 %
Test CRC 9CB23202
Copy CRC 9CB23202
Track not present in AccurateRip database
Copy OK

Track 4

Filename F:\Music\olaf_alien\Trettioariga Kriget - Kriget (1981, Mistlur - 2016, Mellotronen)\04 - Moderna Tider.wav

Peak level 100.0 %
Extraction speed 4.7 X
Track quality 100.0 %
Test CRC 1BE245E8
Copy CRC 1BE245E8
Track not present in AccurateRip database
Copy OK

Track 5

Filename F:\Music\olaf_alien\Trettioariga Kriget - Kriget (1981, Mistlur - 2016, Mellotronen)\05 - Europa.wav

Peak level 100.0 %
Extraction speed 6.2 X
Track quality 100.0 %
Test CRC A9D23A8B
Copy CRC A9D23A8B
Track not present in AccurateRip database
Copy OK

Track 6

Filename F:\Music\olaf_alien\Trettioariga Kriget - Kriget (1981, Mistlur - 2016, Mellotronen)\06 - En Liten Man.wav

Peak level 100.0 %
Extraction speed 6.0 X
Track quality 100.0 %
Test CRC 6B6EC954
Copy CRC 6B6EC954
Track not present in AccurateRip database
Copy OK

Track 7

Filename F:\Music\olaf_alien\Trettioariga Kriget - Kriget (1981, Mistlur - 2016, Mellotronen)\07 - Den Ratta Vagen.wav

Peak level 99.8 %
Extraction speed 5.3 X
Track quality 100.0 %
Test CRC A81B8B2B
Copy CRC A81B8B2B
Track not present in AccurateRip database
Copy OK

Track 8

Filename F:\Music\olaf_alien\Trettioariga Kriget - Kriget (1981, Mistlur - 2016, Mellotronen)\08 - Blues.wav

Peak level 100.0 %
Extraction speed 6.4 X
Track quality 100.0 %
Test CRC C71C8383
Copy CRC C71C8383
Track not present in AccurateRip database
Copy OK

Track 9

Filename F:\Music\olaf_alien\Trettioariga Kriget - Kriget (1981, Mistlur - 2016, Mellotronen)\09 - Pa Jakt Efter Rock.wav

Peak level 100.0 %
Extraction speed 5.6 X
Track quality 99.9 %
Test CRC 5795C072
Copy CRC 5795C072
Track not present in AccurateRip database
Copy OK

Track 10

Filename F:\Music\olaf_alien\Trettioariga Kriget - Kriget (1981, Mistlur - 2016, Mellotronen)\10 - Hoghus.wav

Peak level 100.0 %
Extraction speed 6.4 X
Track quality 100.0 %
Test CRC 54E91475
Copy CRC 54E91475
Track not present in AccurateRip database
Copy OK

Track 11

Filename F:\Music\olaf_alien\Trettioariga Kriget - Kriget (1981, Mistlur - 2016, Mellotronen)\11 - 3 Strofer.wav

Peak level 100.0 %
Extraction speed 5.4 X
Track quality 99.9 %
Test CRC 53D18805
Copy CRC 53D18805
Track not present in AccurateRip database
Copy OK

Track 12

Filename F:\Music\olaf_alien\Trettioariga Kriget - Kriget (1981, Mistlur - 2016, Mellotronen)\12 - Som Forut.wav

Peak level 100.0 %
Extraction speed 7.6 X
Track quality 100.0 %
Test CRC 1BA2CF1F
Copy CRC 1BA2CF1F
Track not present in AccurateRip database
Copy OK

Track 13

Filename F:\Music\olaf_alien\Trettioariga Kriget - Kriget (1981, Mistlur - 2016, Mellotronen)\13 - Tack Och Adjo.wav

Peak level 96.9 %
Extraction speed 6.7 X
Track quality 100.0 %
Test CRC DC5C57EC
Copy CRC DC5C57EC
Track not present in AccurateRip database
Copy OK


None of the tracks are present in the AccurateRip database

No errors occurred

End of status report

==== Log checksum 00745BB5A7969B71F48955494AA1D77B1F1C596B8BB1936466BDCD7E338191AF ====

[CUETools log; Date: 07.06.2021 14:18:30; Version: 2.1.4]
[CTDB TOCID: OBRXlZKirlghG9DchuoH5VHA65M-] found.
Track | CTDB Status
1 | (2/2) Accurately ripped
2 | (2/2) Accurately ripped
3 | (2/2) Accurately ripped
4 | (2/2) Accurately ripped
5 | (2/2) Accurately ripped
6 | (2/2) Accurately ripped
7 | (2/2) Accurately ripped
8 | (2/2) Accurately ripped
9 | (2/2) Accurately ripped
10 | (2/2) Accurately ripped
11 | (2/2) Accurately ripped
12 | (2/2) Accurately ripped
13 | (2/2) Accurately ripped
[AccurateRip ID: 0016f9b0-00e21104-b80aa20d] found.
Track [ CRC | V2 ] Status
01 [23cfdf84|25992df7] (0+1/1) Accurately ripped
02 [24edb0a0|2d852af9] (0+1/1) Accurately ripped
03 [0b48ed7e|25e5c1d6] (0+1/1) Accurately ripped
04 [44809cf5|d6bdfa21] (0+1/1) Accurately ripped
05 [ba188dbb|51c23735] (0+1/1) Accurately ripped
06 [977e6300|2b99954d] (0+1/1) Accurately ripped
07 [cab64600|d0416134] (0+1/1) Accurately ripped
08 [5d5a2f20|a1027a77] (0+1/1) Accurately ripped
09 [f272a35a|f346d474] (0+1/1) Accurately ripped
10 [4981b573|aab912ed] (0+1/1) Accurately ripped
11 [304a70a9|de8ed4ce] (0+1/1) Accurately ripped
12 [ff47dd6e|b65f1563] (0+1/1) Accurately ripped
13 [78c47418|cc4affaa] (0+1/1) Accurately ripped

Track Peak [ CRC32 ] [W/O NULL] [ LOG ]
– 100,0 [99FD7182] [10B37873]
01 100,0 [CBA62ED7] [9C2675B7] CRC32
02 100,0 [9F267740] [6A471044] CRC32
03 100,0 [9CB23202] [98E984FB] CRC32
04 100,0 [1BE245E8] [B1461A36] CRC32
05 100,0 [A9D23A8B] [A3965B4A] CRC32
06 100,0 [6B6EC954] [8C1045ED] CRC32
07 99,8 [A81B8B2B] [F64BA61F] CRC32
08 100,0 [C71C8383] [77E8E75E] CRC32
09 100,0 [5795C072] [37B6A27F] CRC32
10 100,0 [54E91475] [DC74D6B6] CRC32
11 100,0 [53D18805] [3DEC7B75] CRC32
12 100,0 [1BA2CF1F] [31D65B0E] CRC32
13 96,9 [DC5C57EC] [B4D03DC2] CRC32

Trettioåriga Kriget - 7 Studio Albums (1974-2011) (Re-up)

Trettioåriga Kriget - Elden Av Ar (2004)
EAC Rip | FLAC (image+.cue+log) - 328 MB | MP3 CBR 320 kbps (LAME 3.93) - 115 MB | Covers - 53 MB
Genre: Progressive Rock | RAR 3% Rec. | Label: Mellotronen (MELLO CD 010)

Tracklist:
01. Ljuset
02. Nightflight
03. Lång historia
04. Elden av år
05. Möte
06. Molnbudet
07. Nightflight - 77
08. Gnistor

Total time: 49:03

Exact Audio Copy V1.0 beta 3 from 29. August 2011

Отчёт EAC об извлечении, выполненном 15. января 2014, 16:22

Trettioariga Kriget / Elden Av Ar

Дисковод: ASUS BW-12D1S-U Adapter: 0 ID: 0

Режим чтения : Достоверность
Использование точного потока : Да
Отключение кэша аудио : Да
Использование указателей C2 : Нет

Коррекция смещения при чтении : 667
Способность читать области Lead-in и Lead-out : Нет
Заполнение пропущенных сэмплов тишиной : Да
Удаление блоков с тишиной в начале и конце : Нет
При вычислениях CRC использовались нулевые сэмплы : Да
Интерфейс : Установленный внешний ASPI-интерфейс

Выходной формат : Пользовательский кодировщик
Выбранный битрейт : 1024 kBit/s
Качество : Высокий
Добавление ID3-тега : Нет
Утилита сжатия : C:\Program Files (x86)\Exact Audio Copy\Flac\flac.exe
Дополнительные параметры : -V -8 -T "Date=%year%" -T "Genre=%genre%" %source%


TOC извлечённого CD

Трек | Старт | Длительность | Начальный сектор | Конечный сектор
––––––––––––––––––––––––––––––––––-
1 | 0:00.00 | 9:00.42 | 0 | 40541
2 | 9:00.42 | 5:44.65 | 40542 | 66406
3 | 14:45.32 | 7:45.65 | 66407 | 101346
4 | 22:31.22 | 5:15.32 | 101347 | 125003
5 | 27:46.54 | 4:37.33 | 125004 | 145811
6 | 32:24.12 | 2:25.33 | 145812 | 156719
7 | 34:49.45 | 6:09.55 | 156720 | 184449
8 | 40:59.25 | 8:03.70 | 184450 | 220744


Характеристики диапазона извлечения и сообщения об ошибках

Выбранный диапазон

Имя файла F:\Pasheka-Pacheka\Trettioariga Kriget (S&LD)\Trettioariga Kriget (2004) - Elden Av Ar\Trettioariga Kriget - Elden Av Ar.wav

Пиковый уровень 97.7 %
Скорость извлечения 7.1 X
Качество диапазона 100.0 %
CRC теста 7F25F18A
CRC копии 7F25F18A
Копирование… OK

Ошибок не произошло


AccurateRip: сводка

Трек 1 : извлечено точно (доверие 4) [5982C66D] (AR v2)
Трек 2 : извлечено точно (доверие 4) [52351FA4] (AR v2)
Трек 3 : извлечено точно (доверие 4) [A9F6E9F5] (AR v2)
Трек 4 : извлечено точно (доверие 4) [485F83F3] (AR v2)
Трек 5 : извлечено точно (доверие 4) [0AD7A5BB] (AR v2)
Трек 6 : извлечено точно (доверие 4) [F7052490] (AR v2)
Трек 7 : извлечено точно (доверие 4) [62E1346D] (AR v2)
Трек 8 : извлечено точно (доверие 4) [4E7C394A] (AR v2)

Все треки извлечены точно

Конец отчёта

==== Контрольная сумма отчёта 998CE9AEAFB23E5B1DAC40E6BFDE1A43EDF6351923A4C0B58AF9ADA6F40FE04C ====

[CUETools log; Date: 07.06.2021 14:24:22; Version: 2.1.4]
[CTDB TOCID: xPKjH1RvWbUVMqsuNi8MoB_9a7g-] found.
Track | CTDB Status
1 | (10/10) Accurately ripped
2 | (10/10) Accurately ripped
3 | (10/10) Accurately ripped
4 | (10/10) Accurately ripped
5 | (10/10) Accurately ripped
6 | (10/10) Accurately ripped
7 | (10/10) Accurately ripped
8 | ( 9/10) Accurately ripped
[AccurateRip ID: 000fe283-0066eb63-720b7f08] found.
Track [ CRC | V2 ] Status
01 [4ceace47|5982c66d] (06+10/16) Accurately ripped
02 [9bbc9655|52351fa4] (06+10/16) Accurately ripped
03 [dae6151c|a9f6e9f5] (06+10/16) Accurately ripped
04 [62ec0f22|485f83f3] (06+10/16) Accurately ripped
05 [00ba4153|0ad7a5bb] (06+10/16) Accurately ripped
06 [efb98987|f7052490] (06+10/16) Accurately ripped
07 [89cf8b06|62e1346d] (06+10/16) Accurately ripped
08 [883a372a|4e7c394a] (06+10/16) Accurately ripped

Track Peak [ CRC32 ] [W/O NULL] [ LOG ]
– 97,7 [7F25F18A] [F6DA2E7C] CRC32
01 97,7 [5EAA6101] [BA8E9389]
02 97,7 [CCAF9E4A] [2198D890]
03 97,7 [C8967F19] [DD5FBDF2]
04 97,7 [A6E776A9] [EB48E175]
05 97,7 [3275A0DD] [977D2E86]
06 94,8 [C0D47D53] [61E73917]
07 97,7 [3C67BDF2] [694748B5]
08 97,7 [9CD40273] [8BF1BD5A]

Trettioåriga Kriget - 7 Studio Albums (1974-2011) (Re-up)

Trettioåriga Kriget - I Början Och Slutet (2007)
EAC Rip | FLAC (image+.cue+log) - 373 MB | MP3 CBR 320 kbps (LAME 3.93) - 128 MB | Covers - 37 MB
Genre: Progressive Rock | RAR 3% Rec. | Label: Mellotronen (MELLOCD 023)

Tracklist:
01. I Krigets tid
02. Barndom
03. Ungdom
04. Ungdom II
05. Benke
06. Lovsång
07. Öknen
08. S-bahn
09. Floden
10. Ryttaren
11. I början och slutet
12. I Krigets tid II

Total time: 54:22

Exact Audio Copy V1.0 beta 3 from 29. August 2011

Отчёт EAC об извлечении, выполненном 15. января 2014, 16:59

Trettioariga Kriget / I Borjan Och Slutet

Дисковод: ASUS BW-12D1S-U Adapter: 0 ID: 0

Режим чтения : Достоверность
Использование точного потока : Да
Отключение кэша аудио : Да
Использование указателей C2 : Нет

Коррекция смещения при чтении : 667
Способность читать области Lead-in и Lead-out : Нет
Заполнение пропущенных сэмплов тишиной : Да
Удаление блоков с тишиной в начале и конце : Нет
При вычислениях CRC использовались нулевые сэмплы : Да
Интерфейс : Установленный внешний ASPI-интерфейс

Выходной формат : Пользовательский кодировщик
Выбранный битрейт : 1024 kBit/s
Качество : Высокий
Добавление ID3-тега : Нет
Утилита сжатия : C:\Program Files (x86)\Exact Audio Copy\Flac\flac.exe
Дополнительные параметры : -V -8 -T "Date=%year%" -T "Genre=%genre%" %source%


TOC извлечённого CD

Трек | Старт | Длительность | Начальный сектор | Конечный сектор
––––––––––––––––––––––––––––––––––-
1 | 0:00.00 | 4:37.00 | 0 | 20774
2 | 4:37.00 | 3:31.61 | 20775 | 36660
3 | 8:08.61 | 4:54.66 | 36661 | 58776
4 | 13:03.52 | 5:56.27 | 58777 | 85503
5 | 19:00.04 | 5:39.61 | 85504 | 110989
6 | 24:39.65 | 7:03.72 | 110990 | 142786
7 | 31:43.62 | 2:42.45 | 142787 | 154981
8 | 34:26.32 | 3:14.27 | 154982 | 169558
9 | 37:40.59 | 3:44.09 | 169559 | 186367
10 | 41:24.68 | 4:58.56 | 186368 | 208773
11 | 46:23.49 | 3:47.62 | 208774 | 225860
12 | 50:11.36 | 4:10.11 | 225861 | 244621


Характеристики диапазона извлечения и сообщения об ошибках

Выбранный диапазон

Имя файла F:\Pasheka-Pacheka\Trettioariga Kriget (S&LD)\Trettioariga Kriget (2007) - I Borjan Och Slutet\Trettioariga Kriget - I Borjan Och Slutet.wav

Пиковый уровень 100.0 %
Скорость извлечения 7.3 X
Качество диапазона 100.0 %
CRC теста ED72FC5B
CRC копии ED72FC5B
Копирование… OK

Ошибок не произошло


AccurateRip: сводка

Трек 1 : извлечено точно (доверие 2) [C664B796] (AR v2)
Трек 2 : извлечено точно (доверие 2) [9C666818] (AR v2)
Трек 3 : извлечено точно (доверие 2) [4627788F] (AR v2)
Трек 4 : извлечено точно (доверие 2) [B3B4F715] (AR v2)
Трек 5 : извлечено точно (доверие 2) [710061AE] (AR v2)
Трек 6 : извлечено точно (доверие 2) [F44E3E30] (AR v2)
Трек 7 : извлечено точно (доверие 2) [584A7203] (AR v2)
Трек 8 : извлечено точно (доверие 2) [754234D7] (AR v2)
Трек 9 : извлечено точно (доверие 2) [D0C38818] (AR v2)
Трек 10 : извлечено точно (доверие 2) [58602A8E] (AR v2)
Трек 11 : извлечено точно (доверие 2) [E92FF3CE] (AR v2)
Трек 12 : извлечено точно (доверие 2) [0EC4C9C5] (AR v2)

Все треки извлечены точно

Конец отчёта

==== Контрольная сумма отчёта CE9DF7FF1E80017BDB39A2E807DC3B16533FD682A82CA5363A36A7C25AF0CD17 ====

[CUETools log; Date: 07.06.2021 14:25:26; Version: 2.1.4]
[CTDB TOCID: qMmRcuZB9MN.kKMZpcfiSu7h8vM-] found.
Track | CTDB Status
1 | (9/9) Accurately ripped
2 | (9/9) Accurately ripped
3 | (9/9) Accurately ripped
4 | (9/9) Accurately ripped
5 | (9/9) Accurately ripped
6 | (9/9) Accurately ripped
7 | (9/9) Accurately ripped
8 | (9/9) Accurately ripped
9 | (9/9) Accurately ripped
10 | (9/9) Accurately ripped
11 | (9/9) Accurately ripped
12 | (8/9) Accurately ripped
[AccurateRip ID: 00191c5c-00e9666e-a70cbd0c] found.
Track [ CRC | V2 ] Status
01 [28b43da8|c664b796] (00+03/13) Accurately ripped
02 [c17554d3|9c666818] (00+03/13) Accurately ripped
03 [3f15fcc3|4627788f] (00+03/13) Accurately ripped
04 [49418f85|b3b4f715] (00+03/13) Accurately ripped
05 [8697744b|710061ae] (00+03/13) Accurately ripped
06 [c6b71aa4|f44e3e30] (00+03/13) Accurately ripped
07 [04e860e2|584a7203] (00+03/13) Accurately ripped
08 [dcc9595e|754234d7] (00+03/13) Accurately ripped
09 [8010c72f|d0c38818] (00+03/13) Accurately ripped
10 [1a870222|58602a8e] (00+03/13) Accurately ripped
11 [f2ce25d4|e92ff3ce] (00+03/14) Accurately ripped
12 [970f982c|0ec4c9c5] (00+03/13) Accurately ripped
Offsetted by 18:
01 [73b3206f] (07/13) Accurately ripped
02 [c529e251] (07/13) Accurately ripped
03 [64c89621] (07/13) Accurately ripped
04 [534b0abb] (07/13) Accurately ripped
05 [893360fe] (07/13) Accurately ripped
06 [a942f9e0] (07/13) Accurately ripped
07 [5edbfad9] (07/13) Accurately ripped
08 [f42cde96] (07/13) Accurately ripped
09 [bdca6b28] (07/13) Accurately ripped
10 [4005fd26] (07/13) Accurately ripped
11 [ae8af33e] (08/14) Accurately ripped
12 [c6a72e4e] (07/13) Accurately ripped

Track Peak [ CRC32 ] [W/O NULL] [ LOG ]
– 100,0 [ED72FC5B] [A2CAEC27] CRC32
01 100,0 [3D775A7C] [07031D7A]
02 100,0 [8175FABD] [EDD25666]
03 100,0 [6952735A] [9E20C36A]
04 100,0 [38945F6F] [670943B2]
05 100,0 [0725980F] [3013DC64]
06 100,0 [6759416D] [3CECDC3D]
07 100,0 [FA07DF6F] [A87A2898]
08 100,0 [87A91BF4] [8C36EBA2]
09 100,0 [12E78B1B] [23443D3C]
10 100,0 [23887EE8] [21C2D5A8]
11 100,0 [338D2291] [32141645]
12 100,0 [9B38D071] [CB4D1BDC]

Trettioåriga Kriget - 7 Studio Albums (1974-2011) (Re-up)

Trettioåriga Kriget - Efter Efter (2011)
EAC Rip | FLAC (image+.cue+log) - 315 MB | MP3 CBR 320 kbps (LAME 3.93) - 116 MB | Covers - 32 MB
Genre: Progressive Rock | RAR 3% Rec. | Label: Mellotronen (MELLOCD 033)

Tracklist:
01. Mannen på bänken
02. Barnet
03. Tavlan
04. The Dance
05. Glorious War
06. Till en sputnik
07. Paus
08. Efter Efter

Total time: 49:12

Exact Audio Copy V1.0 beta 3 from 29. August 2011

Отчёт EAC об извлечении, выполненном 15. января 2014, 19:20

Trettioеriga Kriget / Efter Efter

Дисковод: ASUS BW-12D1S-U Adapter: 0 ID: 0

Режим чтения : Достоверность
Использование точного потока : Да
Отключение кэша аудио : Да
Использование указателей C2 : Нет

Коррекция смещения при чтении : 667
Способность читать области Lead-in и Lead-out : Нет
Заполнение пропущенных сэмплов тишиной : Да
Удаление блоков с тишиной в начале и конце : Нет
При вычислениях CRC использовались нулевые сэмплы : Да
Интерфейс : Установленный внешний ASPI-интерфейс

Выходной формат : Пользовательский кодировщик
Выбранный битрейт : 1024 kBit/s
Качество : Высокий
Добавление ID3-тега : Нет
Утилита сжатия : C:\Program Files (x86)\Exact Audio Copy\Flac\flac.exe
Дополнительные параметры : -V -8 -T "Date=%year%" -T "Genre=%genre%" %source%


TOC извлечённого CD

Трек | Старт | Длительность | Начальный сектор | Конечный сектор
––––––––––––––––––––––––––––––––––-
1 | 0:00.00 | 5:16.47 | 0 | 23746
2 | 5:16.47 | 8:48.05 | 23747 | 63351
3 | 14:04.52 | 6:17.29 | 63352 | 91655
4 | 20:22.06 | 4:31.11 | 91656 | 111991
5 | 24:53.17 | 7:31.03 | 111992 | 145819
6 | 32:24.20 | 4:56.42 | 145820 | 168061
7 | 37:20.62 | 1:33.66 | 168062 | 175102
8 | 38:54.53 | 10:17.25 | 175103 | 221402


Характеристики диапазона извлечения и сообщения об ошибках

Выбранный диапазон

Имя файла F:\Pasheka-Pacheka\Trettioariga Kriget (S&LD)\Trettioariga Kriget (2011) - Efter Efter (After After)\Trettioеriga Kriget - Efter Efter.wav

Пиковый уровень 99.9 %
Скорость извлечения 7.2 X
Качество диапазона 100.0 %
CRC теста 84023DF6
CRC копии 84023DF6
Копирование… OK

Ошибок не произошло


AccurateRip: сводка

Трек 1 : извлечено точно (доверие 6) [4DC2A3A6] (AR v2)
Трек 2 : извлечено точно (доверие 6) [2FCD11CD] (AR v2)
Трек 3 : извлечено точно (доверие 6) [855A913D] (AR v2)
Трек 4 : извлечено точно (доверие 6) [B5BE160C] (AR v2)
Трек 5 : извлечено точно (доверие 6) [CA69E7FC] (AR v2)
Трек 6 : извлечено точно (доверие 6) [05264521] (AR v2)
Трек 7 : извлечено точно (доверие 6) [50B2BEF0] (AR v2)
Трек 8 : извлечено точно (доверие 6) [9970875C] (AR v2)

Все треки извлечены точно

Конец отчёта

==== Контрольная сумма отчёта ED0D8DD9A9AC7769BFFD3C87C482C478DF4E633AD92A1B2F66E197EBD7B3E4C6 ====

[CUETools log; Date: 07.06.2021 14:27:18; Version: 2.1.4]
[CTDB TOCID: CrNDhGupmbo_uiwG1zd2urMOQxs-] found.
Track | CTDB Status
1 | (10/10) Accurately ripped
2 | (10/10) Accurately ripped
3 | (10/10) Accurately ripped
4 | (10/10) Accurately ripped
5 | (10/10) Accurately ripped
6 | (10/10) Accurately ripped
7 | (10/10) Accurately ripped
8 | (10/10) Accurately ripped
[AccurateRip ID: 000f46af-0064d82c-680b8808] found.
Track [ CRC | V2 ] Status
01 [4688774f|4dc2a3a6] (00+10/10) Accurately ripped
02 [8abfffce|2fcd11cd] (00+10/10) Accurately ripped
03 [6d212aa9|855a913d] (00+10/10) Accurately ripped
04 [9527ec42|b5be160c] (00+10/10) Accurately ripped
05 [0fd145f8|ca69e7fc] (00+10/10) Accurately ripped
06 [db715df2|05264521] (00+10/10) Accurately ripped
07 [2ccc866d|50b2bef0] (00+10/10) Accurately ripped
08 [fb4185c2|9970875c] (00+10/10) Accurately ripped

Track Peak [ CRC32 ] [W/O NULL] [ LOG ]
– 99,9 [84023DF6] [0EFA6ABE] CRC32
01 99,9 [9ECE6FB5] [07B64F31]
02 99,9 [88005826] [B85F5D77]
03 99,9 [440785DF] [AA54559A]
04 99,9 [7B6FAD7C] [9379000E]
05 99,9 [1D4FF5A2] [245129D6]
06 99,9 [9012A441] [99BC339E]
07 94,5 [80C07775] [0C44C0C1]
08 99,9 [12A5A2CF] [7DA2E966]

Thanks to Pasheka-Pacheka, Olaf_alien

See also:
Trettioåriga Kriget - War Diaries Vol. 1: 1974 (2018)