Subcategories

Trio Cascades - George Onslow: Piano Trios, Vol. 3 & 4 (2011)

Posted By: tirexiss
Trio Cascades - George Onslow: Piano Trios, Vol. 3 & 4 (2011)

Trio Cascades - George Onslow: Piano Trios, Vol. 3 & 4 (2011)
EAC | FLAC (image+.cue, log) | Covers Included | 02:29:45 | 685 MB
Genre: Classical | Label: CPO | Catalog: 7772322

CPO’s George Onslow complete Piano Trios series demonstrates that the rediscovery of this virtuosic, dramatically expressive, emotionally intimate, and finely crafted music is long overdue. Of volume two Gramophone said the performances by Trio Cascades were “spirited and expressive.”

Trio Cascades - George Onslow: Piano Trios, Vol. 3 & 4 (2011)

Track List:

CD 1:
Piano Trio, Op. 20
01. Allegro energico
02. Thema con Variazioni
03. Menuetto
04. Finale
Piano Trio, Op. 3/1
05. Introduzione
06. Allegro
07. Minuetto
08. Finale
Piano Trio, Op. 14/1
09. Allegro espressivo
10. Andante grazioso
11. Minuetto
12. Finale

CD 2:
Piano Trio, Op. 26
01. Allegro espressivo
02. Adagio
03. Minuetto
04. Finale
Piano Trio, Op. 14/3
05. Allegro vivace assai
06. Andante non troppo lento
07. Minuetto
08. Finale
Piano Trio, Op. 3/3
09. Vivace
10. Andante cantabile
11. Minuetto
12. Finale

Performers:
Trio Cascades

Exact Audio Copy V1.0 beta 3 from 29. August 2011

EAC extraction logfile from 22. September 2013, 18:59

Trio Cascades / George Onslow - Piano Trios - Trio Cascades (Vol.3 & 4) (Disc 1)

Used drive : TSSTcorpCDDVDW SH-222BB Adapter: 2 ID: 1

Read mode : Secure
Utilize accurate stream : Yes
Defeat audio cache : Yes
Make use of C2 pointers : No

Read offset correction : 6
Overread into Lead-In and Lead-Out : No
Fill up missing offset samples with silence : Yes
Delete leading and trailing silent blocks : No
Null samples used in CRC calculations : Yes
Used interface : Native Win32 interface for Win NT & 2000

Used output format : User Defined Encoder
Selected bitrate : 1024 kBit/s
Quality : High
Add ID3 tag : No
Command line compressor : C:\Program Files\Exact Audio Copy\Flac\flac.exe
Additional command line options : -8 -V -T "TITLE=%title%" -T "ARTIST=%artist%" -T "ALBUMARTIST=%albumartist%" -T "ALBUM=%albumtitle%" -T "DATE=%year%" -T "TRACKNUMBER=%tracknr%" -T "TRACKTOTAL=%numtracks%" -T "GENRE=%genre%" -T "COMMENT=%comment%" -T "PERFORMER=%albuminterpret%" -T "COMPOSER=%composer%" %source% -o %dest%


TOC of the extracted CD

Track | Start | Length | Start sector | End sector
––––––––––––––––––––––––––––-
1 | 0:00.00 | 8:37.17 | 0 | 38791
2 | 8:37.17 | 10:22.54 | 38792 | 85495
3 | 18:59.71 | 2:34.08 | 85496 | 97053
4 | 21:34.04 | 7:09.66 | 97054 | 129294
5 | 28:43.70 | 3:23.71 | 129295 | 144590
6 | 32:07.66 | 6:40.56 | 144591 | 174646
7 | 38:48.47 | 6:23.44 | 174647 | 203415
8 | 45:12.16 | 7:15.11 | 203416 | 236051
9 | 52:27.27 | 6:43.41 | 236052 | 266317
10 | 59:10.68 | 5:26.60 | 266318 | 290827
11 | 64:37.53 | 2:33.27 | 290828 | 302329
12 | 67:11.05 | 7:11.15 | 302330 | 334669


Range status and errors

Selected range

Filename G:\Ripped general\[8527] George Onslow – Piano Trios – Trio Cascades (Vol.3 & 4)\cd1\George Onslow - Piano Trios - Trio Cascades (Vol.3 & 4) (Disc 1).wav

Peak level 87.6 %
Extraction speed 8.0 X
Range quality 100.0 %
Test CRC 6088B2B0
Copy CRC 6088B2B0
Copy OK

No errors occurred


AccurateRip summary

Track 1 accurately ripped (confidence 3) [84AB45F6] (AR v2)
Track 2 accurately ripped (confidence 3) [BC79C69B] (AR v2)
Track 3 accurately ripped (confidence 3) [BABCDB45] (AR v2)
Track 4 accurately ripped (confidence 3) [D6530B54] (AR v2)
Track 5 accurately ripped (confidence 3) [8667816B] (AR v2)
Track 6 accurately ripped (confidence 3) [FEA94428] (AR v2)
Track 7 accurately ripped (confidence 3) [67B77FE4] (AR v2)
Track 8 accurately ripped (confidence 3) [4F5F9265] (AR v2)
Track 9 accurately ripped (confidence 3) [0BB6AE17] (AR v2)
Track 10 accurately ripped (confidence 3) [709A7CF5] (AR v2)
Track 11 accurately ripped (confidence 3) [14FB14E0] (AR v2)
Track 12 accurately ripped (confidence 3) [B4B1451B] (AR v2)

All tracks accurately ripped

End of status report

Exact Audio Copy V1.0 beta 3 from 29. August 2011

EAC extraction logfile from 22. September 2013, 19:46

Trio Cascades / George Onslow - Piano Trios - Trio Cascades (Vol.3 & 4) (Disc 2)

Used drive : TSSTcorpCDDVDW SH-222BB Adapter: 2 ID: 1

Read mode : Secure
Utilize accurate stream : Yes
Defeat audio cache : Yes
Make use of C2 pointers : No

Read offset correction : 6
Overread into Lead-In and Lead-Out : No
Fill up missing offset samples with silence : Yes
Delete leading and trailing silent blocks : No
Null samples used in CRC calculations : Yes
Used interface : Native Win32 interface for Win NT & 2000

Used output format : User Defined Encoder
Selected bitrate : 1024 kBit/s
Quality : High
Add ID3 tag : No
Command line compressor : C:\Program Files\Exact Audio Copy\Flac\flac.exe
Additional command line options : -8 -V -T "TITLE=%title%" -T "ARTIST=%artist%" -T "ALBUMARTIST=%albumartist%" -T "ALBUM=%albumtitle%" -T "DATE=%year%" -T "TRACKNUMBER=%tracknr%" -T "TRACKTOTAL=%numtracks%" -T "GENRE=%genre%" -T "COMMENT=%comment%" -T "PERFORMER=%albuminterpret%" -T "COMPOSER=%composer%" %source% -o %dest%


TOC of the extracted CD

Track | Start | Length | Start sector | End sector
––––––––––––––––––––––––––––-
1 | 0:00.00 | 11:01.63 | 0 | 49637
2 | 11:01.63 | 8:15.22 | 49638 | 86784
3 | 19:17.10 | 5:26.41 | 86785 | 111275
4 | 24:43.51 | 5:59.23 | 111276 | 138223
5 | 30:42.74 | 4:06.19 | 138224 | 156692
6 | 34:49.18 | 5:21.16 | 156693 | 180783
7 | 40:10.34 | 5:10.48 | 180784 | 204081
8 | 45:21.07 | 5:07.52 | 204082 | 227158
9 | 50:28.59 | 6:43.04 | 227159 | 257387
10 | 57:11.63 | 6:48.69 | 257388 | 288056
11 | 64:00.57 | 5:11.53 | 288057 | 311434
12 | 69:12.35 | 6:11.10 | 311435 | 339269


Range status and errors

Selected range

Filename G:\Ripped general\[8527] George Onslow – Piano Trios – Trio Cascades (Vol.3 & 4)\cd2\George Onslow - Piano Trios - Trio Cascades (Vol.3 & 4) (Disc 2).wav

Peak level 81.3 %
Extraction speed 8.0 X
Range quality 100.0 %
Test CRC 1FD57667
Copy CRC 1FD57667
Copy OK

No errors occurred


AccurateRip summary

Track 1 accurately ripped (confidence 3) [E918F8FF] (AR v2)
Track 2 accurately ripped (confidence 3) [9841D789] (AR v2)
Track 3 accurately ripped (confidence 3) [54790C91] (AR v2)
Track 4 accurately ripped (confidence 3) [153F34B3] (AR v2)
Track 5 accurately ripped (confidence 3) [6F1C2A49] (AR v2)
Track 6 accurately ripped (confidence 3) [205E4D32] (AR v2)
Track 7 accurately ripped (confidence 3) [B4E386B2] (AR v2)
Track 8 accurately ripped (confidence 3) [4C9E681E] (AR v2)
Track 9 accurately ripped (confidence 3) [45BE5824] (AR v2)
Track 10 accurately ripped (confidence 3) [2E42FB8D] (AR v2)
Track 11 accurately ripped (confidence 3) [2A5EFE82] (AR v2)
Track 12 accurately ripped (confidence 3) [09E32097] (AR v2)

All tracks accurately ripped

End of status report

Thanks to the Original ripper (unknown)!

Welcome to my blog!

Download: