Subcategories

VA - 101 Hits No.1 Dad (2018)

Posted By: ciklon5
VA - 101 Hits No.1 Dad (2018)

VA - 101 Hits No.1 Dad (2018)
FLAC (tracks+.cue,log,scans) / MP3 CBR 320 kbps | 6:00:30 | 837 Mb / 2,5 Gb
Genre: Funk, Rock, Pop, Disco / Label: Spectrum Music

• 101 Hits No.1 Dad carefully compiled across 5 CDs, presenting some of the finest repertoire ever available at this price point. Featuring the greatest rock, pop and soul anthems guaranteed to be a certified hit with all dads this Father’s Day. Including the likes of Thin Lizzy, The Jam, David Bowie, Roxy Music, Status Quo and many more… •

Track List:
CD1:
01.Thin Lizzy - The Boys Are Back In Town - 00:04:24
02.The Jam - Going Underground - 00:02:52
03.Roxy Music - Virginia Plain - 00:02:57
04.Bachman-Turner Overdrive - You Ain't Seen Nothing Yet - 00:03:34
05.Robert Palmer - Bad Case Of Loving You (Doctor, Doctor) - 00:03:10
06.Rainbow - Since You've Been Gone - 00:03:13
07.Paul Weller - Peacock Suit - 00:03:05
08.Ocean Colour Scene - The Riverboat Song - 00:04:58
09.Stealers Wheel - Stuck In The Middle With You - 00:03:23
10.Steve Winwood - Valerie - 00:04:07
11.Elton John - Crocodile Rock - 00:03:54
12.The Spencer Davis Group - Gimme Some Lovin' - 00:02:57
13.Free - All Right Now - 00:03:26
14.Grace Jones - Pull Up To The Bumper - 00:03:39
15.Elkie Brooks - Pearl's A Singer - 00:03:37
16.Rod Stewart - Maggie May - 00:05:14
17.10cc - Dreadlock Holiday - 00:04:27
18.Status Quo - Rockin' All Over The World - 00:03:33
19.Lynyrd Skynyrd - Free Bird - 00:04:43
20.The Chemical Brothers - Galvanize - 00:04:26
21.Public Image Ltd - This Is Not A Love Song - 00:03:31

CD2:
01.Elton John - Island Girl - 00:03:43
02.James Brown & The Famous Flames - I Got You (I Feel Good) - 00:02:46
03.Bryan Ferry - Let's Stick Together - 00:03:01
04.Traffic - Paper Sun - 00:03:22
05.Status Quo - Whatever You Want - 00:03:49
06.Wishbone Ash - Blowin' Free - 00:05:18
07.The Allman Brothers Band - Statesboro Blues - 00:04:06
08.Bachman-Turner Overdrive - Takin' Care Of Business - 00:04:50
09.Eddie & The Hot Rods - Do Anything You Wanna Do - 00:04:04
10.Devo 11 - Whip It - 00:02:37
11.The Motors - Airport - 00:04:33
12.The Runaways - Cherry Bomb - 00:02:18
13.The Jam - Town Called Malice - 00:02:54
14.Public Image Ltd - Public Image - 00:02:57
15.Martha And The Muffins - Echo Beach - 00:03:35
16.Eddie Kendricks - Keep On Truckin' - Part 1 - 00:03:34
17.Joe Jackson - Is She Really Going Out With Him - 00:03:34
18.Julian Lennon - Too Late For Goodbyes - 00:03:33
19.Sensational Alex Harvey Band - Boston Tea Party - 00:04:37
20.Yello - The Race - 00:03:21

CD3:
01.Dusty Springfield - Son Of A Preacher Man - 00:02:26
02.Small Faces - Sha La La La Lee - 00:02:54
03.Georgie Fame & The Blue Flames - Getaway - 00:02:31
04.The Troggs - Wild Thing - 00:02:34
05.The Mamas & The Papas - Monday, Monday - 00:03:29
06.The Spencer Davis Group - Somebody Help Me - 00:02:00
07.Lulu And The Luvvers - Shout - 00:02:52
08.Millie - My Boy Lollipop - 00:02:00
09.Jimmy Cliff - Wonderful World, Beautiful People - 00:03:13
10.Timebox - Beggin' - 00:02:47
11.The Staple Singers - Respect Yourself - 00:04:52
12.Commodores - Easy - 00:04:15
13.JR. Walker & The All Stars - How Sweet It Is (To Be Loved By You) - 00:03:02
14.Steam - Na Na Hey Hey Kiss Him Goodbye - 00:04:08
15.Detroit Spinners - It's A Shame - 00:03:11
16.The Mindbenders - A Groovy Kind Of Love - 00:01:58
17.Sam The Sham & The Pharaohs - Wooly Bully - 00:02:20
18.David Bowie - The Laughing Gnome - 00:02:56
19.Amen Corner - Bend Me Shape Me - 00:02:38
20.Jimmy Jones - Good Timin' - 00:02:04
21.Manfred Mann - Semi-Detached Suburban Mr. James - 00:02:35

CD4:
01.Tears For Fears - Mad World - 00:03:34
02.The Teardrop Explodes - Reward - 00:02:42
03.The Jam - Start - 00:02:16
04.Squeeze - Cool For Cats - 00:03:07
05.ABC - When Smokey Sings - 00:04:23
06.Level 42 - Lessons In Love - 00:04:01
07.Heaven 17 - Temptation - 00:03:03
08.Musical Youth - Pass The Dutchie - 00:03:24
09.UB40 - One In Ten - 00:04:30
10.Soft Cell - Tainted Love - 00:02:40
11.Dexys Midnight Runners - Come On Eileen - 00:03:59
12.Kim Wilde - You Keep Me Hangin' On - 00:04:15
13.Nik Kershaw - Wouldn't It Be Good - 00:04:29
14.Texas - I Don't Want A Lover - 00:05:01
15.Swing Out Sister - Breakout - 00:03:46
16.Split Enz - I Got You - 00:03:28
17.Status Quo - Caroline - 00:03:43
18.Culture Club - Do You Really Want To Hurt Me - 00:04:23
19.Buggles - Video Killed The Radio Star - 00:03:19
20.T'Pau - China In Your Hand - 00:04:02

CD5:
01.The Kooks - Naive - 00:03:24
02.Cast - Flying - 00:03:55
03.Dodgy - Good Enough - 00:03:57
04.James - Sit Down - 00:04:04
05.The Style Council - You're The Best Thing - 00:04:27
06.Ocean Colour Scene - The Day We Caught The Train - 00:03:11
07.Shed Seven - Going For Gold - 00:04:25
08.The LA's - There She Goes - 00:02:42
09.The Bluetones - Slight Return - 00:03:19
10.Stereo MC's - Connected - 00:03:46
11.Warren G Feat. Nate Dogg - Regulate - 00:04:10
12.Aswad - Don't Turn Around - 00:03:20
13.Cameo - Word Up - 00:04:18
14.Lipps Inc. - Funkytown - 00:03:53
15.Cutting Crew - (I Just) Died In Your Arms - 00:04:34
16.DNA Feat. Suzanne Vega - Tom's Diner - 00:03:48
17.Fall Out Boy - Sugar, We're Goin Down - 00:03:35
18.Free - Wishing Well - 00:03:39
19.Lynyrd Skynyrd - Sweet Home Alabama - 00:04:46

Exact Audio Copy V1.3 from 2. September 2016

EAC extraction logfile from 12. September 2018, 12:22

Various / 101 Hits - No.1 Dad - CD1

Used drive : ATAPI iHAS124 Y Adapter: 1 ID: 0

Read mode : Secure
Utilize accurate stream : Yes
Defeat audio cache : No
Make use of C2 pointers : Yes

Read offset correction : 48
Overread into Lead-In and Lead-Out : No
Fill up missing offset samples with silence : Yes
Delete leading and trailing silent blocks : No
Null samples used in CRC calculations : Yes
Used interface : Native Win32 interface for Win NT & 2000
Gap handling : Not detected, thus appended to previous track

Used output format : User Defined Encoder
Selected bitrate : 896 kBit/s
Quality : High
Add ID3 tag : No
Command line compressor : C:\Program Files (x86)\Exact Audio Copy\FLAC\FLAC.EXE
Additional command line options : -6 -V -T "ARTIST=%artist%" -T "TITLE=%title%" -T "ALBUM=%albumtitle%" -T "DATE=%year%" -T "TRACKNUMBER=%tracknr%" -T "GENRE=%genre%" -T "COMMENT=%comment%" -T "BAND=%albuminterpret%" -T "ALBUMARTIST=%albuminterpret%" -T "COMPOSER=%composer%" %haslyrics%–tag-from-file=LYRICS="%lyricsfile%"%haslyrics% -T "DISCNUMBER=%cdnumber%" -T "TOTALDISCS=%totalcds%" -T "TOTALTRACKS=%numtracks%" %hascover%–picture="%coverfile%"%hascover% %source% -o %dest%


TOC of the extracted CD

Track | Start | Length | Start sector | End sector
––––––––––––––––––––––––––––-
1 | 0:00.00 | 4:24.52 | 0 | 19851
2 | 4:24.52 | 2:52.64 | 19852 | 32815
3 | 7:17.41 | 2:57.24 | 32816 | 46114
4 | 10:14.65 | 3:34.00 | 46115 | 62164
5 | 13:48.65 | 3:10.03 | 62165 | 76417
6 | 16:58.68 | 3:13.35 | 76418 | 90927
7 | 20:12.28 | 3:05.53 | 90928 | 104855
8 | 23:18.06 | 4:58.48 | 104856 | 127253
9 | 28:16.54 | 3:23.32 | 127254 | 142510
10 | 31:40.11 | 4:07.14 | 142511 | 161049
11 | 35:47.25 | 3:54.43 | 161050 | 178642
12 | 39:41.68 | 2:57.12 | 178643 | 191929
13 | 42:39.05 | 3:26.01 | 191930 | 207380
14 | 46:05.06 | 3:39.62 | 207381 | 223867
15 | 49:44.68 | 3:37.12 | 223868 | 240154
16 | 53:22.05 | 5:14.58 | 240155 | 263762
17 | 58:36.63 | 4:27.00 | 263763 | 283787
18 | 63:03.63 | 3:33.15 | 283788 | 299777
19 | 66:37.03 | 4:43.56 | 299778 | 321058
20 | 71:20.59 | 4:26.45 | 321059 | 341053
21 | 75:47.29 | 3:31.16 | 341054 | 356894


Track 1

Filename A:\PsPBuRnOuT's MUSIC\SORTED BY YEAR\2000 PLUS\101 HITS - NO.1 DAD\101 HITS - NO.1 DAD - CD1\01.Thin Lizzy - The Boys Are Back In Town.wav

Peak level 98.6 %
Extraction speed 9.5 X
Track quality 100.0 %
Copy CRC 9942C805
Track not present in AccurateRip database
Copy OK

Track 2

Filename A:\PsPBuRnOuT's MUSIC\SORTED BY YEAR\2000 PLUS\101 HITS - NO.1 DAD\101 HITS - NO.1 DAD - CD1\02.The Jam - Going Underground.wav

Peak level 96.2 %
Extraction speed 11.2 X
Track quality 100.0 %
Copy CRC 106AC789
Track not present in AccurateRip database
Copy OK

Track 3

Filename A:\PsPBuRnOuT's MUSIC\SORTED BY YEAR\2000 PLUS\101 HITS - NO.1 DAD\101 HITS - NO.1 DAD - CD1\03.Roxy Music - Virginia Plain.wav

Peak level 96.2 %
Extraction speed 11.8 X
Track quality 100.0 %
Copy CRC B9194232
Track not present in AccurateRip database
Copy OK

Track 4

Filename A:\PsPBuRnOuT's MUSIC\SORTED BY YEAR\2000 PLUS\101 HITS - NO.1 DAD\101 HITS - NO.1 DAD - CD1\04.Bachman-Turner Overdrive - You Ain't Seen Nothing Yet.wav

Peak level 97.9 %
Extraction speed 12.0 X
Track quality 100.0 %
Copy CRC 0B39FC37
Track not present in AccurateRip database
Copy OK

Track 5

Filename A:\PsPBuRnOuT's MUSIC\SORTED BY YEAR\2000 PLUS\101 HITS - NO.1 DAD\101 HITS - NO.1 DAD - CD1\05.Robert Palmer - Bad Case Of Loving You (Doctor, Doctor).wav

Peak level 96.2 %
Extraction speed 13.1 X
Track quality 100.0 %
Copy CRC 643C61C4
Track not present in AccurateRip database
Copy OK

Track 6

Filename A:\PsPBuRnOuT's MUSIC\SORTED BY YEAR\2000 PLUS\101 HITS - NO.1 DAD\101 HITS - NO.1 DAD - CD1\06.Rainbow - Since You've Been Gone.wav

Peak level 96.2 %
Extraction speed 13.6 X
Track quality 100.0 %
Copy CRC 02F7AB5F
Track not present in AccurateRip database
Copy OK

Track 7

Filename A:\PsPBuRnOuT's MUSIC\SORTED BY YEAR\2000 PLUS\101 HITS - NO.1 DAD\101 HITS - NO.1 DAD - CD1\07.Paul Weller - Peacock Suit.wav

Peak level 99.8 %
Extraction speed 13.6 X
Track quality 100.0 %
Copy CRC 295A0F5F
Track not present in AccurateRip database
Copy OK

Track 8

Filename A:\PsPBuRnOuT's MUSIC\SORTED BY YEAR\2000 PLUS\101 HITS - NO.1 DAD\101 HITS - NO.1 DAD - CD1\08.Ocean Colour Scene - The Riverboat Song.wav

Peak level 100.0 %
Extraction speed 14.6 X
Track quality 100.0 %
Copy CRC 3CFB226C
Track not present in AccurateRip database
Copy OK

Track 9

Filename A:\PsPBuRnOuT's MUSIC\SORTED BY YEAR\2000 PLUS\101 HITS - NO.1 DAD\101 HITS - NO.1 DAD - CD1\09.Stealers Wheel - Stuck In The Middle With You.wav

Peak level 100.0 %
Extraction speed 15.2 X
Track quality 100.0 %
Copy CRC 0A39C15C
Track not present in AccurateRip database
Copy OK

Track 10

Filename A:\PsPBuRnOuT's MUSIC\SORTED BY YEAR\2000 PLUS\101 HITS - NO.1 DAD\101 HITS - NO.1 DAD - CD1\10.Steve Winwood - Valerie.wav

Peak level 100.0 %
Extraction speed 15.1 X
Track quality 100.0 %
Copy CRC 0656AB85
Track not present in AccurateRip database
Copy OK

Track 11

Filename A:\PsPBuRnOuT's MUSIC\SORTED BY YEAR\2000 PLUS\101 HITS - NO.1 DAD\101 HITS - NO.1 DAD - CD1\11.Elton John - Crocodile Rock.wav

Peak level 100.0 %
Extraction speed 15.8 X
Track quality 100.0 %
Copy CRC 9F4B7866
Track not present in AccurateRip database
Copy OK

Track 12

Filename A:\PsPBuRnOuT's MUSIC\SORTED BY YEAR\2000 PLUS\101 HITS - NO.1 DAD\101 HITS - NO.1 DAD - CD1\12.The Spencer Davis Group - Gimme Some Lovin'.wav

Peak level 96.2 %
Extraction speed 16.2 X
Track quality 99.8 %
Copy CRC 6C13B49F
Track not present in AccurateRip database
Copy OK

Track 13

Filename A:\PsPBuRnOuT's MUSIC\SORTED BY YEAR\2000 PLUS\101 HITS - NO.1 DAD\101 HITS - NO.1 DAD - CD1\13.Free - All Right Now.wav

Peak level 96.2 %
Extraction speed 16.0 X
Track quality 100.0 %
Copy CRC E788C541
Track not present in AccurateRip database
Copy OK

Track 14

Filename A:\PsPBuRnOuT's MUSIC\SORTED BY YEAR\2000 PLUS\101 HITS - NO.1 DAD\101 HITS - NO.1 DAD - CD1\14.Grace Jones - Pull Up To The Bumper.wav

Peak level 96.2 %
Extraction speed 16.7 X
Track quality 100.0 %
Copy CRC 370F1360
Track not present in AccurateRip database
Copy OK

Track 15

Filename A:\PsPBuRnOuT's MUSIC\SORTED BY YEAR\2000 PLUS\101 HITS - NO.1 DAD\101 HITS - NO.1 DAD - CD1\15.Elkie Brooks - Pearl's A Singer.wav

Peak level 96.2 %
Extraction speed 17.1 X
Track quality 100.0 %
Copy CRC 4639536B
Track not present in AccurateRip database
Copy OK

Track 16

Filename A:\PsPBuRnOuT's MUSIC\SORTED BY YEAR\2000 PLUS\101 HITS - NO.1 DAD\101 HITS - NO.1 DAD - CD1\16.Rod Stewart - Maggie May.wav

Peak level 92.9 %
Extraction speed 16.8 X
Track quality 100.0 %
Copy CRC CB0B3CBB
Track not present in AccurateRip database
Copy OK

Track 17

Filename A:\PsPBuRnOuT's MUSIC\SORTED BY YEAR\2000 PLUS\101 HITS - NO.1 DAD\101 HITS - NO.1 DAD - CD1\17.10cc - Dreadlock Holiday.wav

Peak level 96.2 %
Extraction speed 17.9 X
Track quality 100.0 %
Copy CRC 5798D59C
Track not present in AccurateRip database
Copy OK

Track 18

Filename A:\PsPBuRnOuT's MUSIC\SORTED BY YEAR\2000 PLUS\101 HITS - NO.1 DAD\101 HITS - NO.1 DAD - CD1\18.Status Quo - Rockin' All Over The World.wav

Peak level 93.9 %
Extraction speed 18.3 X
Track quality 99.9 %
Copy CRC C267BD4E
Track not present in AccurateRip database
Copy OK

Track 19

Filename A:\PsPBuRnOuT's MUSIC\SORTED BY YEAR\2000 PLUS\101 HITS - NO.1 DAD\101 HITS - NO.1 DAD - CD1\19.Lynyrd Skynyrd - Free Bird.wav

Peak level 100.0 %
Extraction speed 19.3 X
Track quality 100.0 %
Copy CRC 583C8E81
Track not present in AccurateRip database
Copy OK

Track 20

Filename A:\PsPBuRnOuT's MUSIC\SORTED BY YEAR\2000 PLUS\101 HITS - NO.1 DAD\101 HITS - NO.1 DAD - CD1\20.The Chemical Brothers - Galvanize.wav

Peak level 84.1 %
Extraction speed 19.2 X
Track quality 100.0 %
Copy CRC C7CFE593
Track not present in AccurateRip database
Copy OK

Track 21

Filename A:\PsPBuRnOuT's MUSIC\SORTED BY YEAR\2000 PLUS\101 HITS - NO.1 DAD\101 HITS - NO.1 DAD - CD1\21.Public Image Ltd - This Is Not A Love Song.wav

Peak level 88.0 %
Extraction speed 20.6 X
Track quality 100.0 %
Copy CRC 471FF6F9
Track not present in AccurateRip database
Copy OK


None of the tracks are present in the AccurateRip database

No errors occurred

End of status report

–– CUETools DB Plugin V2.1.6

[CTDB TOCID: r23VmoJwfnVa5hnE6vBBm29e4BY-] disk not present in database
Submit result: r23VmoJwfnVa5hnE6vBBm29e4BY- has been uploaded

Exact Audio Copy V1.3 from 2. September 2016

EAC extraction logfile from 12. September 2018, 18:17

Various / 101 Hits - No.1 Dad - CD2

Used drive : ATAPI iHAS124 Y Adapter: 1 ID: 0

Read mode : Secure
Utilize accurate stream : Yes
Defeat audio cache : No
Make use of C2 pointers : Yes

Read offset correction : 48
Overread into Lead-In and Lead-Out : No
Fill up missing offset samples with silence : Yes
Delete leading and trailing silent blocks : No
Null samples used in CRC calculations : Yes
Used interface : Native Win32 interface for Win NT & 2000
Gap handling : Not detected, thus appended to previous track

Used output format : User Defined Encoder
Selected bitrate : 896 kBit/s
Quality : High
Add ID3 tag : No
Command line compressor : C:\Program Files (x86)\Exact Audio Copy\FLAC\FLAC.EXE
Additional command line options : -6 -V -T "ARTIST=%artist%" -T "TITLE=%title%" -T "ALBUM=%albumtitle%" -T "DATE=%year%" -T "TRACKNUMBER=%tracknr%" -T "GENRE=%genre%" -T "COMMENT=%comment%" -T "BAND=%albuminterpret%" -T "ALBUMARTIST=%albuminterpret%" -T "COMPOSER=%composer%" %haslyrics%–tag-from-file=LYRICS="%lyricsfile%"%haslyrics% -T "DISCNUMBER=%cdnumber%" -T "TOTALDISCS=%totalcds%" -T "TOTALTRACKS=%numtracks%" %hascover%–picture="%coverfile%"%hascover% %source% -o %dest%


TOC of the extracted CD

Track | Start | Length | Start sector | End sector
––––––––––––––––––––––––––––-
1 | 0:00.00 | 3:43.37 | 0 | 16761
2 | 3:43.37 | 2:46.17 | 16762 | 29228
3 | 6:29.54 | 3:01.12 | 29229 | 42815
4 | 9:30.66 | 3:22.05 | 42816 | 57970
5 | 12:52.71 | 3:49.30 | 57971 | 75175
6 | 16:42.26 | 5:18.66 | 75176 | 99091
7 | 22:01.17 | 4:06.31 | 99092 | 117572
8 | 26:07.48 | 4:50.13 | 117573 | 139335
9 | 30:57.61 | 4:04.04 | 139336 | 157639
10 | 35:01.65 | 2:37.63 | 157640 | 169477
11 | 37:39.53 | 4:33.60 | 169478 | 190012
12 | 42:13.38 | 2:18.00 | 190013 | 200362
13 | 44:31.38 | 2:54.17 | 200363 | 213429
14 | 47:25.55 | 2:57.74 | 213430 | 226778
15 | 50:23.54 | 3:35.01 | 226779 | 242904
16 | 53:58.55 | 3:34.45 | 242905 | 258999
17 | 57:33.25 | 3:34.00 | 259000 | 275049
18 | 61:07.25 | 3:33.73 | 275050 | 291097
19 | 64:41.23 | 4:37.12 | 291098 | 311884
20 | 69:18.35 | 3:21.43 | 311885 | 327002


Track 1

Filename A:\PsPBuRnOuT's MUSIC\SORTED BY YEAR\2000 PLUS\101 HITS - NO.1 DAD\101 HITS - NO.1 DAD - CD2\01.Elton John - Island Girl.wav

Peak level 100.0 %
Extraction speed 9.5 X
Track quality 100.0 %
Copy CRC 780C8FCD
Track not present in AccurateRip database
Copy OK

Track 2

Filename A:\PsPBuRnOuT's MUSIC\SORTED BY YEAR\2000 PLUS\101 HITS - NO.1 DAD\101 HITS - NO.1 DAD - CD2\02.James Brown & The Famous Flames - I Got You (I Feel Good).wav

Peak level 96.2 %
Extraction speed 10.4 X
Track quality 100.0 %
Copy CRC 71C07952
Track not present in AccurateRip database
Copy OK

Track 3

Filename A:\PsPBuRnOuT's MUSIC\SORTED BY YEAR\2000 PLUS\101 HITS - NO.1 DAD\101 HITS - NO.1 DAD - CD2\03.Bryan Ferry - Let's Stick Together.wav

Peak level 93.1 %
Extraction speed 11.2 X
Track quality 100.0 %
Copy CRC B7ED9F93
Track not present in AccurateRip database
Copy OK

Track 4

Filename A:\PsPBuRnOuT's MUSIC\SORTED BY YEAR\2000 PLUS\101 HITS - NO.1 DAD\101 HITS - NO.1 DAD - CD2\04.Traffic - Paper Sun.wav

Peak level 96.2 %
Extraction speed 12.3 X
Track quality 100.0 %
Copy CRC 2BA8F10D
Track not present in AccurateRip database
Copy OK

Track 5

Filename A:\PsPBuRnOuT's MUSIC\SORTED BY YEAR\2000 PLUS\101 HITS - NO.1 DAD\101 HITS - NO.1 DAD - CD2\05.Status Quo - Whatever You Want.wav

Peak level 96.2 %
Extraction speed 12.4 X
Track quality 100.0 %
Copy CRC C744692E
Track not present in AccurateRip database
Copy OK

Track 6

Filename A:\PsPBuRnOuT's MUSIC\SORTED BY YEAR\2000 PLUS\101 HITS - NO.1 DAD\101 HITS - NO.1 DAD - CD2\06.Wishbone Ash - Blowin' Free.wav

Peak level 100.0 %
Extraction speed 13.3 X
Track quality 100.0 %
Copy CRC 2DF4840A
Track not present in AccurateRip database
Copy OK

Track 7

Filename A:\PsPBuRnOuT's MUSIC\SORTED BY YEAR\2000 PLUS\101 HITS - NO.1 DAD\101 HITS - NO.1 DAD - CD2\07.The Allman Brothers Band - Statesboro Blues.wav

Peak level 96.2 %
Extraction speed 14.7 X
Track quality 100.0 %
Copy CRC C3E26DC7
Track not present in AccurateRip database
Copy OK

Track 8

Filename A:\PsPBuRnOuT's MUSIC\SORTED BY YEAR\2000 PLUS\101 HITS - NO.1 DAD\101 HITS - NO.1 DAD - CD2\08.Bachman-Turner Overdrive - Takin' Care Of Business.wav

Peak level 96.2 %
Extraction speed 14.9 X
Track quality 100.0 %
Copy CRC 80CD473C
Track not present in AccurateRip database
Copy OK

Track 9

Filename A:\PsPBuRnOuT's MUSIC\SORTED BY YEAR\2000 PLUS\101 HITS - NO.1 DAD\101 HITS - NO.1 DAD - CD2\09.Eddie & The Hot Rods - Do Anything You Wanna Do.wav

Peak level 96.2 %
Extraction speed 15.6 X
Track quality 100.0 %
Copy CRC A023B4BB
Track not present in AccurateRip database
Copy OK

Track 10

Filename A:\PsPBuRnOuT's MUSIC\SORTED BY YEAR\2000 PLUS\101 HITS - NO.1 DAD\101 HITS - NO.1 DAD - CD2\10.Devo 11 - Whip It.wav

Peak level 100.0 %
Extraction speed 16.9 X
Track quality 100.0 %
Copy CRC 2F849C60
Track not present in AccurateRip database
Copy OK

Track 11

Filename A:\PsPBuRnOuT's MUSIC\SORTED BY YEAR\2000 PLUS\101 HITS - NO.1 DAD\101 HITS - NO.1 DAD - CD2\11.The Motors - Airport.wav

Peak level 96.2 %
Extraction speed 17.2 X
Track quality 100.0 %
Copy CRC 838A70D4
Track not present in AccurateRip database
Copy OK

Track 12

Filename A:\PsPBuRnOuT's MUSIC\SORTED BY YEAR\2000 PLUS\101 HITS - NO.1 DAD\101 HITS - NO.1 DAD - CD2\12.The Runaways - Cherry Bomb.wav

Peak level 96.2 %
Extraction speed 16.7 X
Track quality 99.8 %
Copy CRC 5F67C67F
Track not present in AccurateRip database
Copy OK

Track 13

Filename A:\PsPBuRnOuT's MUSIC\SORTED BY YEAR\2000 PLUS\101 HITS - NO.1 DAD\101 HITS - NO.1 DAD - CD2\13.The Jam - Town Called Malice.wav

Peak level 97.9 %
Extraction speed 17.3 X
Track quality 100.0 %
Copy CRC B74F3092
Track not present in AccurateRip database
Copy OK

Track 14

Filename A:\PsPBuRnOuT's MUSIC\SORTED BY YEAR\2000 PLUS\101 HITS - NO.1 DAD\101 HITS - NO.1 DAD - CD2\14.Public Image Ltd - Public Image.wav

Peak level 96.2 %
Extraction speed 17.9 X
Track quality 100.0 %
Copy CRC B36584C9
Track not present in AccurateRip database
Copy OK

Track 15

Filename A:\PsPBuRnOuT's MUSIC\SORTED BY YEAR\2000 PLUS\101 HITS - NO.1 DAD\101 HITS - NO.1 DAD - CD2\15.Martha And The Muffins - Echo Beach.wav

Peak level 94.4 %
Extraction speed 18.1 X
Track quality 100.0 %
Copy CRC EC0ADBC3
Track not present in AccurateRip database
Copy OK

Track 16

Filename A:\PsPBuRnOuT's MUSIC\SORTED BY YEAR\2000 PLUS\101 HITS - NO.1 DAD\101 HITS - NO.1 DAD - CD2\16.Eddie Kendricks - Keep On Truckin' - Part 1.wav

Peak level 96.2 %
Extraction speed 19.5 X
Track quality 100.0 %
Copy CRC 0B7E8378
Track not present in AccurateRip database
Copy OK

Track 17

Filename A:\PsPBuRnOuT's MUSIC\SORTED BY YEAR\2000 PLUS\101 HITS - NO.1 DAD\101 HITS - NO.1 DAD - CD2\17.Joe Jackson - Is She Really Going Out With Him.wav

Peak level 96.2 %
Extraction speed 19.3 X
Track quality 100.0 %
Copy CRC D8E777CE
Track not present in AccurateRip database
Copy OK

Track 18

Filename A:\PsPBuRnOuT's MUSIC\SORTED BY YEAR\2000 PLUS\101 HITS - NO.1 DAD\101 HITS - NO.1 DAD - CD2\18.Julian Lennon - Too Late For Goodbyes.wav

Peak level 96.2 %
Extraction speed 20.5 X
Track quality 100.0 %
Copy CRC 72C821D3
Track not present in AccurateRip database
Copy OK

Track 19

Filename A:\PsPBuRnOuT's MUSIC\SORTED BY YEAR\2000 PLUS\101 HITS - NO.1 DAD\101 HITS - NO.1 DAD - CD2\19.Sensational Alex Harvey Band - Boston Tea Party.wav

Peak level 99.8 %
Extraction speed 20.0 X
Track quality 100.0 %
Copy CRC 2E757052
Track not present in AccurateRip database
Copy OK

Track 20

Filename A:\PsPBuRnOuT's MUSIC\SORTED BY YEAR\2000 PLUS\101 HITS - NO.1 DAD\101 HITS - NO.1 DAD - CD2\20.Yello - The Race.wav

Peak level 96.2 %
Extraction speed 20.2 X
Track quality 100.0 %
Copy CRC EDC58BD1
Track not present in AccurateRip database
Copy OK


None of the tracks are present in the AccurateRip database

No errors occurred

End of status report

–– CUETools DB Plugin V2.1.6

[CTDB TOCID: PMBJzHUh8gG9b9v0VWB4ifdNyOI-] disk not present in database
Submit result: PMBJzHUh8gG9b9v0VWB4ifdNyOI- has been uploaded

Exact Audio Copy V1.3 from 2. September 2016

EAC extraction logfile from 12. September 2018, 18:36

Various / 101 Hits - No.1 Dad - CD3

Used drive : ATAPI iHAS124 Y Adapter: 1 ID: 0

Read mode : Secure
Utilize accurate stream : Yes
Defeat audio cache : No
Make use of C2 pointers : Yes

Read offset correction : 48
Overread into Lead-In and Lead-Out : No
Fill up missing offset samples with silence : Yes
Delete leading and trailing silent blocks : No
Null samples used in CRC calculations : Yes
Used interface : Native Win32 interface for Win NT & 2000
Gap handling : Not detected, thus appended to previous track

Used output format : User Defined Encoder
Selected bitrate : 896 kBit/s
Quality : High
Add ID3 tag : No
Command line compressor : C:\Program Files (x86)\Exact Audio Copy\FLAC\FLAC.EXE
Additional command line options : -6 -V -T "ARTIST=%artist%" -T "TITLE=%title%" -T "ALBUM=%albumtitle%" -T "DATE=%year%" -T "TRACKNUMBER=%tracknr%" -T "GENRE=%genre%" -T "COMMENT=%comment%" -T "BAND=%albuminterpret%" -T "ALBUMARTIST=%albuminterpret%" -T "COMPOSER=%composer%" %haslyrics%–tag-from-file=LYRICS="%lyricsfile%"%haslyrics% -T "DISCNUMBER=%cdnumber%" -T "TOTALDISCS=%totalcds%" -T "TOTALTRACKS=%numtracks%" %hascover%–picture="%coverfile%"%hascover% %source% -o %dest%


TOC of the extracted CD

Track | Start | Length | Start sector | End sector
––––––––––––––––––––––––––––-
1 | 0:00.00 | 2:26.65 | 0 | 11014
2 | 2:26.65 | 2:54.65 | 11015 | 24129
3 | 5:21.55 | 2:31.27 | 24130 | 35481
4 | 7:53.07 | 2:34.00 | 35482 | 47031
5 | 10:27.07 | 3:29.28 | 47032 | 62734
6 | 13:56.35 | 2:00.47 | 62735 | 71781
7 | 15:57.07 | 2:52.00 | 71782 | 84681
8 | 18:49.07 | 2:00.00 | 84682 | 93681
9 | 20:49.07 | 3:13.70 | 93682 | 108226
10 | 24:03.02 | 2:47.74 | 108227 | 120825
11 | 26:51.01 | 4:52.00 | 120826 | 142725
12 | 31:43.01 | 4:15.22 | 142726 | 161872
13 | 35:58.23 | 3:02.05 | 161873 | 175527
14 | 39:00.28 | 4:08.10 | 175528 | 194137
15 | 43:08.38 | 3:11.24 | 194138 | 208486
16 | 46:19.62 | 1:58.47 | 208487 | 217383
17 | 48:18.34 | 2:20.08 | 217384 | 227891
18 | 50:38.42 | 2:56.00 | 227892 | 241091
19 | 53:34.42 | 2:38.71 | 241092 | 253012
20 | 56:13.38 | 2:04.67 | 253013 | 262379
21 | 58:18.30 | 2:35.40 | 262380 | 274044


Track 1

Filename A:\PsPBuRnOuT's MUSIC\SORTED BY YEAR\2000 PLUS\101 HITS - NO.1 DAD\101 HITS - NO.1 DAD - CD3\01.Dusty Springfield - Son Of A Preacher Man.wav

Peak level 96.2 %
Extraction speed 11.3 X
Track quality 100.0 %
Copy CRC 8CC489F9
Track not present in AccurateRip database
Copy OK

Track 2

Filename A:\PsPBuRnOuT's MUSIC\SORTED BY YEAR\2000 PLUS\101 HITS - NO.1 DAD\101 HITS - NO.1 DAD - CD3\02.Small Faces - Sha La La La Lee.wav

Peak level 100.0 %
Extraction speed 17.2 X
Track quality 100.0 %
Copy CRC 5D7A2D24
Track not present in AccurateRip database
Copy OK

Track 3

Filename A:\PsPBuRnOuT's MUSIC\SORTED BY YEAR\2000 PLUS\101 HITS - NO.1 DAD\101 HITS - NO.1 DAD - CD3\03.Georgie Fame & The Blue Flames - Getaway.wav

Peak level 99.2 %
Extraction speed 15.5 X
Track quality 99.8 %
Copy CRC 33CBC2AD
Track not present in AccurateRip database
Copy OK

Track 4

Filename A:\PsPBuRnOuT's MUSIC\SORTED BY YEAR\2000 PLUS\101 HITS - NO.1 DAD\101 HITS - NO.1 DAD - CD3\04.The Troggs - Wild Thing.wav

Peak level 96.2 %
Extraction speed 16.7 X
Track quality 100.0 %
Copy CRC 29C350DD
Track not present in AccurateRip database
Copy OK

Track 5

Filename A:\PsPBuRnOuT's MUSIC\SORTED BY YEAR\2000 PLUS\101 HITS - NO.1 DAD\101 HITS - NO.1 DAD - CD3\05.The Mamas & The Papas - Monday, Monday.wav

Peak level 98.9 %
Extraction speed 18.2 X
Track quality 99.8 %
Copy CRC 6382E41D
Track not present in AccurateRip database
Copy OK

Track 6

Filename A:\PsPBuRnOuT's MUSIC\SORTED BY YEAR\2000 PLUS\101 HITS - NO.1 DAD\101 HITS - NO.1 DAD - CD3\06.The Spencer Davis Group - Somebody Help Me.wav

Peak level 96.2 %
Extraction speed 16.3 X
Track quality 100.0 %
Copy CRC ED9666F8
Track not present in AccurateRip database
Copy OK

Track 7

Filename A:\PsPBuRnOuT's MUSIC\SORTED BY YEAR\2000 PLUS\101 HITS - NO.1 DAD\101 HITS - NO.1 DAD - CD3\07.Lulu And The Luvvers - Shout.wav

Peak level 99.9 %
Extraction speed 22.3 X
Track quality 100.0 %
Copy CRC 8B58F48F
Track not present in AccurateRip database
Copy OK

Track 8

Filename A:\PsPBuRnOuT's MUSIC\SORTED BY YEAR\2000 PLUS\101 HITS - NO.1 DAD\101 HITS - NO.1 DAD - CD3\08.Millie - My Boy Lollipop.wav

Peak level 92.2 %
Extraction speed 22.9 X
Track quality 100.0 %
Copy CRC EF383632
Track not present in AccurateRip database
Copy OK

Track 9

Filename A:\PsPBuRnOuT's MUSIC\SORTED BY YEAR\2000 PLUS\101 HITS - NO.1 DAD\101 HITS - NO.1 DAD - CD3\09.Jimmy Cliff - Wonderful World, Beautiful People.wav

Peak level 98.5 %
Extraction speed 24.2 X
Track quality 100.0 %
Copy CRC 71774169
Track not present in AccurateRip database
Copy OK

Track 10

Filename A:\PsPBuRnOuT's MUSIC\SORTED BY YEAR\2000 PLUS\101 HITS - NO.1 DAD\101 HITS - NO.1 DAD - CD3\10.Timebox - Beggin'.wav

Peak level 96.2 %
Extraction speed 26.6 X
Track quality 100.0 %
Copy CRC 6AF2D3BB
Track not present in AccurateRip database
Copy OK

Track 11

Filename A:\PsPBuRnOuT's MUSIC\SORTED BY YEAR\2000 PLUS\101 HITS - NO.1 DAD\101 HITS - NO.1 DAD - CD3\11.The Staple Singers - Respect Yourself.wav

Peak level 96.2 %
Extraction speed 27.3 X
Track quality 100.0 %
Copy CRC 4CF19C4C
Track not present in AccurateRip database
Copy OK

Track 12

Filename A:\PsPBuRnOuT's MUSIC\SORTED BY YEAR\2000 PLUS\101 HITS - NO.1 DAD\101 HITS - NO.1 DAD - CD3\12.Commodores - Easy.wav

Peak level 98.8 %
Extraction speed 28.7 X
Track quality 100.0 %
Copy CRC 3244D157
Track not present in AccurateRip database
Copy OK

Track 13

Filename A:\PsPBuRnOuT's MUSIC\SORTED BY YEAR\2000 PLUS\101 HITS - NO.1 DAD\101 HITS - NO.1 DAD - CD3\13.JR. Walker & The All Stars - How Sweet It Is (To Be Loved By You).wav

Peak level 98.9 %
Extraction speed 29.7 X
Track quality 100.0 %
Copy CRC E59CB897
Track not present in AccurateRip database
Copy OK

Track 14

Filename A:\PsPBuRnOuT's MUSIC\SORTED BY YEAR\2000 PLUS\101 HITS - NO.1 DAD\101 HITS - NO.1 DAD - CD3\14.Steam - Na Na Hey Hey Kiss Him Goodbye.wav

Peak level 96.2 %
Extraction speed 29.0 X
Track quality 100.0 %
Copy CRC 374F4BAE
Track not present in AccurateRip database
Copy OK

Track 15

Filename A:\PsPBuRnOuT's MUSIC\SORTED BY YEAR\2000 PLUS\101 HITS - NO.1 DAD\101 HITS - NO.1 DAD - CD3\15.Detroit Spinners - It's A Shame.wav

Peak level 93.3 %
Extraction speed 31.9 X
Track quality 100.0 %
Copy CRC C33220BF
Track not present in AccurateRip database
Copy OK

Track 16

Filename A:\PsPBuRnOuT's MUSIC\SORTED BY YEAR\2000 PLUS\101 HITS - NO.1 DAD\101 HITS - NO.1 DAD - CD3\16.The Mindbenders - A Groovy Kind Of Love.wav

Peak level 96.2 %
Extraction speed 33.0 X
Track quality 100.0 %
Copy CRC D9389E1C
Track not present in AccurateRip database
Copy OK

Track 17

Filename A:\PsPBuRnOuT's MUSIC\SORTED BY YEAR\2000 PLUS\101 HITS - NO.1 DAD\101 HITS - NO.1 DAD - CD3\17.Sam The Sham & The Pharaohs - Wooly Bully.wav

Peak level 96.2 %
Extraction speed 30.4 X
Track quality 100.0 %
Copy CRC E9EA0AB4
Track not present in AccurateRip database
Copy OK

Track 18

Filename A:\PsPBuRnOuT's MUSIC\SORTED BY YEAR\2000 PLUS\101 HITS - NO.1 DAD\101 HITS - NO.1 DAD - CD3\18.David Bowie - The Laughing Gnome.wav

Peak level 96.2 %
Extraction speed 33.9 X
Track quality 100.0 %
Copy CRC 8BB8A43A
Track not present in AccurateRip database
Copy OK

Track 19

Filename A:\PsPBuRnOuT's MUSIC\SORTED BY YEAR\2000 PLUS\101 HITS - NO.1 DAD\101 HITS - NO.1 DAD - CD3\19.Amen Corner - Bend Me Shape Me.wav

Peak level 95.8 %
Extraction speed 31.7 X
Track quality 100.0 %
Copy CRC D988FD99
Track not present in AccurateRip database
Copy OK

Track 20

Filename A:\PsPBuRnOuT's MUSIC\SORTED BY YEAR\2000 PLUS\101 HITS - NO.1 DAD\101 HITS - NO.1 DAD - CD3\20.Jimmy Jones - Good Timin'.wav

Peak level 80.8 %
Extraction speed 24.4 X
Track quality 99.8 %
Copy CRC 3F8FC471
Track not present in AccurateRip database
Copy OK

Track 21

Filename A:\PsPBuRnOuT's MUSIC\SORTED BY YEAR\2000 PLUS\101 HITS - NO.1 DAD\101 HITS - NO.1 DAD - CD3\21.Manfred Mann - Semi-Detached Suburban Mr. James.wav

Peak level 100.0 %
Extraction speed 17.5 X
Track quality 99.8 %
Copy CRC 6F43C6F0
Track not present in AccurateRip database
Copy OK


None of the tracks are present in the AccurateRip database

No errors occurred

End of status report

–– CUETools DB Plugin V2.1.6

[CTDB TOCID: _uc4qfI2vfG6cxr.4cmCeVlxoGc-] disk not present in database
Submit result: _uc4qfI2vfG6cxr.4cmCeVlxoGc- has been uploaded

Exact Audio Copy V1.3 from 2. September 2016

EAC extraction logfile from 12. September 2018, 18:52

Various / 101 Hits - No.1 Dad - CD4

Used drive : ATAPI iHAS124 Y Adapter: 1 ID: 0

Read mode : Secure
Utilize accurate stream : Yes
Defeat audio cache : No
Make use of C2 pointers : Yes

Read offset correction : 48
Overread into Lead-In and Lead-Out : No
Fill up missing offset samples with silence : Yes
Delete leading and trailing silent blocks : No
Null samples used in CRC calculations : Yes
Used interface : Native Win32 interface for Win NT & 2000
Gap handling : Not detected, thus appended to previous track

Used output format : User Defined Encoder
Selected bitrate : 896 kBit/s
Quality : High
Add ID3 tag : No
Command line compressor : C:\Program Files (x86)\Exact Audio Copy\FLAC\FLAC.EXE
Additional command line options : -6 -V -T "ARTIST=%artist%" -T "TITLE=%title%" -T "ALBUM=%albumtitle%" -T "DATE=%year%" -T "TRACKNUMBER=%tracknr%" -T "GENRE=%genre%" -T "COMMENT=%comment%" -T "BAND=%albuminterpret%" -T "ALBUMARTIST=%albuminterpret%" -T "COMPOSER=%composer%" %haslyrics%–tag-from-file=LYRICS="%lyricsfile%"%haslyrics% -T "DISCNUMBER=%cdnumber%" -T "TOTALDISCS=%totalcds%" -T "TOTALTRACKS=%numtracks%" %hascover%–picture="%coverfile%"%hascover% %source% -o %dest%


TOC of the extracted CD

Track | Start | Length | Start sector | End sector
––––––––––––––––––––––––––––-
1 | 0:00.00 | 3:34.22 | 0 | 16071
2 | 3:34.22 | 2:42.13 | 16072 | 28234
3 | 6:16.35 | 2:16.73 | 28235 | 38507
4 | 8:33.33 | 3:07.41 | 38508 | 52573
5 | 11:40.74 | 4:23.28 | 52574 | 72326
6 | 16:04.27 | 4:01.45 | 72327 | 90446
7 | 20:05.72 | 3:03.24 | 90447 | 104195
8 | 23:09.21 | 3:24.10 | 104196 | 119505
9 | 26:33.31 | 4:30.00 | 119506 | 139755
10 | 31:03.31 | 2:40.38 | 139756 | 151793
11 | 33:43.69 | 3:59.70 | 151794 | 169788
12 | 37:43.64 | 4:15.25 | 169789 | 188938
13 | 41:59.14 | 4:29.74 | 188939 | 209187
14 | 46:29.13 | 5:01.50 | 209188 | 231812
15 | 51:30.63 | 3:46.36 | 231813 | 248798
16 | 55:17.24 | 3:28.61 | 248799 | 264459
17 | 58:46.10 | 3:43.74 | 264460 | 281258
18 | 62:30.09 | 4:23.65 | 281259 | 301048
19 | 66:53.74 | 3:19.51 | 301049 | 316024
20 | 70:13.50 | 4:02.48 | 316025 | 334222


Track 1

Filename A:\PsPBuRnOuT's MUSIC\SORTED BY YEAR\2000 PLUS\101 HITS - NO.1 DAD\101 HITS - NO.1 DAD - CD4\01.Tears For Fears - Mad World.wav

Peak level 96.2 %
Extraction speed 14.8 X
Track quality 100.0 %
Copy CRC E9699A71
Track not present in AccurateRip database
Copy OK

Track 2

Filename A:\PsPBuRnOuT's MUSIC\SORTED BY YEAR\2000 PLUS\101 HITS - NO.1 DAD\101 HITS - NO.1 DAD - CD4\02.The Teardrop Explodes - Reward.wav

Peak level 96.2 %
Extraction speed 17.0 X
Track quality 99.8 %
Copy CRC E05E3AB8
Track not present in AccurateRip database
Copy OK

Track 3

Filename A:\PsPBuRnOuT's MUSIC\SORTED BY YEAR\2000 PLUS\101 HITS - NO.1 DAD\101 HITS - NO.1 DAD - CD4\03.The Jam - Start.wav

Peak level 96.2 %
Extraction speed 16.4 X
Track quality 100.0 %
Copy CRC D8CAD67A
Track not present in AccurateRip database
Copy OK

Track 4

Filename A:\PsPBuRnOuT's MUSIC\SORTED BY YEAR\2000 PLUS\101 HITS - NO.1 DAD\101 HITS - NO.1 DAD - CD4\04.Squeeze - Cool For Cats.wav

Peak level 96.2 %
Extraction speed 22.2 X
Track quality 100.0 %
Copy CRC 32FCB1D1
Track not present in AccurateRip database
Copy OK

Track 5

Filename A:\PsPBuRnOuT's MUSIC\SORTED BY YEAR\2000 PLUS\101 HITS - NO.1 DAD\101 HITS - NO.1 DAD - CD4\05.ABC - When Smokey Sings.wav

Peak level 96.2 %
Extraction speed 23.7 X
Track quality 100.0 %
Copy CRC 40174B13
Track not present in AccurateRip database
Copy OK

Track 6

Filename A:\PsPBuRnOuT's MUSIC\SORTED BY YEAR\2000 PLUS\101 HITS - NO.1 DAD\101 HITS - NO.1 DAD - CD4\06.Level 42 - Lessons In Love.wav

Peak level 96.7 %
Extraction speed 26.3 X
Track quality 100.0 %
Copy CRC A548E72A
Track not present in AccurateRip database
Copy OK

Track 7

Filename A:\PsPBuRnOuT's MUSIC\SORTED BY YEAR\2000 PLUS\101 HITS - NO.1 DAD\101 HITS - NO.1 DAD - CD4\07.Heaven 17 - Temptation.wav

Peak level 99.9 %
Extraction speed 27.4 X
Track quality 100.0 %
Copy CRC D86B94D2
Track not present in AccurateRip database
Copy OK

Track 8

Filename A:\PsPBuRnOuT's MUSIC\SORTED BY YEAR\2000 PLUS\101 HITS - NO.1 DAD\101 HITS - NO.1 DAD - CD4\08.Musical Youth - Pass The Dutchie.wav

Peak level 96.2 %
Extraction speed 27.3 X
Track quality 100.0 %
Copy CRC D3886CE1
Track not present in AccurateRip database
Copy OK

Track 9

Filename A:\PsPBuRnOuT's MUSIC\SORTED BY YEAR\2000 PLUS\101 HITS - NO.1 DAD\101 HITS - NO.1 DAD - CD4\09.UB40 - One In Ten.wav

Peak level 96.2 %
Extraction speed 29.2 X
Track quality 100.0 %
Copy CRC 2F8E6CB3
Track not present in AccurateRip database
Copy OK

Track 10

Filename A:\PsPBuRnOuT's MUSIC\SORTED BY YEAR\2000 PLUS\101 HITS - NO.1 DAD\101 HITS - NO.1 DAD - CD4\10.Soft Cell - Tainted Love.wav

Peak level 82.9 %
Extraction speed 29.1 X
Track quality 100.0 %
Copy CRC 89CF3E80
Track not present in AccurateRip database
Copy OK

Track 11

Filename A:\PsPBuRnOuT's MUSIC\SORTED BY YEAR\2000 PLUS\101 HITS - NO.1 DAD\101 HITS - NO.1 DAD - CD4\11.Dexys Midnight Runners - Come On Eileen.wav

Peak level 87.0 %
Extraction speed 26.4 X
Track quality 99.9 %
Copy CRC 090D0F00
Track not present in AccurateRip database
Copy OK

Track 12

Filename A:\PsPBuRnOuT's MUSIC\SORTED BY YEAR\2000 PLUS\101 HITS - NO.1 DAD\101 HITS - NO.1 DAD - CD4\12.Kim Wilde - You Keep Me Hangin' On.wav

Peak level 100.0 %
Extraction speed 27.0 X
Track quality 100.0 %
Copy CRC BB123176
Track not present in AccurateRip database
Copy OK

Track 13

Filename A:\PsPBuRnOuT's MUSIC\SORTED BY YEAR\2000 PLUS\101 HITS - NO.1 DAD\101 HITS - NO.1 DAD - CD4\13.Nik Kershaw - Wouldn't It Be Good.wav

Peak level 96.2 %
Extraction speed 34.5 X
Track quality 100.0 %
Copy CRC 6109DF99
Track not present in AccurateRip database
Copy OK

Track 14

Filename A:\PsPBuRnOuT's MUSIC\SORTED BY YEAR\2000 PLUS\101 HITS - NO.1 DAD\101 HITS - NO.1 DAD - CD4\14.Texas - I Don't Want A Lover.wav

Peak level 99.8 %
Extraction speed 33.8 X
Track quality 100.0 %
Copy CRC 3CDF1B8C
Track not present in AccurateRip database
Copy OK

Track 15

Filename A:\PsPBuRnOuT's MUSIC\SORTED BY YEAR\2000 PLUS\101 HITS - NO.1 DAD\101 HITS - NO.1 DAD - CD4\15.Swing Out Sister - Breakout.wav

Peak level 96.2 %
Extraction speed 34.9 X
Track quality 100.0 %
Copy CRC FDE3EE19
Track not present in AccurateRip database
Copy OK

Track 16

Filename A:\PsPBuRnOuT's MUSIC\SORTED BY YEAR\2000 PLUS\101 HITS - NO.1 DAD\101 HITS - NO.1 DAD - CD4\16.Split Enz - I Got You.wav

Peak level 100.0 %
Extraction speed 37.9 X
Track quality 100.0 %
Copy CRC ECFC0D41
Track not present in AccurateRip database
Copy OK

Track 17

Filename A:\PsPBuRnOuT's MUSIC\SORTED BY YEAR\2000 PLUS\101 HITS - NO.1 DAD\101 HITS - NO.1 DAD - CD4\17.Status Quo - Caroline.wav

Peak level 96.2 %
Extraction speed 30.2 X
Track quality 99.9 %
Copy CRC A34DBCE4
Track not present in AccurateRip database
Copy OK

Track 18

Filename A:\PsPBuRnOuT's MUSIC\SORTED BY YEAR\2000 PLUS\101 HITS - NO.1 DAD\101 HITS - NO.1 DAD - CD4\18.Culture Club - Do You Really Want To Hurt Me.wav

Peak level 96.2 %
Extraction speed 25.8 X
Track quality 99.9 %
Copy CRC E8C97367
Track not present in AccurateRip database
Copy OK

Track 19

Filename A:\PsPBuRnOuT's MUSIC\SORTED BY YEAR\2000 PLUS\101 HITS - NO.1 DAD\101 HITS - NO.1 DAD - CD4\19.Buggles - Video Killed The Radio Star.wav

Peak level 96.2 %
Extraction speed 28.5 X
Track quality 100.0 %
Copy CRC BEF2747F
Track not present in AccurateRip database
Copy OK

Track 20

Filename A:\PsPBuRnOuT's MUSIC\SORTED BY YEAR\2000 PLUS\101 HITS - NO.1 DAD\101 HITS - NO.1 DAD - CD4\20.T'Pau - China In Your Hand.wav

Peak level 94.9 %
Extraction speed 41.5 X
Track quality 100.0 %
Copy CRC 13B7B21A
Track not present in AccurateRip database
Copy OK


None of the tracks are present in the AccurateRip database

No errors occurred

End of status report

–– CUETools DB Plugin V2.1.6

[CTDB TOCID: JuSjMpoQSRCo04doCMHcW7WkaDo-] disk not present in database
Submit result: JuSjMpoQSRCo04doCMHcW7WkaDo- has been uploaded

Exact Audio Copy V1.3 from 2. September 2016

EAC extraction logfile from 12. September 2018, 19:18

Various / 101 Hits - No.1 Dad - CD5

Used drive : ATAPI iHAS124 Y Adapter: 1 ID: 0

Read mode : Secure
Utilize accurate stream : Yes
Defeat audio cache : No
Make use of C2 pointers : Yes

Read offset correction : 48
Overread into Lead-In and Lead-Out : No
Fill up missing offset samples with silence : Yes
Delete leading and trailing silent blocks : No
Null samples used in CRC calculations : Yes
Used interface : Native Win32 interface for Win NT & 2000
Gap handling : Not detected, thus appended to previous track

Used output format : User Defined Encoder
Selected bitrate : 896 kBit/s
Quality : High
Add ID3 tag : No
Command line compressor : C:\Program Files (x86)\Exact Audio Copy\FLAC\FLAC.EXE
Additional command line options : -6 -V -T "ARTIST=%artist%" -T "TITLE=%title%" -T "ALBUM=%albumtitle%" -T "DATE=%year%" -T "TRACKNUMBER=%tracknr%" -T "GENRE=%genre%" -T "COMMENT=%comment%" -T "BAND=%albuminterpret%" -T "ALBUMARTIST=%albuminterpret%" -T "COMPOSER=%composer%" %haslyrics%–tag-from-file=LYRICS="%lyricsfile%"%haslyrics% -T "DISCNUMBER=%cdnumber%" -T "TOTALDISCS=%totalcds%" -T "TOTALTRACKS=%numtracks%" %hascover%–picture="%coverfile%"%hascover% %source% -o %dest%


TOC of the extracted CD

Track | Start | Length | Start sector | End sector
––––––––––––––––––––––––––––-
1 | 0:00.00 | 3:24.28 | 0 | 15327
2 | 3:24.28 | 3:55.10 | 15328 | 32962
3 | 7:19.38 | 3:57.00 | 32963 | 50737
4 | 11:16.38 | 4:04.23 | 50738 | 69060
5 | 15:20.61 | 4:27.43 | 69061 | 89128
6 | 19:48.29 | 3:11.47 | 89129 | 103500
7 | 23:00.01 | 4:25.74 | 103501 | 123449
8 | 27:26.00 | 2:42.56 | 123450 | 135655
9 | 30:08.56 | 3:19.58 | 135656 | 150638
10 | 33:28.39 | 3:46.22 | 150639 | 167610
11 | 37:14.61 | 4:10.00 | 167611 | 186360
12 | 41:24.61 | 3:20.58 | 186361 | 201418
13 | 44:45.44 | 4:18.65 | 201419 | 220833
14 | 49:04.34 | 3:53.74 | 220834 | 238382
15 | 52:58.33 | 4:34.72 | 238383 | 259004
16 | 57:33.30 | 3:48.40 | 259005 | 276144
17 | 61:21.70 | 3:35.72 | 276145 | 292341
18 | 64:57.67 | 3:39.00 | 292342 | 308766
19 | 68:36.67 | 4:46.33 | 308767 | 330249


Track 1

Filename A:\PsPBuRnOuT's MUSIC\SORTED BY YEAR\2000 PLUS\101 HITS - NO.1 DAD\101 HITS - NO.1 DAD - CD5\01.The Kooks - Naive.wav

Peak level 98.8 %
Extraction speed 14.7 X
Track quality 100.0 %
Copy CRC EE79171D
Track not present in AccurateRip database
Copy OK

Track 2

Filename A:\PsPBuRnOuT's MUSIC\SORTED BY YEAR\2000 PLUS\101 HITS - NO.1 DAD\101 HITS - NO.1 DAD - CD5\02.Cast - Flying.wav

Peak level 96.2 %
Extraction speed 20.1 X
Track quality 100.0 %
Copy CRC E12CB558
Track not present in AccurateRip database
Copy OK

Track 3

Filename A:\PsPBuRnOuT's MUSIC\SORTED BY YEAR\2000 PLUS\101 HITS - NO.1 DAD\101 HITS - NO.1 DAD - CD5\03.Dodgy - Good Enough.wav

Peak level 96.2 %
Extraction speed 21.8 X
Track quality 100.0 %
Copy CRC 6713B3FC
Track not present in AccurateRip database
Copy OK

Track 4

Filename A:\PsPBuRnOuT's MUSIC\SORTED BY YEAR\2000 PLUS\101 HITS - NO.1 DAD\101 HITS - NO.1 DAD - CD5\04.James - Sit Down.wav

Peak level 98.8 %
Extraction speed 23.5 X
Track quality 100.0 %
Copy CRC 47F1A6A0
Track not present in AccurateRip database
Copy OK

Track 5

Filename A:\PsPBuRnOuT's MUSIC\SORTED BY YEAR\2000 PLUS\101 HITS - NO.1 DAD\101 HITS - NO.1 DAD - CD5\05.The Style Council - You're The Best Thing.wav

Peak level 96.2 %
Extraction speed 25.0 X
Track quality 100.0 %
Copy CRC B089D91A
Track not present in AccurateRip database
Copy OK

Track 6

Filename A:\PsPBuRnOuT's MUSIC\SORTED BY YEAR\2000 PLUS\101 HITS - NO.1 DAD\101 HITS - NO.1 DAD - CD5\06.Ocean Colour Scene - The Day We Caught The Train.wav

Peak level 100.0 %
Extraction speed 27.5 X
Track quality 100.0 %
Copy CRC C5D825CE
Track not present in AccurateRip database
Copy OK

Track 7

Filename A:\PsPBuRnOuT's MUSIC\SORTED BY YEAR\2000 PLUS\101 HITS - NO.1 DAD\101 HITS - NO.1 DAD - CD5\07.Shed Seven - Going For Gold.wav

Peak level 96.2 %
Extraction speed 27.5 X
Track quality 100.0 %
Copy CRC 032BAC99
Track not present in AccurateRip database
Copy OK

Track 8

Filename A:\PsPBuRnOuT's MUSIC\SORTED BY YEAR\2000 PLUS\101 HITS - NO.1 DAD\101 HITS - NO.1 DAD - CD5\08.The LA's - There She Goes.wav

Peak level 96.2 %
Extraction speed 28.2 X
Track quality 100.0 %
Copy CRC BFCC2038
Track not present in AccurateRip database
Copy OK

Track 9

Filename A:\PsPBuRnOuT's MUSIC\SORTED BY YEAR\2000 PLUS\101 HITS - NO.1 DAD\101 HITS - NO.1 DAD - CD5\09.The Bluetones - Slight Return.wav

Peak level 96.4 %
Extraction speed 24.7 X
Track quality 99.8 %
Copy CRC 05689369
Track not present in AccurateRip database
Copy OK

Track 10

Filename A:\PsPBuRnOuT's MUSIC\SORTED BY YEAR\2000 PLUS\101 HITS - NO.1 DAD\101 HITS - NO.1 DAD - CD5\10.Stereo MC's - Connected.wav

Peak level 100.0 %
Extraction speed 25.1 X
Track quality 100.0 %
Copy CRC 226B49A7
Track not present in AccurateRip database
Copy OK

Track 11

Filename A:\PsPBuRnOuT's MUSIC\SORTED BY YEAR\2000 PLUS\101 HITS - NO.1 DAD\101 HITS - NO.1 DAD - CD5\11.Warren G Feat. Nate Dogg - Regulate.wav

Peak level 96.2 %
Extraction speed 31.6 X
Track quality 100.0 %
Copy CRC 534055D5
Track not present in AccurateRip database
Copy OK

Track 12

Filename A:\PsPBuRnOuT's MUSIC\SORTED BY YEAR\2000 PLUS\101 HITS - NO.1 DAD\101 HITS - NO.1 DAD - CD5\12.Aswad - Don't Turn Around.wav

Peak level 96.2 %
Extraction speed 26.4 X
Track quality 99.8 %
Copy CRC 7E6CA846
Track not present in AccurateRip database
Copy OK

Track 13

Filename A:\PsPBuRnOuT's MUSIC\SORTED BY YEAR\2000 PLUS\101 HITS - NO.1 DAD\101 HITS - NO.1 DAD - CD5\13.Cameo - Word Up.wav

Peak level 99.5 %
Extraction speed 28.4 X
Track quality 100.0 %
Copy CRC AF5D7B5C
Track not present in AccurateRip database
Copy OK

Track 14

Filename A:\PsPBuRnOuT's MUSIC\SORTED BY YEAR\2000 PLUS\101 HITS - NO.1 DAD\101 HITS - NO.1 DAD - CD5\14.Lipps Inc. - Funkytown.wav

Peak level 98.2 %
Extraction speed 36.3 X
Track quality 100.0 %
Copy CRC 23D0E3CF
Track not present in AccurateRip database
Copy OK

Track 15

Filename A:\PsPBuRnOuT's MUSIC\SORTED BY YEAR\2000 PLUS\101 HITS - NO.1 DAD\101 HITS - NO.1 DAD - CD5\15.Cutting Crew - (I Just) Died In Your Arms.wav

Peak level 98.2 %
Extraction speed 35.0 X
Track quality 100.0 %
Copy CRC 9F3FF73E
Track not present in AccurateRip database
Copy OK

Track 16

Filename A:\PsPBuRnOuT's MUSIC\SORTED BY YEAR\2000 PLUS\101 HITS - NO.1 DAD\101 HITS - NO.1 DAD - CD5\16.DNA Feat. Suzanne Vega - Tom's Diner.wav

Peak level 99.8 %
Extraction speed 38.4 X
Track quality 100.0 %
Copy CRC 28E9E6A3
Track not present in AccurateRip database
Copy OK

Track 17

Filename A:\PsPBuRnOuT's MUSIC\SORTED BY YEAR\2000 PLUS\101 HITS - NO.1 DAD\101 HITS - NO.1 DAD - CD5\17.Fall Out Boy - Sugar, We're Goin Down.wav

Peak level 99.9 %
Extraction speed 36.9 X
Track quality 100.0 %
Copy CRC 6E56F09A
Track not present in AccurateRip database
Copy OK

Track 18

Filename A:\PsPBuRnOuT's MUSIC\SORTED BY YEAR\2000 PLUS\101 HITS - NO.1 DAD\101 HITS - NO.1 DAD - CD5\18.Free - Wishing Well.wav

Peak level 96.2 %
Extraction speed 40.3 X
Track quality 100.0 %
Copy CRC 04C67FD8
Track not present in AccurateRip database
Copy OK

Track 19

Filename A:\PsPBuRnOuT's MUSIC\SORTED BY YEAR\2000 PLUS\101 HITS - NO.1 DAD\101 HITS - NO.1 DAD - CD5\19.Lynyrd Skynyrd - Sweet Home Alabama.wav

Peak level 96.2 %
Extraction speed 38.8 X
Track quality 100.0 %
Copy CRC 19EF2F82
Track not present in AccurateRip database
Copy OK


None of the tracks are present in the AccurateRip database

No errors occurred

End of status report

–– CUETools DB Plugin V2.1.6

[CTDB TOCID: 0dAhU.z3bsVby6YWJEZK1QqaXS0-] disk not present in database
Submit result: 0dAhU.z3bsVby6YWJEZK1QqaXS0- has been uploaded