Subcategories

VA - 70s Songs (3CD, 2017)

Posted By: ciklon5
VA - 70s Songs (3CD, 2017)

VA - 70s Songs (3CD, 2017)
FLAC (tracks) / MP3 320 kbps | 3:32:51 | 1,4 Gb / 490 Mb
Genre: Funk, Soul, Folk, Country, Rock / Label: Crimson

60 Classic Tracks of The Seventies across Pop, Disco, Soul and Classic Rock on 3CDs. Packaged in cool, slim digipak featuring unforgettable tracks from DAVID ESSEX, TERRY JACKS, MEAT LOAF, MCFADDEN & WHITEHEAD, THE JACKSONS AND MANY MORE..

Track List:

CD1:

1. David Essex - Gonna Make You A Star
2. Terry Jacks - Seasons In The Sun
3. Bay City Rollers - Bye Bye Baby
4. Leo Sayer - You Make Me Feel Like Dancing
5. Dana - Fairytale
6. Christie - Yellow River
7. The New Seekers - You Won't Find Another Fool Like Me
8. Boz Scaggs - Lido Shuffle
9. Ian Dury - Hit Me With Your Rhythm Stick
10. Kursaal Flyers - Little Does She Know
11. Sly & The Family Stone - Family Affair
12. Daryl Hall & John Oates - Rich Girl
13. Bill Withers - Lovely Day
14. Showaddywaddy - Under The Moon Of Love
15. Dawn feat. Tony Orlando - Tie a Yellow Ribbon Round the Ole Oak Tree
16. Smokie - Living Next Door To Alice
17. Barry Manilow - Could It Be Magic
18. Art Garfunkel - I Only Have Eyes For You
19. Harry Nilsson - Without You
20. Eric Carmen - All By Myself"

CD2:

1. "1. Meat Loaf - Bat Out Of Hell
2. Boston - More Than A Feeling
3. Ram Jam - Black Betty
4. Blue Oyster Cult - (Don't Fear) The Reaper
5. Patti Smith Group - Because The Night
6. Dead End Kids - Have I the Right
7. Fleetwood Mac - Albatross
8. John Denver - Annie's Song
9. Dolly Parton - Jolene
10. Tammy Wynette - Stand By Your Man
11. Andy Williams - Where Do I Begin (Love Theme from ""Love Story"")
12. The Drifters - Kissin' In The Back Row Of The Movie
13. Billy Ocean - Love Really Hurts Without You
14. Harold Melvin & The Blue Notes - The Love I Lost
15. The Isley Brothers - Harvest For The World
16. Gladys Knight & The Pips - Come Back and Finish What You Started
17. The O'Jays - I Love Music
18. Labelle - Lady Marmalade
19. Raydio - Jack & Jill
20. Deniece Williams - Free"

CD3:

1. "1. McFadden & Whitehead - Ain't No Stoppin' Us Now
2. The Jacksons - Shake Your Body (Down To The Ground)
3. Heatwave - Boogie Nights
4. Cheryl Lynn - Got To Be Real
5. Baccara - Yes Sir, I Can Boogie
6. Andrea True Connection - More, More, More
7. Boney M. - Rivers Of Babylon
8. Dan Hartman - Relight My Fire
9. The Hues Corporation - Rock the Boat
10. Sarah Brightman and Hot Gossip - I Lost My Heart to a Starship Trooper
11. Frantique - Strut Your Funky Stuff
12. Eruption - I Can't Stand The Rain
13. The Three Degrees - Givin' Up Givin' In
14. Gary's Gang - Keep On Dancing
15. The Dooleys - Wanted
16. Vicki Sue Robinson - Turn The Beat Around
17. The Emotions - Best Of My Love
18. Odyssey - Native New Yorker
19. Tina Charles - I Love to Love
20. Earth, Wind & Fire - Fantasy"

Information ripping to FLAC, 'Track 1' to '70's Songs\01 David Essex - Gonna Make You A Star.flac'
Track 1: Ripped LBA 0 to 16116 (3:34) in 0:46. Filename: 70's Songs\01 David Essex - Gonna Make You A Star._
Secure [Pass 1 & 2]
CRC32: D3DB6E84 AccurateRip CRC: 0F29A645 (CRCv2) [DiscID: 020-0030ec61-02d2abc8-1f107014-1]

Information ripping to FLAC, 'Track 2' to '70's Songs\02 Terry Jacks - Seasons In The Sun.flac'
Track 2: Ripped LBA 16116 to 31942 (3:31) in 0:41. Filename: 70's Songs\02 Terry Jacks - Seasons In The Sun._
Secure [Pass 1 & 2]
CRC32: 6BFD312F AccurateRip CRC: FCCE6551 (CRCv2) [DiscID: 020-0030ec61-02d2abc8-1f107014-2]

Information ripping to FLAC, 'Track 3' to '70's Songs\03 Bay City Rollers - Bye Bye Baby.flac'
Track 3: Ripped LBA 31942 to 44878 (2:52) in 0:32. Filename: 70's Songs\03 Bay City Rollers - Bye Bye Baby._
Secure [Pass 1 & 2]
CRC32: 62BB46AA AccurateRip CRC: DBCB890A (CRCv2) [DiscID: 020-0030ec61-02d2abc8-1f107014-3]

Information ripping to FLAC, 'Track 4' to '70's Songs\04 Leo Sayer - You Make Me Feel Like Dancing.flac'
Track 4: Ripped LBA 44878 to 57806 (2:52) in 0:30. Filename: 70's Songs\04 Leo Sayer - You Make Me Feel Like Dancing._
Secure [Pass 1 & 2]
CRC32: B2F066B3 AccurateRip CRC: 1042F8B9 (CRCv2) [DiscID: 020-0030ec61-02d2abc8-1f107014-4]

Information ripping to FLAC, 'Track 5' to '70's Songs\05 Dana - Fairytale.flac'
Track 5: Ripped LBA 57806 to 71830 (3:06) in 0:31. Filename: 70's Songs\05 Dana - Fairytale._
Secure [Pass 1 & 2]
CRC32: 6276CAB9 AccurateRip CRC: 48E41570 (CRCv2) [DiscID: 020-0030ec61-02d2abc8-1f107014-5]

Information ripping to FLAC, 'Track 6' to '70's Songs\06 Christie - Yellow River.flac'
Track 6: Ripped LBA 71830 to 84391 (2:47) in 0:27. Filename: 70's Songs\06 Christie - Yellow River._
Secure [Pass 1 & 2]
CRC32: C7B5A546 AccurateRip CRC: 981CDB2B (CRCv2) [DiscID: 020-0030ec61-02d2abc8-1f107014-6]

Information ripping to FLAC, 'Track 7' to '70's Songs\07 The New Seekers - You Won't Find Another Fool Like Me.flac'
Track 7: Ripped LBA 84391 to 98808 (3:12) in 0:30. Filename: 70's Songs\07 The New Seekers - You Won't Find Another Fool Like Me._
Secure [Pass 1 & 2]
CRC32: 9A9C6834 AccurateRip CRC: 5B0744D8 (CRCv2) [DiscID: 020-0030ec61-02d2abc8-1f107014-7]

Information ripping to FLAC, 'Track 8' to '70's Songs\08 Boz Scaggs - Lido Shuffle.flac'
Track 8: Ripped LBA 98808 to 115469 (3:42) in 0:32. Filename: 70's Songs\08 Boz Scaggs - Lido Shuffle._
Secure [Pass 1 & 2]
CRC32: 198FE401 AccurateRip CRC: B054A0D9 (CRCv2) [DiscID: 020-0030ec61-02d2abc8-1f107014-8]

Information ripping to FLAC, 'Track 9' to '70's Songs\09 Ian Dury and the Blockheads - Hit Me With Your Rhythm Stick.flac'
Track 9: Ripped LBA 115469 to 132309 (3:44) in 0:32. Filename: 70's Songs\09 Ian Dury and the Blockheads - Hit Me With Your Rhythm Stick._
Secure [Pass 1 & 2]
CRC32: 152F2FCC AccurateRip CRC: B79783E6 (CRCv2) [DiscID: 020-0030ec61-02d2abc8-1f107014-9]

Information ripping to FLAC, 'Track 10' to '70's Songs\10 Kursaal Flyers - Little Does She Know.flac'
Track 10: Ripped LBA 132309 to 156679 (5:24) in 0:42. Filename: 70's Songs\10 Kursaal Flyers - Little Does She Know._
Secure [Pass 1 & 2]
CRC32: 9DFE18B0 AccurateRip CRC: 89AE1AB8 (CRCv2) [DiscID: 020-0030ec61-02d2abc8-1f107014-10]

Information ripping to FLAC, 'Track 11' to '70's Songs\11 Sly and the Family Stone - Family Affair.flac'
Track 11: Ripped LBA 156679 to 170551 (3:04) in 0:24. Filename: 70's Songs\11 Sly and the Family Stone - Family Affair._
Secure [Pass 1 & 2]
CRC32: C52676D7 AccurateRip CRC: FA16B07C (CRCv2) [DiscID: 020-0030ec61-02d2abc8-1f107014-11]

Information ripping to FLAC, 'Track 12' to '70's Songs\12 Daryl Hall and John Oates - Rich Girl.flac'
Track 12: Ripped LBA 170551 to 181507 (2:26) in 0:19. Filename: 70's Songs\12 Daryl Hall and John Oates - Rich Girl._
Secure [Pass 1 & 2]
CRC32: 7B4E7109 AccurateRip CRC: 50B87F1D (CRCv2) [DiscID: 020-0030ec61-02d2abc8-1f107014-12]

Information ripping to FLAC, 'Track 13' to '70's Songs\13 Bill Withers - Lovely Day.flac'
Track 13: Ripped LBA 181507 to 200499 (4:13) in 0:31. Filename: 70's Songs\13 Bill Withers - Lovely Day._
Secure [Pass 1 & 2]
CRC32: 0C18DFC2 AccurateRip CRC: C535A63F (CRCv2) [DiscID: 020-0030ec61-02d2abc8-1f107014-13]

Information ripping to FLAC, 'Track 14' to '70's Songs\14 Showaddywaddy - Under The Moon Of Love.flac'
Track 14: Ripped LBA 200499 to 214791 (3:10) in 0:23. Filename: 70's Songs\14 Showaddywaddy - Under The Moon Of Love._
Secure [Pass 1 & 2]
CRC32: 0B0B4AB9 AccurateRip CRC: E6F0C927 (CRCv2) [DiscID: 020-0030ec61-02d2abc8-1f107014-14]

Information ripping to FLAC, 'Track 15' to '70's Songs\15 Dawn - Tie A Yellow Ribbon Round The Ole Oak Tree.flac'
Track 15: Ripped LBA 214791 to 228901 (3:08) in 0:23. Filename: 70's Songs\15 Dawn - Tie A Yellow Ribbon Round The Ole Oak Tree._
Secure [Pass 1 & 2]
CRC32: 2E9A8AF9 AccurateRip CRC: 0F2D8A78 (CRCv2) [DiscID: 020-0030ec61-02d2abc8-1f107014-15]

Information ripping to FLAC, 'Track 16' to '70's Songs\16 Smokie - Living Next Door To Alice.flac'
Track 16: Ripped LBA 228901 to 244567 (3:28) in 0:24. Filename: 70's Songs\16 Smokie - Living Next Door To Alice._
Secure [Pass 1 & 2]
CRC32: 8E9AC130 AccurateRip CRC: DECB42D3 (CRCv2) [DiscID: 020-0030ec61-02d2abc8-1f107014-16]

Information ripping to FLAC, 'Track 17' to '70's Songs\17 Barry Manilow - Could It Be Magic.flac'
Track 17: Ripped LBA 244567 to 263969 (4:18) in 0:39. Filename: 70's Songs\17 Barry Manilow - Could It Be Magic._
Secure [Pass 1 & 2]
CRC32: C81DA002 AccurateRip CRC: 6B4843D8 (CRCv2) [DiscID: 020-0030ec61-02d2abc8-1f107014-17]

Information ripping to FLAC, 'Track 18' to '70's Songs\18 Art Garfunkel - I Only Have Eyes For You.flac'
Track 18: Ripped LBA 263969 to 280331 (3:38) in 0:31. Filename: 70's Songs\18 Art Garfunkel - I Only Have Eyes For You._
Secure [Pass 1 & 2]
CRC32: 26AC771A AccurateRip CRC: 952DF142 (CRCv2) [DiscID: 020-0030ec61-02d2abc8-1f107014-18]

Information ripping to FLAC, 'Track 19' to '70's Songs\19 Harry Nilsson - Without You.flac'
Track 19: Ripped LBA 280331 to 295271 (3:19) in 0:27. Filename: 70's Songs\19 Harry Nilsson - Without You._
Secure [Pass 1 & 2]
CRC32: B27E2415 AccurateRip CRC: 94E837E4 (CRCv2) [DiscID: 020-0030ec61-02d2abc8-1f107014-19]

Information ripping to FLAC, 'Track 20' to '70's Songs\20 Eric Carmen - All By Myself.flac'
Track 20: Ripped LBA 295271 to 315626 (4:31) in 0:36. Filename: 70's Songs\20 Eric Carmen - All By Myself._
Secure [Pass 1 & 2]
CRC32: 95C4C8CE AccurateRip CRC: A140D9B8 (CRCv2) [DiscID: 020-0030ec61-02d2abc8-1f107014-20]

Information ripping to FLAC, 'Track 1' to '70's Songs - CD2\01 Meat Loaf - Bat Out Of Hell.flac'
Track 1: Ripped LBA 0 to 22085 (4:54) in 1:14. Filename: 70's Songs - CD2\01 Meat Loaf - Bat Out Of Hell._
Secure [Pass 1 & 2]
CRC32: 6FF8BFB9 AccurateRip CRC: 0E4BEAC9 (CRCv2) [DiscID: 020-0030f1dd-02c8af66-2a0fde14-1]

Information ripping to FLAC, 'Track 2' to '70's Songs - CD2\02 Boston - More Than A Feeling.flac'
Track 2: Ripped LBA 22085 to 37784 (3:29) in 0:47. Filename: 70's Songs - CD2\02 Boston - More Than A Feeling._
Secure [Pass 1 & 2]
CRC32: EB521D9B AccurateRip CRC: 2A4D7D9F (CRCv2) [DiscID: 020-0030f1dd-02c8af66-2a0fde14-2]

Information ripping to FLAC, 'Track 3' to '70's Songs - CD2\03 Ram Jam - Black Betty.flac'
Track 3: Ripped LBA 37784 to 49083 (2:30) in 0:32. Filename: 70's Songs - CD2\03 Ram Jam - Black Betty._
Secure [Pass 1 & 2]
CRC32: 1CADB725 AccurateRip CRC: 6FF47C48 (CRCv2) [DiscID: 020-0030f1dd-02c8af66-2a0fde14-3]

Information ripping to FLAC, 'Track 4' to '70's Songs - CD2\04 Don't Fear The Reaper - Don't Fear The Reaper.flac'
Track 4: Ripped LBA 49083 to 66470 (3:51) in 0:47. Filename: 70's Songs - CD2\04 Don't Fear The Reaper - Don't Fear The Reaper._
Secure [Pass 1 & 2]
CRC32: 2B1F1907 AccurateRip CRC: DA6BCC79 (CRCv2) [DiscID: 020-0030f1dd-02c8af66-2a0fde14-4]

Information ripping to FLAC, 'Track 5' to '70's Songs - CD2\05 Patti Smith Group - Because The Night.flac'
Track 5: Ripped LBA 66470 to 81748 (3:23) in 0:39. Filename: 70's Songs - CD2\05 Patti Smith Group - Because The Night._
Secure [Pass 1 & 2]
CRC32: 0677426D AccurateRip CRC: 2A49BDA2 (CRCv2) [DiscID: 020-0030f1dd-02c8af66-2a0fde14-5]

Information ripping to FLAC, 'Track 6' to '70's Songs - CD2\06 Dead End Kids - Have I The Right.flac'
Track 6: Ripped LBA 81748 to 96255 (3:13) in 0:35. Filename: 70's Songs - CD2\06 Dead End Kids - Have I The Right._
Secure [Pass 1 & 2]
CRC32: 33B2C76A AccurateRip CRC: 6A8D3A3A (CRCv2) [DiscID: 020-0030f1dd-02c8af66-2a0fde14-6]

Information ripping to FLAC, 'Track 7' to '70's Songs - CD2\07 Fleetwood Mac - Albatross.flac'
Track 7: Ripped LBA 96255 to 110182 (3:05) in 0:32. Filename: 70's Songs - CD2\07 Fleetwood Mac - Albatross._
Secure [Pass 1 & 2]
CRC32: F8374D06 AccurateRip CRC: 5E676636 (CRCv2) [DiscID: 020-0030f1dd-02c8af66-2a0fde14-7]

Information ripping to FLAC, 'Track 8' to '70's Songs - CD2\08 John Denver - Annies Song.flac'
Track 8: Ripped LBA 110182 to 123851 (3:02) in 0:30. Filename: 70's Songs - CD2\08 John Denver - Annies Song._
Secure [Pass 1 & 2]
CRC32: 758E6974 AccurateRip CRC: A9AC8E9D (CRCv2) [DiscID: 020-0030f1dd-02c8af66-2a0fde14-8]

Information ripping to FLAC, 'Track 9' to '70's Songs - CD2\09 Dolly Parton - Jolene.flac'
Track 9: Ripped LBA 123851 to 135858 (2:40) in 0:26. Filename: 70's Songs - CD2\09 Dolly Parton - Jolene._
Secure [Pass 1 & 2]
CRC32: 00D18A68 AccurateRip CRC: 802509F0 (CRCv2) [DiscID: 020-0030f1dd-02c8af66-2a0fde14-9]

Information ripping to FLAC, 'Track 10' to '70's Songs - CD2\10 Tammy Wynette - Stand By Your Man.flac'
Track 10: Ripped LBA 135858 to 147970 (2:41) in 0:25. Filename: 70's Songs - CD2\10 Tammy Wynette - Stand By Your Man._
Secure [Pass 1 & 2]
CRC32: FC3367D5 AccurateRip CRC: CAD916B3 (CRCv2) [DiscID: 020-0030f1dd-02c8af66-2a0fde14-10]

Information ripping to FLAC, 'Track 11' to '70's Songs - CD2\11 Andy Williams - Where Do I Begin.flac'
Track 11: Ripped LBA 147970 to 162390 (3:12) in 0:29. Filename: 70's Songs - CD2\11 Andy Williams - Where Do I Begin._
Secure [Pass 1 & 2]
CRC32: 903320E3 AccurateRip CRC: 2D5DA6C5 (CRCv2) [DiscID: 020-0030f1dd-02c8af66-2a0fde14-11]

Information ripping to FLAC, 'Track 12' to '70's Songs - CD2\12 The Drifters - Kissin' In The Back Row Of The Movies.flac'
Track 12: Ripped LBA 162390 to 178318 (3:32) in 0:31. Filename: 70's Songs - CD2\12 The Drifters - Kissin' In The Back Row Of The Movies._
Secure [Pass 1 & 2]
CRC32: A6E218AD AccurateRip CRC: CE847D33 (CRCv2) [DiscID: 020-0030f1dd-02c8af66-2a0fde14-12]

Information ripping to FLAC, 'Track 13' to '70's Songs - CD2\13 Billy Ocean - Love Really Hurts Without You.flac'
Track 13: Ripped LBA 178318 to 191892 (3:00) in 0:26. Filename: 70's Songs - CD2\13 Billy Ocean - Love Really Hurts Without You._
Secure [Pass 1 & 2]
CRC32: 2E759A0A AccurateRip CRC: 4770CC26 (CRCv2) [DiscID: 020-0030f1dd-02c8af66-2a0fde14-13]

Information ripping to FLAC, 'Track 14' to '70's Songs - CD2\14 Harold Melvin And The Blue Notes - The Love I Lost.flac'
Track 14: Ripped LBA 191892 to 208561 (3:42) in 0:31. Filename: 70's Songs - CD2\14 Harold Melvin And The Blue Notes - The Love I Lost._
Secure [Pass 1 & 2]
CRC32: AC1AA933 AccurateRip CRC: 2B53D507 (CRCv2) [DiscID: 020-0030f1dd-02c8af66-2a0fde14-14]

Information ripping to FLAC, 'Track 15' to '70's Songs - CD2\15 The Isley Brothers - Harvest For The World.flac'
Track 15: Ripped LBA 208561 to 226158 (3:54) in 0:32. Filename: 70's Songs - CD2\15 The Isley Brothers - Harvest For The World._
Secure [Pass 1 & 2]
CRC32: E4C9F620 AccurateRip CRC: C63644FA (CRCv2) [DiscID: 020-0030f1dd-02c8af66-2a0fde14-15]

Information ripping to FLAC, 'Track 16' to '70's Songs - CD2\16 Gladys Knight And The Pips - Come Back And Finish What You Started.flac'
Track 16: Ripped LBA 226158 to 241496 (3:24) in 0:27. Filename: 70's Songs - CD2\16 Gladys Knight And The Pips - Come Back And Finish What You Started._
Secure [Pass 1 & 2]
CRC32: D0F90AB4 AccurateRip CRC: 73232261 (CRCv2) [DiscID: 020-0030f1dd-02c8af66-2a0fde14-16]

Information ripping to FLAC, 'Track 17' to '70's Songs - CD2\17 The O'Jays - I Love Music.flac'
Track 17: Ripped LBA 241496 to 257654 (3:35) in 0:28. Filename: 70's Songs - CD2\17 The O'Jays - I Love Music._
Secure [Pass 1 & 2]
CRC32: 659FA3FC AccurateRip CRC: 330FB11E (CRCv2) [DiscID: 020-0030f1dd-02c8af66-2a0fde14-17]

Information ripping to FLAC, 'Track 18' to '70's Songs - CD2\18 Labelle - Lady Marmalade.flac'
Track 18: Ripped LBA 257654 to 272260 (3:14) in 0:24. Filename: 70's Songs - CD2\18 Labelle - Lady Marmalade._
Secure [Pass 1 & 2]
CRC32: E9226227 AccurateRip CRC: CA038038 (CRCv2) [DiscID: 020-0030f1dd-02c8af66-2a0fde14-18]

Information ripping to FLAC, 'Track 19' to '70's Songs - CD2\19 Raydio - Jack and Jill.flac'
Track 19: Ripped LBA 272260 to 292928 (4:35) in 0:34. Filename: 70's Songs - CD2\19 Raydio - Jack and Jill._
Secure [Pass 1 & 2]
CRC32: 5D45074C AccurateRip CRC: CA9FD253 (CRCv2) [DiscID: 020-0030f1dd-02c8af66-2a0fde14-19]

Information ripping to FLAC, 'Track 20' to '70's Songs - CD2\20 Deniece Williams - Free.flac'
Track 20: Ripped LBA 292928 to 304702 (2:36) in 0:19. Filename: 70's Songs - CD2\20 Deniece Williams - Free._
Secure [Pass 1 & 2]
CRC32: 618D5CAA AccurateRip CRC: CD197FD5 (CRCv2) [DiscID: 020-0030f1dd-02c8af66-2a0fde14-20]

Information ripping to FLAC, 'Track 1' to '70s Songs [CD3]\01 McFadden And Whitehead - Ain't No Stopping Us Now.flac'
Track 1: Ripped LBA 0 to 16179 (3:35) in 1:07. Filename: 70s Songs [CD3]\01 McFadden And Whitehead - Ain't No Stopping Us Now._
Secure [Pass 1 & 2]
CRC32: 40651B13 AccurateRip CRC: 196F4320 (CRCv2) [DiscID: 020-00370c8b-03222db6-22119414-1]

Information ripping to FLAC, 'Track 2' to '70s Songs [CD3]\02 The Jacksons - Shake Your Body Down To The Ground.flac'
Track 2: Ripped LBA 16179 to 33171 (3:46) in 0:56. Filename: 70s Songs [CD3]\02 The Jacksons - Shake Your Body Down To The Ground._
Secure [Pass 1 & 2]
CRC32: EA45A879 AccurateRip CRC: 18658D85 (CRCv2) [DiscID: 020-00370c8b-03222db6-22119414-2]

Information ripping to FLAC, 'Track 3' to '70s Songs [CD3]\03 Heatwave - Boogie Nights.flac'
Track 3: Ripped LBA 33171 to 49571 (3:38) in 0:50. Filename: 70s Songs [CD3]\03 Heatwave - Boogie Nights._
Secure [Pass 1 & 2]
CRC32: 1513E769 AccurateRip CRC: 11F3B23D (CRCv2) [DiscID: 020-00370c8b-03222db6-22119414-3]

Information ripping to FLAC, 'Track 4' to '70s Songs [CD3]\04 Cheryl Lynn - Got to Be Real.flac'
Track 4: Ripped LBA 49571 to 72654 (5:07) in 1:06. Filename: 70s Songs [CD3]\04 Cheryl Lynn - Got to Be Real._
Secure [Pass 1 & 2]
CRC32: 4F15001E AccurateRip CRC: C04BD3C9 (CRCv2) [DiscID: 020-00370c8b-03222db6-22119414-4]

Information ripping to FLAC, 'Track 5' to '70s Songs [CD3]\05 Baccara - Yes Sir I Can Boogie.flac'
Track 5: Ripped LBA 72654 to 93258 (4:34) in 0:54. Filename: 70s Songs [CD3]\05 Baccara - Yes Sir I Can Boogie._
Secure [Pass 1 & 2]
CRC32: 0ED6775A AccurateRip CRC: 4B13DDD5 (CRCv2) [DiscID: 020-00370c8b-03222db6-22119414-5]

Information ripping to FLAC, 'Track 6' to '70s Songs [CD3]\06 The Andrea True Connection - More More More.flac'
Track 6: Ripped LBA 93258 to 106920 (3:02) in 0:34. Filename: 70s Songs [CD3]\06 The Andrea True Connection - More More More._
Secure [Pass 1 & 2]
CRC32: 713D91D3 AccurateRip CRC: 7A45F1CE (CRCv2) [DiscID: 020-00370c8b-03222db6-22119414-6]

Information ripping to FLAC, 'Track 7' to '70s Songs [CD3]\07 Boney M - Rivers Of Babylon.flac'
Track 7: Ripped LBA 106920 to 126551 (4:21) in 0:47. Filename: 70s Songs [CD3]\07 Boney M - Rivers Of Babylon._
Secure [Pass 1 & 2]
CRC32: 81E993CB AccurateRip CRC: 370B03A9 (CRCv2) [DiscID: 020-00370c8b-03222db6-22119414-7]

Information ripping to FLAC, 'Track 8' to '70s Songs [CD3]\08 Dan Hartman - Relight My Fire.flac'
Track 8: Ripped LBA 126551 to 143301 (3:43) in 0:38. Filename: 70s Songs [CD3]\08 Dan Hartman - Relight My Fire._
Secure [Pass 1 & 2]
CRC32: 3B1DEEF2 AccurateRip CRC: 5330C2AF (CRCv2) [DiscID: 020-00370c8b-03222db6-22119414-8]

Information ripping to FLAC, 'Track 9' to '70s Songs [CD3]\09 Hues Corporation - Rock The Boat.flac'
Track 9: Ripped LBA 143301 to 156996 (3:02) in 0:30. Filename: 70s Songs [CD3]\09 Hues Corporation - Rock The Boat._
Secure [Pass 1 & 2]
CRC32: 0DDB2B5C AccurateRip CRC: DC265E7E (CRCv2) [DiscID: 020-00370c8b-03222db6-22119414-9]

Information ripping to FLAC, 'Track 10' to '70s Songs [CD3]\10 Hot Gossip - Sarah Brightman - I Lost My Heart To A Starship Trooper.flac'
Track 10: Ripped LBA 156996 to 176495 (4:19) in 0:42. Filename: 70s Songs [CD3]\10 Hot Gossip - Sarah Brightman - I Lost My Heart To A Starship Trooper._
Secure [Pass 1 & 2]
CRC32: D6B03C5B AccurateRip CRC: AC2F5C1D (CRCv2) [DiscID: 020-00370c8b-03222db6-22119414-10]

Information ripping to FLAC, 'Track 11' to '70s Songs [CD3]\11 Frantique - Strut Your Funky Stuff.flac'
Track 11: Ripped LBA 176495 to 192831 (3:37) in 0:34. Filename: 70s Songs [CD3]\11 Frantique - Strut Your Funky Stuff._
Secure [Pass 1 & 2]
CRC32: 7E4434AA AccurateRip CRC: CBC8522C (CRCv2) [DiscID: 020-00370c8b-03222db6-22119414-11]

Information ripping to FLAC, 'Track 12' to '70s Songs [CD3]\12 Eruption - I Can't Stand The Rain.flac'
Track 12: Ripped LBA 192831 to 205877 (2:53) in 0:26. Filename: 70s Songs [CD3]\12 Eruption - I Can't Stand The Rain._
Secure [Pass 1 & 2]
CRC32: 0E91FA3A AccurateRip CRC: B652C883 (CRCv2) [DiscID: 020-00370c8b-03222db6-22119414-12]

Information ripping to FLAC, 'Track 13' to '70s Songs [CD3]\13 The Three Degrees - Giving Up Giving In.flac'
Track 13: Ripped LBA 205877 to 223380 (3:53) in 0:34. Filename: 70s Songs [CD3]\13 The Three Degrees - Giving Up Giving In._
Secure [Pass 1 & 2]
CRC32: 610ACEC1 AccurateRip CRC: DECE0942 (CRCv2) [DiscID: 020-00370c8b-03222db6-22119414-13]

Information ripping to FLAC, 'Track 14' to '70s Songs [CD3]\14 Garys Gang - Keep On Dancing.flac'
Track 14: Ripped LBA 223380 to 239198 (3:30) in 0:30. Filename: 70s Songs [CD3]\14 Garys Gang - Keep On Dancing._
Secure [Pass 1 & 2]
CRC32: 6BDDEA98 AccurateRip CRC: 2BD441D3 (CRCv2) [DiscID: 020-00370c8b-03222db6-22119414-14]

Information ripping to FLAC, 'Track 15' to '70s Songs [CD3]\15 The Dooleys - Wanted.flac'
Track 15: Ripped LBA 239198 to 255530 (3:37) in 0:30. Filename: 70s Songs [CD3]\15 The Dooleys - Wanted._
Secure [Pass 1 & 2]
CRC32: 26A36E11 AccurateRip CRC: 963DA2FE (CRCv2) [DiscID: 020-00370c8b-03222db6-22119414-15]

Information ripping to FLAC, 'Track 16' to '70s Songs [CD3]\16 Vicki Sue Robinson - Turn The Beat Around.flac'
Track 16: Ripped LBA 255530 to 270896 (3:24) in 0:28. Filename: 70s Songs [CD3]\16 Vicki Sue Robinson - Turn The Beat Around._
Secure [Pass 1 & 2]
CRC32: A129F4DB AccurateRip CRC: A2C8A62D (CRCv2) [DiscID: 020-00370c8b-03222db6-22119414-16]

Information ripping to FLAC, 'Track 17' to '70s Songs [CD3]\17 The Emotions - Best Of My Love.flac'
Track 17: Ripped LBA 270896 to 287452 (3:40) in 0:29. Filename: 70s Songs [CD3]\17 The Emotions - Best Of My Love._
Secure [Pass 1 & 2]
CRC32: D6564B45 AccurateRip CRC: B5FB1F12 (CRCv2) [DiscID: 020-00370c8b-03222db6-22119414-17]

Information ripping to FLAC, 'Track 18' to '70s Songs [CD3]\18 Odyssey - Native New Yorker.flac'
Track 18: Ripped LBA 287452 to 303055 (3:28) in 0:27. Filename: 70s Songs [CD3]\18 Odyssey - Native New Yorker._
Secure [Pass 1 & 2]
CRC32: 49E8D29F AccurateRip CRC: 507E8FF9 (CRCv2) [DiscID: 020-00370c8b-03222db6-22119414-18]

Information ripping to FLAC, 'Track 19' to '70s Songs [CD3]\19 Tina Charles - I Love To Love.flac'
Track 19: Ripped LBA 303055 to 316814 (3:03) in 0:24. Filename: 70s Songs [CD3]\19 Tina Charles - I Love To Love._
Secure [Pass 1 & 2]
CRC32: 889FD292 AccurateRip CRC: B1A71097 (CRCv2) [DiscID: 020-00370c8b-03222db6-22119414-19]

Information ripping to FLAC, 'Track 20' to '70s Songs [CD3]\20 Earth Wind And Fire - Fantasy.flac'
Track 20: Ripped LBA 316814 to 337562 (4:36) in 0:35. Filename: 70s Songs [CD3]\20 Earth Wind And Fire - Fantasy._
Secure [Pass 1 & 2]
CRC32: 5EA01A96 AccurateRip CRC: C5B7A5D4 (CRCv2) [DiscID: 020-00370c8b-03222db6-22119414-20]