Subcategories

VA - British Punk Rock... 1977! (1998)

Posted By: Designol
VA - British Punk Rock... 1977! (1998)

VA - British Punk Rock… 1977! (1998)
EAC | FLAC | Image (Cue&Log) ~ 353 Mb | Mp3 (CBR320) ~ 127 Mb | Scans ~ 58 Mb
Punk Rock | Label: Anagram Records | # CDP PUNK 500 | Time: 00:54:59

The first volume in a series projected to analyze the punk phenomenon on a year-by-year basis, British Punk Rock 1977 assembles some of the less well-known but no less influential sides to emerge from that pivotal year. Collecting 20 tracks, it jumps from established cult heroes (Alternative TV's "How Much Longer," Penetration's "Don't Dictate," the Vibrators' "Baby Baby") to forgotten favorites (the Drones' "Corgi Crap," the Sniveling Shits' "I Can't Come," the Pork Dukes' "Bend & Flush"); some of it still holds up, some of it doesn't, but all of it remains a testament to its time and place.

Review by Jason Ankeny, Allmusic.com


Tracklist:

01. Alternative TV - How Much Longer (2:37)
02. The Carpettes - Radio Wunderbar (2:53)
03. Cock Sparrer - Runnin' Riot (3:30)
04. The Drones - Corgi Crap (2:48)
05. Eater - Thinking of the USA (3:02)
06. The Killjoys - Johnny Won't Get To Heaven (2:41)
07. Menace - Insane Society (2:00)
08. Puncture - Mucky Pup (2:06)
09. Blitzkrieg Bop - Let's Go (3:35)
10. Suburban Studs - Questions (2:58)
11. The Unwanted - Withdrawal (1:59)
12. The Vibrators - Baby Baby (3:05)
13. The Depressions - Living On Dreams (2:58)
14. The Users - Sick Of You (3:24)
15. The Maniacs - Chelsea '77 (2:36)
16. The Zeros - Hungry (2:18)
17. Snivelling Shits - I Can't Come (2:46)
18. Cane - College Girls (2:43)
19. 999 - Nasty Nasty (2:11)
20. The Wasps - Can't Wait til '78 (2:48)


Exact Audio Copy V1.0 beta 3 from 29. August 2011

EAC extraction logfile from 23. May 2013, 16:53

Various / British Punk Rock… 1977!

Used drive : Optiarc DVD RW AD-7173A Adapter: 0 ID: 0

Read mode : Secure
Utilize accurate stream : Yes
Defeat audio cache : Yes
Make use of C2 pointers : No

Read offset correction : 48
Overread into Lead-In and Lead-Out : No
Fill up missing offset samples with silence : Yes
Delete leading and trailing silent blocks : No
Null samples used in CRC calculations : Yes
Used interface : Installed external ASPI interface

Used output format : User Defined Encoder
Selected bitrate : 128 kBit/s
Quality : High
Add ID3 tag : No
Command line compressor : H:\Program Files\FLAC\FLAC frontend.exe
Additional command line options : -V -8 -T "Date=%year%" -T "Genre=%genre%" %source%


TOC of the extracted CD

Track | Start | Length | Start sector | End sector
––––––––––––––––––––––––––––-
1 | 0:00.00 | 2:37.07 | 0 | 11781
2 | 2:37.07 | 2:53.05 | 11782 | 24761
3 | 5:30.12 | 3:30.10 | 24762 | 40521
4 | 9:00.22 | 2:48.18 | 40522 | 53139
5 | 11:48.40 | 3:01.67 | 53140 | 66781
6 | 14:50.32 | 2:41.08 | 66782 | 78864
7 | 17:31.40 | 1:59.52 | 78865 | 87841
8 | 19:31.17 | 2:05.38 | 87842 | 97254
9 | 21:36.55 | 3:35.05 | 97255 | 113384
10 | 25:11.60 | 2:57.45 | 113385 | 126704
11 | 28:09.30 | 1:59.20 | 126705 | 135649
12 | 30:08.50 | 3:04.57 | 135650 | 149506
13 | 33:13.32 | 2:58.20 | 149507 | 162876
14 | 36:11.52 | 3:23.45 | 162877 | 178146
15 | 39:35.22 | 2:35.65 | 178147 | 189836
16 | 42:11.12 | 2:18.08 | 189837 | 200194
17 | 44:29.20 | 2:46.27 | 200195 | 212671
18 | 47:15.47 | 2:43.25 | 212672 | 224921
19 | 49:58.72 | 2:11.23 | 224922 | 234769
20 | 52:10.20 | 2:48.30 | 234770 | 247399


Range status and errors

Selected range

Filename H:\Documents and Settings\UserXP\Рабочий стол\BRITISH PUNK ROCK… 1977!\Various - British Punk Rock… 1977!.wav

Peak level 98.8 %
Extraction speed 4.3 X
Range quality 99.9 %
Test CRC EF841F54
Copy CRC EF841F54
Copy OK

No errors occurred


AccurateRip summary

Track 1 not present in database
Track 2 not present in database
Track 3 not present in database
Track 4 not present in database
Track 5 not present in database
Track 6 not present in database
Track 7 not present in database
Track 8 not present in database
Track 9 not present in database
Track 10 not present in database
Track 11 not present in database
Track 12 not present in database
Track 13 not present in database
Track 14 not present in database
Track 15 not present in database
Track 16 not present in database
Track 17 not present in database
Track 18 not present in database
Track 19 not present in database
Track 20 not present in database

None of the tracks are present in the AccurateRip database

End of status report

==== Log checksum 304732633D059C032B7595ED0CFEE149C5B35474416F8C3938562F530F135AE1 ====

[CUETools log; Date: 09.10.2018 17:53:53; Version: 2.1.4]
[CTDB TOCID: iH4hPKByev7wij.4Bx6YWoh_LLQ-] found.
Track | CTDB Status
1 | (2/2) Accurately ripped
2 | (2/2) Accurately ripped
3 | (2/2) Accurately ripped
4 | (2/2) Accurately ripped
5 | (2/2) Accurately ripped
6 | (2/2) Accurately ripped
7 | (2/2) Accurately ripped
8 | (2/2) Accurately ripped
9 | (2/2) Accurately ripped
10 | (2/2) Accurately ripped
11 | (2/2) Accurately ripped
12 | (2/2) Accurately ripped
13 | (2/2) Accurately ripped
14 | (2/2) Accurately ripped
15 | (2/2) Accurately ripped
16 | (2/2) Accurately ripped
17 | (2/2) Accurately ripped
18 | (2/2) Accurately ripped
19 | (2/2) Accurately ripped
20 | (2/2) Accurately ripped
[AccurateRip ID: 00283cd9-024c16d9-030ce214] found.
Track [ CRC | V2 ] Status
01 [7af07620|15c4b7eb] (0+1/1) Accurately ripped
02 [d6c2dec0|e7a9f2ed] (0+1/1) Accurately ripped
03 [aa2de34e|9912829b] (0+1/1) Accurately ripped
04 [e504a434|b0a5d79f] (0+1/1) Accurately ripped
05 [c3bf9099|7ca9146e] (0+1/1) Accurately ripped
06 [a799e8c4|234a77c6] (0+1/1) Accurately ripped
07 [66aed0ea|48bd3705] (0+1/1) Accurately ripped
08 [d31e4d09|1a65b9e9] (0+1/1) Accurately ripped
09 [bb2075c4|1a50623f] (0+1/1) Accurately ripped
10 [9d671fd7|1e8987e8] (0+1/1) Accurately ripped
11 [792d3a99|b0131a3e] (0+1/1) Accurately ripped
12 [576f2828|b94f0e8c] (0+1/1) Accurately ripped
13 [66bf6a17|18b6e7aa] (0+1/1) Accurately ripped
14 [c2b3e7d4|755d91fc] (0+1/1) Accurately ripped
15 [ae6a560b|48f85212] (0+1/1) Accurately ripped
16 [95e4b4ec|f19f6fa3] (0+1/1) Accurately ripped
17 [85787edb|b0a1df05] (0+1/1) Accurately ripped
18 [bcbfef31|55ff7d2c] (0+1/1) Accurately ripped
19 [b89852c3|fe49b649] (0+1/1) Accurately ripped
20 [15d7e22a|3f052efc] (0+1/1) Accurately ripped

Track Peak [ CRC32 ] [W/O NULL] [ LOG ]
– 98,8 [EF841F54] [35B926B6] CRC32
01 98,8 [E2F05D03] [FBC8AFE9]
02 92,5 [7C81CBDE] [1945D044]
03 74,6 [AD60E3AF] [61659E09]
04 98,2 [24259DF5] [FC2FF23D]
05 98,8 [528A5A88] [52AED62E]
06 91,8 [FCE5ACC8] [BB9B6414]
07 98,8 [6D6276E3] [4A198342]
08 98,8 [5632637A] [E81AA610]
09 79,4 [4EAABE04] [85D8E076]
10 93,1 [B28A82B9] [582E97B5]
11 93,2 [BA716837] [F1F2947A]
12 98,8 [5294AF80] [CB6ACA1E]
13 98,8 [E1D4A133] [3A25D6B2]
14 93,3 [CCBB21F1] [A84290D4]
15 98,8 [13702AA3] [E4F5B82F]
16 98,8 [EF4D886F] [AB4B567A]
17 98,8 [C29A4E67] [4F2FCE31]
18 98,8 [7B714A23] [DA1F2E34]
19 98,1 [2F565D6D] [C8D26EAC]
20 98,8 [1F102C88] [5BEC5964]

foobar2000 1.2 / Dynamic Range Meter 1.1.1
log date: 2018-10-09 17:52:05

––––––––––––––––––––––––––––––––––––––––
Analyzed: Alternative TV / British Punk Rock… 1977! (1)
Blitzkrieg Bop / British Punk Rock… 1977! (2)
Cane / British Punk Rock… 1977! (3)
––––––––––––––––––––––––––––––––––––––––

DR Peak RMS Duration Track
––––––––––––––––––––––––––––––––––––––––
DR11 -0.10 dB -12.72 dB 2:37 01-How Much Longer
DR9 -2.00 dB -14.29 dB 3:35 09-Let's Go
DR11 -0.10 dB -12.45 dB 2:43 18-College Girls
––––––––––––––––––––––––––––––––––––––––

Number of tracks: 3
Official DR value: DR10

Samplerate: 44100 Hz
Channels: 2
Bits per sample: 16
Bitrate: 895 kbps
Codec: FLAC
================================================================================

––––––––––––––––––––––––––––––––––––––––
Analyzed: Cock Sparrer / British Punk Rock… 1977! (1)
Eater / British Punk Rock… 1977! (2)
Menace / British Punk Rock… 1977! (3)
Puncture / British Punk Rock… 1977! (4)
Snivelling Shits / British Punk Rock… 1977! (5)
––––––––––––––––––––––––––––––––––––––––

DR Peak RMS Duration Track
––––––––––––––––––––––––––––––––––––––––
DR8 -2.54 dB -12.21 dB 3:30 03-Runnin' Riot
DR12 -0.10 dB -13.16 dB 3:02 05-Thinking of the USA
DR11 -0.10 dB -12.02 dB 2:00 07-Insane Society
DR10 -0.10 dB -11.87 dB 2:06 08-Mucky Pup
DR13 -0.10 dB -14.88 dB 2:46 17-I Can't Come
––––––––––––––––––––––––––––––––––––––––

Number of tracks: 5
Official DR value: DR11

Samplerate: 44100 Hz
Channels: 2
Bits per sample: 16
Bitrate: 895 kbps
Codec: FLAC
================================================================================

––––––––––––––––––––––––––––––––––––––––
Statistics for: 10-Questions
Number of samples: 7832160
Duration: 2:58
––––––––––––––––––––––––––––––––––––––––

Left Right

Peak Value: -0.62 dB –- -0.62 dB
Avg RMS: -13.17 dB –- -12.93 dB
DR channel: 10.95 dB –- 10.94 dB
––––––––––––––––––––––––––––––––––––––––

Official DR Value: DR11

Samplerate: 44100 Hz
Channels: 2
Bits per sample: 16
Bitrate: 895 kbps
Codec: FLAC
================================================================================
––––––––––––––––––––––––––––––––––––––––
Analyzed: The Carpettes / British Punk Rock… 1977! (1)
The Depressions / British Punk Rock… 1977! (2)
––––––––––––––––––––––––––––––––––––––––

DR Peak RMS Duration Track
––––––––––––––––––––––––––––––––––––––––
DR11 -0.68 dB -12.59 dB 2:53 02-Radio Wunderbar
DR11 -0.10 dB -12.18 dB 2:58 13-Living On Dreams
––––––––––––––––––––––––––––––––––––––––

Number of tracks: 2
Official DR value: DR11

Samplerate: 44100 Hz
Channels: 2
Bits per sample: 16
Bitrate: 895 kbps
Codec: FLAC
================================================================================

––––––––––––––––––––––––––––––––––––––––
Analyzed: The Drones / British Punk Rock… 1977! (1)
The Killjoys / British Punk Rock… 1977! (2)
The Maniacs / British Punk Rock… 1977! (3)
––––––––––––––––––––––––––––––––––––––––

DR Peak RMS Duration Track
––––––––––––––––––––––––––––––––––––––––
DR10 -0.15 dB -12.11 dB 2:48 04-Corgi Crap
DR12 -0.74 dB -14.00 dB 2:41 06-Johnny Won't Get To Heaven
DR10 -0.10 dB -11.48 dB 2:36 15-Chelsea '77
––––––––––––––––––––––––––––––––––––––––

Number of tracks: 3
Official DR value: DR11

Samplerate: 44100 Hz
Channels: 2
Bits per sample: 16
Bitrate: 895 kbps
Codec: FLAC
================================================================================

––––––––––––––––––––––––––––––––––––––––
Analyzed: The Unwanted / British Punk Rock… 1977! (1)
The Users / British Punk Rock… 1977! (2)
––––––––––––––––––––––––––––––––––––––––

DR Peak RMS Duration Track
––––––––––––––––––––––––––––––––––––––––
DR13 -0.61 dB -14.31 dB 1:59 11-Withdrawal
DR12 -0.60 dB -13.14 dB 3:24 14-Sick Of You
––––––––––––––––––––––––––––––––––––––––

Number of tracks: 2
Official DR value: DR12

Samplerate: 44100 Hz
Channels: 2
Bits per sample: 16
Bitrate: 895 kbps
Codec: FLAC
================================================================================

––––––––––––––––––––––––––––––––––––––––
Analyzed: The Vibrators / British Punk Rock… 1977! (1)
The Wasps / British Punk Rock… 1977! (2)
––––––––––––––––––––––––––––––––––––––––

DR Peak RMS Duration Track
––––––––––––––––––––––––––––––––––––––––
DR11 -0.10 dB -12.46 dB 3:05 12-Baby Baby
DR9 -0.10 dB -10.83 dB 2:48 20-Can't Wait til '78
––––––––––––––––––––––––––––––––––––––––

Number of tracks: 2
Official DR value: DR10

Samplerate: 44100 Hz
Channels: 2
Bits per sample: 16
Bitrate: 895 kbps
Codec: FLAC
================================================================================

––––––––––––––––––––––––––––––––––––––––
Statistics for: 16-Hungry
Number of samples: 6090504
Duration: 2:18
––––––––––––––––––––––––––––––––––––––––

Left Right

Peak Value: -0.10 dB –- -0.10 dB
Avg RMS: -10.91 dB –- -10.08 dB
DR channel: 9.94 dB –- 9.23 dB
––––––––––––––––––––––––––––––––––––––––

Official DR Value: DR10

Samplerate: 44100 Hz
Channels: 2
Bits per sample: 16
Bitrate: 895 kbps
Codec: FLAC
================================================================================
foobar2000 1.2 / Dynamic Range Meter 1.1.1
log date: 2018-10-09 17:51:52

––––––––––––––––––––––––––––––––––––––––
Statistics for: 19-Nasty Nasty
Number of samples: 5790624
Duration: 2:11
––––––––––––––––––––––––––––––––––––––––

Left Right

Peak Value: -0.41 dB –- -0.16 dB
Avg RMS: -11.09 dB –- -11.04 dB
DR channel: 9.68 dB –- 9.75 dB
––––––––––––––––––––––––––––––––––––––––

Official DR Value: DR10

Samplerate: 44100 Hz
Channels: 2
Bits per sample: 16
Bitrate: 895 kbps
Codec: FLAC
================================================================================

VA - British Punk Rock... 1977! (1998)

VA - British Punk Rock... 1977! (1998)

All thanks to original releaser - R.Schmadtke

More interesting music in My Blog