Tags
Language
Tags

VA - Car Songs The Anthems (4CD, 2019)

Posted By: ciklon5
VA - Car Songs The Anthems (4CD, 2019)

VA - Car Songs The Anthems (4CD, 2019)
FLAC (tracks+cue+log+scans) | 5:07:53 | 2,1 Gb
Genre: Pop, Rock / Label: Crimson Productions

Car Songs The Anthems contains 4CDs Packed Full of Huge Anthems for Your Car Journey! Featuring: Meat Loaf, Bonnie Tyler, Kenny Loggins, Survivor, Europe, Wheatus, The Calling, Train, The Script, The Fray, The Only Ones, Anastacia, Avril Lavigne + many more

Track List:
CD1
01.Meat Loaf - Dead Ringer For Love - 00:04:24
02.Bonnie Tyler - Holding Out For A Hero - 00:04:22
03.Cyndi Lauper - I Drove All Night - 00:04:13
04.Kenny Loggins - Danger Zone - 00:03:36
05.Survivor - Eye Of The Tiger - 00:04:05
06.Europe - The Final Countdown - 00:03:57
07.Toto - Hold The Line - 00:03:57
08.RUN-DMC Feat. Aerosmith - Walk This Way - 00:03:38
09.Alice Cooper - Poison - 00:04:29
10.Heart - Barracuda - 00:04:23
11.Boston - More Than A Feeling - 00:03:29
12.REO Speedwagon - Keep On Loving You - 00:03:21
13.Blue Oyster Cult - (Don't Fear) The Reaper - 00:03:49
14.John Farnham - You're The Voice - 00:03:57
15.Rick Springfield - Jessie's Girl - 00:03:13
16.Kansas - Carry On Wayward Son - 00:03:27
17.Patti Smith Group - Because The Night - 00:03:18
18.Cheap Trick - I Want You To Want Me - 00:03:41
19.Mott The Hoople - All The Young Dudes - 00:03:32
20.Lou Reed - Perfect Day - 00:03:43

CD2
01.Wheatus - Teenage Dirtbag - 00:04:03
02.The Calling - Wherever You Will Go - 00:03:28
03.Train - Drops Of Jupiter - 00:04:20
04.Lonestar - Amazed - 00:04:01
05.The Script - The Man Who Can't Be Moved - 00:04:01
06.The Fray - You Found Me - 00:04:03
07.Phantom Planet - California (Tchad Blake Mix) - 00:03:14
08.Soul Asylum - Runaway Train - 00:04:22
09.Spin Doctors - Two Princes - 00:04:13
10.Shawn Mullins - Lullaby - 00:04:33
11.Crash Test Dummies - Mmm Mmm Mmm Mmm - 00:03:54
12.Crazy Town - Butterfly - 00:03:36
13.Reef - Place Your Hands - 00:03:39
14.Republica - Ready To Go - 00:03:40
15.Sleeper - Sale Of The Century - 00:04:31
16.The Ting Tings - That's Not My Name - 00:03:47
17.The Zutons - Valerie - 00:03:57
18.The Stone Roses - Waterfall - 00:03:37
19.Primal Scream - Movin' On Up - 00:03:48
20.Manic Street Preachers - Motorcycle Emptiness - 00:03:34

CD3
01.Anastacia - I'm Outta Love - 00:04:04
02.Avril Lavigne - Complicated - 00:04:05
03.Carrie Underwood - Before He Cheats - 00:03:21
04.Natalie Imbruglia - Torn - 00:04:04
05.Mark Ronson Feat. Daniel Merriweather - Stop Me - 00:03:54
06.Lissie - Go Your Own Way - 00:03:33
07.Leona Lewis - Bleeding Love - 00:04:23
08.Alexandra Burke - Hallelujah - 00:03:38
09.Heather Small - Proud - 00:03:56
10.DJ Sammy & Yanou Feat. Do - Heaven (Candlelight Mix) - 00:04:04
11.Toploader - Dancing In The Moonlight - 00:03:53
12.The Lightning Seeds - Marvellous - 00:03:42
13.The Wannadies - You & Me Song - 00:02:49
14.Scouting For Girls - She's So Lovely - 00:03:45
15.Hepburn - I Quit - 00:03:55
16.Craig McLachlan & Check 1-2 - Mona - 00:03:41
17.Sophie B. Hawkins - Damn I Wish I Was Your Lover - 00:04:15
18.Deacon Blue - Real Gone Kid - 00:04:04
19.The Bangles - Eternal Flame - 00:03:56
20.Beverley Craven - Promise Me - 00:03:34

CD4
01.The Only Ones - Another Girl Another Planet - 00:03:02
02.The Primitives - Crash - 00:02:32
03.The Psychedelic Furs - Pretty In Pink - 00:03:59
04.Roachford - Cuddly Toy - 00:03:37
05.Wild Cherry - Play That Funky Music - 00:03:04
06.Freda Payne - Band Of Gold - 00:02:53
07.Terence Trent D'Arby - Wishing Well - 00:03:31
08.Daryl Hall & John Oates - Out Of Touch - 00:04:09
09.Mental As Anything - Live It Up - 00:03:48
10.Mr. Mister - Broken Wings - 00:04:40
11.Martika - Toy Soldiers - 00:04:48
12.Michael Bolton - Soul Provider - 00:04:28
13.Spandau Ballet - Through The Barricades - 00:05:20
14.Gloria Estefan - Don't Wanna Lose You - 00:04:08
15.Jennifer Rush - The Power Of Love - 00:04:28
16.Air Supply - All Out Of Love - 00:04:02
17.Harry Nilsson - Without You - 00:03:22
18.Kirsty MacColl - Days - 00:03:01
19.Dolly Parton - Jolene - 00:02:39
20.Big Brother & The Holding Company Feat. Janis Joplin - Piece Of My Heart - 00:04:13

Exact Audio Copy V1.3 from 2. September 2016

EAC extraction logfile from 16. February 2019, 12:01

Various / Car Songs - The Anthems - CD1

Used drive : ATAPI iHAS124 Y Adapter: 1 ID: 0

Read mode : Secure
Utilize accurate stream : Yes
Defeat audio cache : No
Make use of C2 pointers : Yes

Read offset correction : 48
Overread into Lead-In and Lead-Out : No
Fill up missing offset samples with silence : Yes
Delete leading and trailing silent blocks : No
Null samples used in CRC calculations : Yes
Used interface : Native Win32 interface for Win NT & 2000
Gap handling : Not detected, thus appended to previous track

Used output format : User Defined Encoder
Selected bitrate : 896 kBit/s
Quality : High
Add ID3 tag : No
Command line compressor : C:\Program Files (x86)\Exact Audio Copy\FLAC\FLAC.EXE
Additional command line options : -6 -V -T "ARTIST=%artist%" -T "TITLE=%title%" -T "ALBUM=%albumtitle%" -T "DATE=%year%" -T "TRACKNUMBER=%tracknr%" -T "GENRE=%genre%" -T "COMMENT=%comment%" -T "BAND=%albuminterpret%" -T "ALBUMARTIST=%albuminterpret%" -T "COMPOSER=%composer%" %haslyrics%–tag-from-file=LYRICS="%lyricsfile%"%haslyrics% -T "DISCNUMBER=%cdnumber%" -T "TOTALDISCS=%totalcds%" -T "TOTALTRACKS=%numtracks%" %hascover%–picture="%coverfile%"%hascover% %source% -o %dest%


TOC of the extracted CD

Track | Start | Length | Start sector | End sector
––––––––––––––––––––––––––––-
1 | 0:00.00 | 4:24.05 | 0 | 19804
2 | 4:24.05 | 4:22.74 | 19805 | 39528
3 | 8:47.04 | 4:13.13 | 39529 | 58516
4 | 13:00.17 | 3:36.60 | 58517 | 74776
5 | 16:37.02 | 4:05.45 | 74777 | 93196
6 | 20:42.47 | 3:57.19 | 93197 | 110990
7 | 24:39.66 | 3:57.12 | 110991 | 128777
8 | 28:37.03 | 3:38.19 | 128778 | 145146
9 | 32:15.22 | 4:29.67 | 145147 | 165388
10 | 36:45.14 | 4:23.24 | 165389 | 185137
11 | 41:08.38 | 3:29.48 | 185138 | 200860
12 | 44:38.11 | 3:21.48 | 200861 | 215983
13 | 47:59.59 | 3:49.17 | 215984 | 233175
14 | 51:49.01 | 3:57.27 | 233176 | 250977
15 | 55:46.28 | 3:13.40 | 250978 | 265492
16 | 58:59.68 | 3:27.65 | 265493 | 281082
17 | 62:27.58 | 3:18.09 | 281083 | 295941
18 | 65:45.67 | 3:41.02 | 295942 | 312518
19 | 69:26.69 | 3:32.17 | 312519 | 328435
20 | 72:59.11 | 3:43.49 | 328436 | 345209


Track 1

Filename A:\PsPBuRnOuT's MUSIC\DRIVE\CAR SONGS - THE ANTHEMS\CAR SONGS - THE ANTHEMS - CD1\01.Meat Loaf - Dead Ringer For Love.wav

Peak level 94.3 %
Extraction speed 15.1 X
Track quality 100.0 %
Copy CRC 867F47BF
Track not present in AccurateRip database
Copy OK

Track 2

Filename A:\PsPBuRnOuT's MUSIC\DRIVE\CAR SONGS - THE ANTHEMS\CAR SONGS - THE ANTHEMS - CD1\02.Bonnie Tyler - Holding Out For A Hero.wav

Peak level 85.1 %
Extraction speed 21.5 X
Track quality 100.0 %
Copy CRC 1844DC75
Track not present in AccurateRip database
Copy OK

Track 3

Filename A:\PsPBuRnOuT's MUSIC\DRIVE\CAR SONGS - THE ANTHEMS\CAR SONGS - THE ANTHEMS - CD1\03.Cyndi Lauper - I Drove All Night.wav

Peak level 94.3 %
Extraction speed 23.3 X
Track quality 100.0 %
Copy CRC FF494258
Track not present in AccurateRip database
Copy OK

Track 4

Filename A:\PsPBuRnOuT's MUSIC\DRIVE\CAR SONGS - THE ANTHEMS\CAR SONGS - THE ANTHEMS - CD1\04.Kenny Loggins - Danger Zone.wav

Peak level 85.1 %
Extraction speed 24.6 X
Track quality 100.0 %
Copy CRC 46247834
Track not present in AccurateRip database
Copy OK

Track 5

Filename A:\PsPBuRnOuT's MUSIC\DRIVE\CAR SONGS - THE ANTHEMS\CAR SONGS - THE ANTHEMS - CD1\05.Survivor - Eye Of The Tiger.wav

Peak level 94.1 %
Extraction speed 25.2 X
Track quality 100.0 %
Copy CRC F48486CD
Track not present in AccurateRip database
Copy OK

Track 6

Filename A:\PsPBuRnOuT's MUSIC\DRIVE\CAR SONGS - THE ANTHEMS\CAR SONGS - THE ANTHEMS - CD1\06.Europe - The Final Countdown.wav

Peak level 85.1 %
Extraction speed 13.7 X
Track quality 99.9 %
Copy CRC 39BAAC61
Track not present in AccurateRip database
Copy OK

Track 7

Filename A:\PsPBuRnOuT's MUSIC\DRIVE\CAR SONGS - THE ANTHEMS\CAR SONGS - THE ANTHEMS - CD1\07.Toto - Hold The Line.wav

Peak level 77.2 %
Extraction speed 22.1 X
Track quality 100.0 %
Copy CRC 8A3DB5B8
Track not present in AccurateRip database
Copy OK

Track 8

Filename A:\PsPBuRnOuT's MUSIC\DRIVE\CAR SONGS - THE ANTHEMS\CAR SONGS - THE ANTHEMS - CD1\08.RUN-DMC Feat. Aerosmith - Walk This Way.wav

Peak level 94.3 %
Extraction speed 24.7 X
Track quality 99.9 %
Copy CRC B97901EB
Track not present in AccurateRip database
Copy OK

Track 9

Filename A:\PsPBuRnOuT's MUSIC\DRIVE\CAR SONGS - THE ANTHEMS\CAR SONGS - THE ANTHEMS - CD1\09.Alice Cooper - Poison.wav

Peak level 70.7 %
Extraction speed 22.4 X
Track quality 99.9 %
Copy CRC 7D0465AE
Track not present in AccurateRip database
Copy OK

Track 10

Filename A:\PsPBuRnOuT's MUSIC\DRIVE\CAR SONGS - THE ANTHEMS\CAR SONGS - THE ANTHEMS - CD1\10.Heart - Barracuda.wav

Peak level 67.6 %
Extraction speed 26.7 X
Track quality 100.0 %
Copy CRC 1441746C
Track not present in AccurateRip database
Copy OK

Track 11

Filename A:\PsPBuRnOuT's MUSIC\DRIVE\CAR SONGS - THE ANTHEMS\CAR SONGS - THE ANTHEMS - CD1\11.Boston - More Than A Feeling.wav

Peak level 79.4 %
Extraction speed 32.1 X
Track quality 100.0 %
Copy CRC FDC18FF0
Track not present in AccurateRip database
Copy OK

Track 12

Filename A:\PsPBuRnOuT's MUSIC\DRIVE\CAR SONGS - THE ANTHEMS\CAR SONGS - THE ANTHEMS - CD1\12.REO Speedwagon - Keep On Loving You.wav

Peak level 94.3 %
Extraction speed 15.0 X
Track quality 99.7 %
Copy CRC A24A1F68
Track not present in AccurateRip database
Copy OK

Track 13

Filename A:\PsPBuRnOuT's MUSIC\DRIVE\CAR SONGS - THE ANTHEMS\CAR SONGS - THE ANTHEMS - CD1\13.Blue Oyster Cult - (Don't Fear) The Reaper.wav

Peak level 77.7 %
Extraction speed 27.7 X
Track quality 100.0 %
Copy CRC 9E1DA70B
Track not present in AccurateRip database
Copy OK

Track 14

Filename A:\PsPBuRnOuT's MUSIC\DRIVE\CAR SONGS - THE ANTHEMS\CAR SONGS - THE ANTHEMS - CD1\14.John Farnham - You're The Voice.wav

Peak level 84.5 %
Extraction speed 18.0 X
Track quality 99.9 %
Copy CRC 57F9E39D
Track not present in AccurateRip database
Copy OK

Track 15

Filename A:\PsPBuRnOuT's MUSIC\DRIVE\CAR SONGS - THE ANTHEMS\CAR SONGS - THE ANTHEMS - CD1\15.Rick Springfield - Jessie's Girl.wav

Peak level 75.8 %
Extraction speed 37.5 X
Track quality 100.0 %
Copy CRC C1749A30
Track not present in AccurateRip database
Copy OK

Track 16

Filename A:\PsPBuRnOuT's MUSIC\DRIVE\CAR SONGS - THE ANTHEMS\CAR SONGS - THE ANTHEMS - CD1\16.Kansas - Carry On Wayward Son.wav

Peak level 79.4 %
Extraction speed 38.1 X
Track quality 100.0 %
Copy CRC 407109C5
Track not present in AccurateRip database
Copy OK

Track 17

Filename A:\PsPBuRnOuT's MUSIC\DRIVE\CAR SONGS - THE ANTHEMS\CAR SONGS - THE ANTHEMS - CD1\17.Patti Smith Group - Because The Night.wav

Peak level 85.1 %
Extraction speed 36.1 X
Track quality 100.0 %
Copy CRC 1FE0B797
Track not present in AccurateRip database
Copy OK

Track 18

Filename A:\PsPBuRnOuT's MUSIC\DRIVE\CAR SONGS - THE ANTHEMS\CAR SONGS - THE ANTHEMS - CD1\18.Cheap Trick - I Want You To Want Me.wav

Peak level 79.4 %
Extraction speed 23.0 X
Track quality 99.8 %
Copy CRC 60A20CD4
Track not present in AccurateRip database
Copy OK

Track 19

Filename A:\PsPBuRnOuT's MUSIC\DRIVE\CAR SONGS - THE ANTHEMS\CAR SONGS - THE ANTHEMS - CD1\19.Mott The Hoople - All The Young Dudes.wav

Peak level 79.4 %
Extraction speed 24.7 X
Track quality 99.8 %
Copy CRC FA157703
Track not present in AccurateRip database
Copy OK

Track 20

Filename A:\PsPBuRnOuT's MUSIC\DRIVE\CAR SONGS - THE ANTHEMS\CAR SONGS - THE ANTHEMS - CD1\20.Lou Reed - Perfect Day.wav

Peak level 94.3 %
Extraction speed 20.1 X
Track quality 99.9 %
Copy CRC B89CA678
Track not present in AccurateRip database
Copy OK


None of the tracks are present in the AccurateRip database

No errors occurred

End of status report

–– CUETools DB Plugin V2.1.6

[CTDB TOCID: Ecu2i8c.gdAgIfGkRcnJpZr_Oig-] found
Submit result: Ecu2i8c.gdAgIfGkRcnJpZr_Oig- has been uploaded
Track | CTDB Status
1 | (1/1) Accurately ripped
2 | (1/1) Accurately ripped
3 | (1/1) Accurately ripped
4 | (1/1) Accurately ripped
5 | (1/1) Accurately ripped
6 | (1/1) Accurately ripped
7 | (1/1) Accurately ripped
8 | (1/1) Accurately ripped
9 | (1/1) Accurately ripped
10 | (1/1) Accurately ripped
11 | (1/1) Accurately ripped
12 | (0/1) No match
13 | (1/1) Accurately ripped
14 | (1/1) Accurately ripped
15 | (1/1) Accurately ripped
16 | (1/1) Accurately ripped
17 | (1/1) Accurately ripped
18 | (1/1) Accurately ripped
19 | (1/1) Accurately ripped
20 | (1/1) Accurately ripped

Exact Audio Copy V1.3 from 2. September 2016

EAC extraction logfile from 16. February 2019, 12:33

Various / Car Songs - The Anthems - CD2

Used drive : ATAPI iHAS124 Y Adapter: 1 ID: 0

Read mode : Secure
Utilize accurate stream : Yes
Defeat audio cache : No
Make use of C2 pointers : Yes

Read offset correction : 48
Overread into Lead-In and Lead-Out : No
Fill up missing offset samples with silence : Yes
Delete leading and trailing silent blocks : No
Null samples used in CRC calculations : Yes
Used interface : Native Win32 interface for Win NT & 2000
Gap handling : Not detected, thus appended to previous track

Used output format : User Defined Encoder
Selected bitrate : 896 kBit/s
Quality : High
Add ID3 tag : No
Command line compressor : C:\Program Files (x86)\Exact Audio Copy\FLAC\FLAC.EXE
Additional command line options : -6 -V -T "ARTIST=%artist%" -T "TITLE=%title%" -T "ALBUM=%albumtitle%" -T "DATE=%year%" -T "TRACKNUMBER=%tracknr%" -T "GENRE=%genre%" -T "COMMENT=%comment%" -T "BAND=%albuminterpret%" -T "ALBUMARTIST=%albuminterpret%" -T "COMPOSER=%composer%" %haslyrics%–tag-from-file=LYRICS="%lyricsfile%"%haslyrics% -T "DISCNUMBER=%cdnumber%" -T "TOTALDISCS=%totalcds%" -T "TOTALTRACKS=%numtracks%" %hascover%–picture="%coverfile%"%hascover% %source% -o %dest%


TOC of the extracted CD

Track | Start | Length | Start sector | End sector
––––––––––––––––––––––––––––-
1 | 0:00.00 | 4:03.29 | 0 | 18253
2 | 4:03.29 | 3:28.56 | 18254 | 33909
3 | 7:32.10 | 4:20.43 | 33910 | 53452
4 | 11:52.53 | 4:01.33 | 53453 | 71560
5 | 15:54.11 | 4:01.57 | 71561 | 89692
6 | 19:55.68 | 4:03.45 | 89693 | 107962
7 | 23:59.38 | 3:14.61 | 107963 | 122573
8 | 27:14.24 | 4:22.59 | 122574 | 142282
9 | 31:37.08 | 4:13.65 | 142283 | 161322
10 | 35:50.73 | 4:33.65 | 161323 | 181862
11 | 40:24.63 | 3:54.49 | 181863 | 199461
12 | 44:19.37 | 3:36.62 | 199462 | 215723
13 | 47:56.24 | 3:39.44 | 215724 | 232192
14 | 51:35.68 | 3:40.11 | 232193 | 248703
15 | 55:16.04 | 4:31.05 | 248704 | 269033
16 | 59:47.09 | 3:47.08 | 269034 | 286066
17 | 63:34.17 | 3:57.05 | 286067 | 303846
18 | 67:31.22 | 3:37.58 | 303847 | 320179
19 | 71:09.05 | 3:48.50 | 320180 | 337329
20 | 74:57.55 | 3:34.14 | 337330 | 353393


Track 1

Filename A:\PsPBuRnOuT's MUSIC\DRIVE\CAR SONGS - THE ANTHEMS\CAR SONGS - THE ANTHEMS - CD2\01.Wheatus - Teenage Dirtbag.wav

Peak level 69.9 %
Extraction speed 9.2 X
Track quality 100.0 %
Copy CRC 4FECBBA2
Track not present in AccurateRip database
Copy OK

Track 2

Filename A:\PsPBuRnOuT's MUSIC\DRIVE\CAR SONGS - THE ANTHEMS\CAR SONGS - THE ANTHEMS - CD2\02.The Calling - Wherever You Will Go.wav

Peak level 78.3 %
Extraction speed 10.5 X
Track quality 99.8 %
Copy CRC 79D06E64
Track not present in AccurateRip database
Copy OK

Track 3

Filename A:\PsPBuRnOuT's MUSIC\DRIVE\CAR SONGS - THE ANTHEMS\CAR SONGS - THE ANTHEMS - CD2\03.Train - Drops Of Jupiter.wav

Peak level 71.6 %
Extraction speed 11.3 X
Track quality 100.0 %
Copy CRC 75421F3A
Track not present in AccurateRip database
Copy OK

Track 4

Filename A:\PsPBuRnOuT's MUSIC\DRIVE\CAR SONGS - THE ANTHEMS\CAR SONGS - THE ANTHEMS - CD2\04.Lonestar - Amazed.wav

Peak level 81.7 %
Extraction speed 12.1 X
Track quality 100.0 %
Copy CRC AA756B18
Track not present in AccurateRip database
Copy OK

Track 5

Filename A:\PsPBuRnOuT's MUSIC\DRIVE\CAR SONGS - THE ANTHEMS\CAR SONGS - THE ANTHEMS - CD2\05.The Script - The Man Who Can't Be Moved.wav

Peak level 76.7 %
Extraction speed 12.7 X
Track quality 100.0 %
Copy CRC 8C5E025F
Track not present in AccurateRip database
Copy OK

Track 6

Filename A:\PsPBuRnOuT's MUSIC\DRIVE\CAR SONGS - THE ANTHEMS\CAR SONGS - THE ANTHEMS - CD2\06.The Fray - You Found Me.wav

Peak level 78.4 %
Extraction speed 12.9 X
Track quality 99.9 %
Copy CRC B8C711E2
Track not present in AccurateRip database
Copy OK

Track 7

Filename A:\PsPBuRnOuT's MUSIC\DRIVE\CAR SONGS - THE ANTHEMS\CAR SONGS - THE ANTHEMS - CD2\07.Phantom Planet - California (Tchad Blake Mix).wav

Peak level 88.0 %
Extraction speed 14.8 X
Track quality 100.0 %
Copy CRC F4EC48DF
Track not present in AccurateRip database
Copy OK

Track 8

Filename A:\PsPBuRnOuT's MUSIC\DRIVE\CAR SONGS - THE ANTHEMS\CAR SONGS - THE ANTHEMS - CD2\08.Soul Asylum - Runaway Train.wav

Peak level 83.3 %
Extraction speed 14.6 X
Track quality 100.0 %
Copy CRC 83F1434A
Track not present in AccurateRip database
Copy OK

Track 9

Filename A:\PsPBuRnOuT's MUSIC\DRIVE\CAR SONGS - THE ANTHEMS\CAR SONGS - THE ANTHEMS - CD2\09.Spin Doctors - Two Princes.wav

Peak level 79.4 %
Extraction speed 15.4 X
Track quality 100.0 %
Copy CRC 2EDE5F5F
Track not present in AccurateRip database
Copy OK

Track 10

Filename A:\PsPBuRnOuT's MUSIC\DRIVE\CAR SONGS - THE ANTHEMS\CAR SONGS - THE ANTHEMS - CD2\10.Shawn Mullins - Lullaby.wav

Peak level 89.2 %
Extraction speed 16.5 X
Track quality 100.0 %
Copy CRC FEF5547C
Track not present in AccurateRip database
Copy OK

Track 11

Filename A:\PsPBuRnOuT's MUSIC\DRIVE\CAR SONGS - THE ANTHEMS\CAR SONGS - THE ANTHEMS - CD2\11.Crash Test Dummies - Mmm Mmm Mmm Mmm.wav

Peak level 93.1 %
Extraction speed 17.3 X
Track quality 100.0 %
Copy CRC A6D29DAB
Track not present in AccurateRip database
Copy OK

Track 12

Filename A:\PsPBuRnOuT's MUSIC\DRIVE\CAR SONGS - THE ANTHEMS\CAR SONGS - THE ANTHEMS - CD2\12.Crazy Town - Butterfly.wav

Peak level 91.1 %
Extraction speed 17.8 X
Track quality 100.0 %
Copy CRC AE9A87E6
Track not present in AccurateRip database
Copy OK

Track 13

Filename A:\PsPBuRnOuT's MUSIC\DRIVE\CAR SONGS - THE ANTHEMS\CAR SONGS - THE ANTHEMS - CD2\13.Reef - Place Your Hands.wav

Peak level 82.2 %
Extraction speed 18.4 X
Track quality 100.0 %
Copy CRC 74BA8150
Track not present in AccurateRip database
Copy OK

Track 14

Filename A:\PsPBuRnOuT's MUSIC\DRIVE\CAR SONGS - THE ANTHEMS\CAR SONGS - THE ANTHEMS - CD2\14.Republica - Ready To Go.wav

Peak level 87.4 %
Extraction speed 17.7 X
Track quality 100.0 %
Copy CRC FED169D1
Track not present in AccurateRip database
Copy OK

Track 15

Filename A:\PsPBuRnOuT's MUSIC\DRIVE\CAR SONGS - THE ANTHEMS\CAR SONGS - THE ANTHEMS - CD2\15.Sleeper - Sale Of The Century.wav

Peak level 91.1 %
Extraction speed 18.2 X
Track quality 100.0 %
Copy CRC 2071E35B
Track not present in AccurateRip database
Copy OK

Track 16

Filename A:\PsPBuRnOuT's MUSIC\DRIVE\CAR SONGS - THE ANTHEMS\CAR SONGS - THE ANTHEMS - CD2\16.The Ting Tings - That's Not My Name.wav

Peak level 92.4 %
Extraction speed 18.8 X
Track quality 100.0 %
Copy CRC 216C8C2B
Track not present in AccurateRip database
Copy OK

Track 17

Filename A:\PsPBuRnOuT's MUSIC\DRIVE\CAR SONGS - THE ANTHEMS\CAR SONGS - THE ANTHEMS - CD2\17.The Zutons - Valerie.wav

Peak level 77.6 %
Extraction speed 13.6 X
Track quality 99.8 %
Copy CRC CC5E3920
Track not present in AccurateRip database
Copy OK

Track 18

Filename A:\PsPBuRnOuT's MUSIC\DRIVE\CAR SONGS - THE ANTHEMS\CAR SONGS - THE ANTHEMS - CD2\18.The Stone Roses - Waterfall.wav

Peak level 94.3 %
Extraction speed 17.3 X
Track quality 99.8 %
Copy CRC 820A1CE8
Track not present in AccurateRip database
Copy OK

Track 19

Filename A:\PsPBuRnOuT's MUSIC\DRIVE\CAR SONGS - THE ANTHEMS\CAR SONGS - THE ANTHEMS - CD2\19.Primal Scream - Movin' On Up.wav

Peak level 94.3 %
Extraction speed 18.7 X
Track quality 99.8 %
Copy CRC 7AD2B80E
Track not present in AccurateRip database
Copy OK

Track 20

Filename A:\PsPBuRnOuT's MUSIC\DRIVE\CAR SONGS - THE ANTHEMS\CAR SONGS - THE ANTHEMS - CD2\20.Manic Street Preachers - Motorcycle Emptiness.wav

Peak level 88.0 %
Extraction speed 17.7 X
Track quality 99.8 %
Copy CRC 2B1E11EC
Track not present in AccurateRip database
Copy OK


None of the tracks are present in the AccurateRip database

No errors occurred

End of status report

–– CUETools DB Plugin V2.1.6

[CTDB TOCID: ZIwx11V8pjc8nRE4YR198DyaMTc-] found
Submit result: ZIwx11V8pjc8nRE4YR198DyaMTc- has been uploaded
Track | CTDB Status
1 | (1/1) Accurately ripped
2 | (1/1) Accurately ripped
3 | (1/1) Accurately ripped
4 | (1/1) Accurately ripped
5 | (1/1) Accurately ripped
6 | (1/1) Accurately ripped
7 | (1/1) Accurately ripped
8 | (1/1) Accurately ripped
9 | (1/1) Accurately ripped
10 | (1/1) Accurately ripped
11 | (1/1) Accurately ripped
12 | (1/1) Accurately ripped
13 | (1/1) Accurately ripped
14 | (1/1) Accurately ripped
15 | (1/1) Accurately ripped
16 | (1/1) Accurately ripped
17 | (1/1) Accurately ripped
18 | (0/1) No match
19 | (1/1) Accurately ripped
20 | (1/1) Accurately ripped

Exact Audio Copy V1.3 from 2. September 2016

EAC extraction logfile from 16. February 2019, 18:51

Various / Car Songs - The Anthems - CD3

Used drive : ATAPI iHAS124 Y Adapter: 1 ID: 0

Read mode : Secure
Utilize accurate stream : Yes
Defeat audio cache : No
Make use of C2 pointers : Yes

Read offset correction : 48
Overread into Lead-In and Lead-Out : No
Fill up missing offset samples with silence : Yes
Delete leading and trailing silent blocks : No
Null samples used in CRC calculations : Yes
Used interface : Native Win32 interface for Win NT & 2000
Gap handling : Not detected, thus appended to previous track

Used output format : User Defined Encoder
Selected bitrate : 896 kBit/s
Quality : High
Add ID3 tag : No
Command line compressor : C:\Program Files (x86)\Exact Audio Copy\FLAC\FLAC.EXE
Additional command line options : -6 -V -T "ARTIST=%artist%" -T "TITLE=%title%" -T "ALBUM=%albumtitle%" -T "DATE=%year%" -T "TRACKNUMBER=%tracknr%" -T "GENRE=%genre%" -T "COMMENT=%comment%" -T "BAND=%albuminterpret%" -T "ALBUMARTIST=%albuminterpret%" -T "COMPOSER=%composer%" %haslyrics%–tag-from-file=LYRICS="%lyricsfile%"%haslyrics% -T "DISCNUMBER=%cdnumber%" -T "TOTALDISCS=%totalcds%" -T "TOTALTRACKS=%numtracks%" %hascover%–picture="%coverfile%"%hascover% %source% -o %dest%


TOC of the extracted CD

Track | Start | Length | Start sector | End sector
––––––––––––––––––––––––––––-
1 | 0:00.00 | 4:04.00 | 0 | 18299
2 | 4:04.00 | 4:05.65 | 18300 | 36739
3 | 8:09.65 | 3:21.01 | 36740 | 51815
4 | 11:30.66 | 4:04.62 | 51816 | 70177
5 | 15:35.53 | 3:54.48 | 70178 | 87775
6 | 19:30.26 | 3:33.71 | 87776 | 103821
7 | 23:04.22 | 4:23.38 | 103822 | 123584
8 | 27:27.60 | 3:38.64 | 123585 | 139998
9 | 31:06.49 | 3:56.35 | 139999 | 157733
10 | 35:03.09 | 4:04.25 | 157734 | 176058
11 | 39:07.34 | 3:53.23 | 176059 | 193556
12 | 43:00.57 | 3:42.62 | 193557 | 210268
13 | 46:43.44 | 2:49.49 | 210269 | 222992
14 | 49:33.18 | 3:45.01 | 222993 | 239868
15 | 53:18.19 | 3:55.36 | 239869 | 257529
16 | 57:13.55 | 3:41.12 | 257530 | 274116
17 | 60:54.67 | 4:15.07 | 274117 | 293248
18 | 65:09.74 | 4:04.73 | 293249 | 311621
19 | 69:14.72 | 3:56.34 | 311622 | 329355
20 | 73:11.31 | 3:34.20 | 329356 | 345425


Track 1

Filename A:\PsPBuRnOuT's MUSIC\DRIVE\CAR SONGS - THE ANTHEMS\CAR SONGS - THE ANTHEMS - CD3\01.Anastacia - I'm Outta Love.wav

Peak level 76.8 %
Extraction speed 14.8 X
Track quality 100.0 %
Copy CRC AEF3D4A8
Track not present in AccurateRip database
Copy OK

Track 2

Filename A:\PsPBuRnOuT's MUSIC\DRIVE\CAR SONGS - THE ANTHEMS\CAR SONGS - THE ANTHEMS - CD3\02.Avril Lavigne - Complicated.wav

Peak level 79.4 %
Extraction speed 20.6 X
Track quality 100.0 %
Copy CRC 25BCE406
Track not present in AccurateRip database
Copy OK

Track 3

Filename A:\PsPBuRnOuT's MUSIC\DRIVE\CAR SONGS - THE ANTHEMS\CAR SONGS - THE ANTHEMS - CD3\03.Carrie Underwood - Before He Cheats.wav

Peak level 68.3 %
Extraction speed 21.4 X
Track quality 100.0 %
Copy CRC DFF2572E
Track not present in AccurateRip database
Copy OK

Track 4

Filename A:\PsPBuRnOuT's MUSIC\DRIVE\CAR SONGS - THE ANTHEMS\CAR SONGS - THE ANTHEMS - CD3\04.Natalie Imbruglia - Torn.wav

Peak level 88.2 %
Extraction speed 24.4 X
Track quality 100.0 %
Copy CRC BD84F52F
Track not present in AccurateRip database
Copy OK

Track 5

Filename A:\PsPBuRnOuT's MUSIC\DRIVE\CAR SONGS - THE ANTHEMS\CAR SONGS - THE ANTHEMS - CD3\05.Mark Ronson Feat. Daniel Merriweather - Stop Me.wav

Peak level 64.5 %
Extraction speed 25.9 X
Track quality 100.0 %
Copy CRC CF556710
Track not present in AccurateRip database
Copy OK

Track 6

Filename A:\PsPBuRnOuT's MUSIC\DRIVE\CAR SONGS - THE ANTHEMS\CAR SONGS - THE ANTHEMS - CD3\06.Lissie - Go Your Own Way.wav

Peak level 70.7 %
Extraction speed 27.3 X
Track quality 100.0 %
Copy CRC D585212B
Track not present in AccurateRip database
Copy OK

Track 7

Filename A:\PsPBuRnOuT's MUSIC\DRIVE\CAR SONGS - THE ANTHEMS\CAR SONGS - THE ANTHEMS - CD3\07.Leona Lewis - Bleeding Love.wav

Peak level 70.7 %
Extraction speed 24.0 X
Track quality 99.9 %
Copy CRC DE1FBBFA
Track not present in AccurateRip database
Copy OK

Track 8

Filename A:\PsPBuRnOuT's MUSIC\DRIVE\CAR SONGS - THE ANTHEMS\CAR SONGS - THE ANTHEMS - CD3\08.Alexandra Burke - Hallelujah.wav

Peak level 65.3 %
Extraction speed 16.6 X
Track quality 100.0 %
Copy CRC B2BEB05C
Track not present in AccurateRip database
Copy OK

Track 9

Filename A:\PsPBuRnOuT's MUSIC\DRIVE\CAR SONGS - THE ANTHEMS\CAR SONGS - THE ANTHEMS - CD3\09.Heather Small - Proud.wav

Peak level 82.2 %
Extraction speed 30.9 X
Track quality 100.0 %
Copy CRC BC9AB5E9
Track not present in AccurateRip database
Copy OK

Track 10

Filename A:\PsPBuRnOuT's MUSIC\DRIVE\CAR SONGS - THE ANTHEMS\CAR SONGS - THE ANTHEMS - CD3\10.DJ Sammy & Yanou Feat. Do - Heaven (Candlelight Mix).wav

Peak level 68.4 %
Extraction speed 30.7 X
Track quality 100.0 %
Copy CRC 440E7CB5
Track not present in AccurateRip database
Copy OK

Track 11

Filename A:\PsPBuRnOuT's MUSIC\DRIVE\CAR SONGS - THE ANTHEMS\CAR SONGS - THE ANTHEMS - CD3\11.Toploader - Dancing In The Moonlight.wav

Peak level 79.4 %
Extraction speed 33.3 X
Track quality 100.0 %
Copy CRC 0617F645
Track not present in AccurateRip database
Copy OK

Track 12

Filename A:\PsPBuRnOuT's MUSIC\DRIVE\CAR SONGS - THE ANTHEMS\CAR SONGS - THE ANTHEMS - CD3\12.The Lightning Seeds - Marvellous.wav

Peak level 79.4 %
Extraction speed 33.2 X
Track quality 100.0 %
Copy CRC CA703C3C
Track not present in AccurateRip database
Copy OK

Track 13

Filename A:\PsPBuRnOuT's MUSIC\DRIVE\CAR SONGS - THE ANTHEMS\CAR SONGS - THE ANTHEMS - CD3\13.The Wannadies - You & Me Song.wav

Peak level 89.4 %
Extraction speed 35.4 X
Track quality 100.0 %
Copy CRC 494FA3F5
Track not present in AccurateRip database
Copy OK

Track 14

Filename A:\PsPBuRnOuT's MUSIC\DRIVE\CAR SONGS - THE ANTHEMS\CAR SONGS - THE ANTHEMS - CD3\14.Scouting For Girls - She's So Lovely.wav

Peak level 75.2 %
Extraction speed 35.6 X
Track quality 100.0 %
Copy CRC 86E09E32
Track not present in AccurateRip database
Copy OK

Track 15

Filename A:\PsPBuRnOuT's MUSIC\DRIVE\CAR SONGS - THE ANTHEMS\CAR SONGS - THE ANTHEMS - CD3\15.Hepburn - I Quit.wav

Peak level 77.6 %
Extraction speed 29.0 X
Track quality 99.9 %
Copy CRC E5D74EDA
Track not present in AccurateRip database
Copy OK

Track 16

Filename A:\PsPBuRnOuT's MUSIC\DRIVE\CAR SONGS - THE ANTHEMS\CAR SONGS - THE ANTHEMS - CD3\16.Craig McLachlan & Check 1-2 - Mona.wav

Peak level 94.3 %
Extraction speed 23.4 X
Track quality 99.9 %
Copy CRC 47896458
Track not present in AccurateRip database
Copy OK

Track 17

Filename A:\PsPBuRnOuT's MUSIC\DRIVE\CAR SONGS - THE ANTHEMS\CAR SONGS - THE ANTHEMS - CD3\17.Sophie B. Hawkins - Damn I Wish I Was Your Lover.wav

Peak level 85.1 %
Extraction speed 14.8 X
Track quality 99.8 %
Copy CRC CC0E66DB
Track not present in AccurateRip database
Copy OK

Track 18

Filename A:\PsPBuRnOuT's MUSIC\DRIVE\CAR SONGS - THE ANTHEMS\CAR SONGS - THE ANTHEMS - CD3\18.Deacon Blue - Real Gone Kid.wav

Peak level 94.3 %
Extraction speed 37.2 X
Track quality 100.0 %
Copy CRC E126DDEB
Track not present in AccurateRip database
Copy OK

Track 19

Filename A:\PsPBuRnOuT's MUSIC\DRIVE\CAR SONGS - THE ANTHEMS\CAR SONGS - THE ANTHEMS - CD3\19.The Bangles - Eternal Flame.wav

Peak level 85.1 %
Extraction speed 30.7 X
Track quality 99.9 %
Copy CRC C7BBBC38
Track not present in AccurateRip database
Copy OK

Track 20

Filename A:\PsPBuRnOuT's MUSIC\DRIVE\CAR SONGS - THE ANTHEMS\CAR SONGS - THE ANTHEMS - CD3\20.Beverley Craven - Promise Me.wav

Peak level 91.1 %
Extraction speed 9.0 X
Track quality 99.6 %
Copy CRC BFB7470E
Track not present in AccurateRip database
Copy OK


None of the tracks are present in the AccurateRip database

No errors occurred

End of status report

–– CUETools DB Plugin V2.1.6

[CTDB TOCID: b5.KjFoysGdY2ChuqwUmnoQCWrU-] found
Submit result: b5.KjFoysGdY2ChuqwUmnoQCWrU- has been uploaded
Track | CTDB Status
1 | (1/1) Accurately ripped
2 | (1/1) Accurately ripped
3 | (1/1) Accurately ripped
4 | (1/1) Accurately ripped
5 | (1/1) Accurately ripped
6 | (1/1) Accurately ripped
7 | (1/1) Accurately ripped
8 | (0/1) No match
9 | (1/1) Accurately ripped
10 | (1/1) Accurately ripped
11 | (1/1) Accurately ripped
12 | (1/1) Accurately ripped
13 | (1/1) Accurately ripped
14 | (1/1) Accurately ripped
15 | (1/1) Accurately ripped
16 | (1/1) Accurately ripped
17 | (1/1) Accurately ripped
18 | (1/1) Accurately ripped
19 | (1/1) Accurately ripped
20 | (1/1) Accurately ripped

Exact Audio Copy V1.3 from 2. September 2016

EAC extraction logfile from 16. February 2019, 19:22

Various / Car Songs - The Anthems - CD4

Used drive : ATAPI iHAS124 Y Adapter: 1 ID: 0

Read mode : Secure
Utilize accurate stream : Yes
Defeat audio cache : No
Make use of C2 pointers : Yes

Read offset correction : 48
Overread into Lead-In and Lead-Out : No
Fill up missing offset samples with silence : Yes
Delete leading and trailing silent blocks : No
Null samples used in CRC calculations : Yes
Used interface : Native Win32 interface for Win NT & 2000
Gap handling : Not detected, thus appended to previous track

Used output format : User Defined Encoder
Selected bitrate : 896 kBit/s
Quality : High
Add ID3 tag : No
Command line compressor : C:\Program Files (x86)\Exact Audio Copy\FLAC\FLAC.EXE
Additional command line options : -6 -V -T "ARTIST=%artist%" -T "TITLE=%title%" -T "ALBUM=%albumtitle%" -T "DATE=%year%" -T "TRACKNUMBER=%tracknr%" -T "GENRE=%genre%" -T "COMMENT=%comment%" -T "BAND=%albuminterpret%" -T "ALBUMARTIST=%albuminterpret%" -T "COMPOSER=%composer%" %haslyrics%–tag-from-file=LYRICS="%lyricsfile%"%haslyrics% -T "DISCNUMBER=%cdnumber%" -T "TOTALDISCS=%totalcds%" -T "TOTALTRACKS=%numtracks%" %hascover%–picture="%coverfile%"%hascover% %source% -o %dest%


TOC of the extracted CD

Track | Start | Length | Start sector | End sector
––––––––––––––––––––––––––––-
1 | 0:00.00 | 3:02.20 | 0 | 13669
2 | 3:02.20 | 2:32.48 | 13670 | 25117
3 | 5:34.68 | 3:59.30 | 25118 | 43072
4 | 9:34.23 | 3:37.56 | 43073 | 59403
5 | 13:12.04 | 3:04.34 | 59404 | 73237
6 | 16:16.38 | 2:53.19 | 73238 | 86231
7 | 19:09.57 | 3:31.38 | 86232 | 102094
8 | 22:41.20 | 4:09.34 | 102095 | 120803
9 | 26:50.54 | 3:48.40 | 120804 | 137943
10 | 30:39.19 | 4:40.56 | 137944 | 158999
11 | 35:20.00 | 4:48.62 | 159000 | 180661
12 | 40:08.62 | 4:28.51 | 180662 | 200812
13 | 44:37.38 | 5:20.60 | 200813 | 224872
14 | 49:58.23 | 4:08.29 | 224873 | 243501
15 | 54:06.52 | 4:28.05 | 243502 | 263606
16 | 58:34.57 | 4:02.08 | 263607 | 281764
17 | 62:36.65 | 3:22.09 | 281765 | 296923
18 | 65:58.74 | 3:01.09 | 296924 | 310507
19 | 69:00.08 | 2:39.61 | 310508 | 322493
20 | 71:39.69 | 4:13.37 | 322494 | 341505


Track 1

Filename A:\PsPBuRnOuT's MUSIC\DRIVE\CAR SONGS - THE ANTHEMS\CAR SONGS - THE ANTHEMS - CD4\01.The Only Ones - Another Girl Another Planet.wav

Peak level 94.3 %
Extraction speed 12.3 X
Track quality 99.8 %
Copy CRC E05151FD
Track not present in AccurateRip database
Copy OK

Track 2

Filename A:\PsPBuRnOuT's MUSIC\DRIVE\CAR SONGS - THE ANTHEMS\CAR SONGS - THE ANTHEMS - CD4\02.The Primitives - Crash.wav

Peak level 94.3 %
Extraction speed 12.5 X
Track quality 99.8 %
Copy CRC D9D31E80
Track not present in AccurateRip database
Copy OK

Track 3

Filename A:\PsPBuRnOuT's MUSIC\DRIVE\CAR SONGS - THE ANTHEMS\CAR SONGS - THE ANTHEMS - CD4\03.The Psychedelic Furs - Pretty In Pink.wav

Peak level 91.1 %
Extraction speed 18.9 X
Track quality 100.0 %
Copy CRC 87732EA1
Track not present in AccurateRip database
Copy OK

Track 4

Filename A:\PsPBuRnOuT's MUSIC\DRIVE\CAR SONGS - THE ANTHEMS\CAR SONGS - THE ANTHEMS - CD4\04.Roachford - Cuddly Toy.wav

Peak level 94.3 %
Extraction speed 23.7 X
Track quality 100.0 %
Copy CRC CCB6D171
Track not present in AccurateRip database
Copy OK

Track 5

Filename A:\PsPBuRnOuT's MUSIC\DRIVE\CAR SONGS - THE ANTHEMS\CAR SONGS - THE ANTHEMS - CD4\05.Wild Cherry - Play That Funky Music.wav

Peak level 94.3 %
Extraction speed 22.1 X
Track quality 100.0 %
Copy CRC 3F23C030
Track not present in AccurateRip database
Copy OK

Track 6

Filename A:\PsPBuRnOuT's MUSIC\DRIVE\CAR SONGS - THE ANTHEMS\CAR SONGS - THE ANTHEMS - CD4\06.Freda Payne - Band Of Gold.wav

Peak level 94.3 %
Extraction speed 24.6 X
Track quality 100.0 %
Copy CRC E69E7C7B
Track not present in AccurateRip database
Copy OK

Track 7

Filename A:\PsPBuRnOuT's MUSIC\DRIVE\CAR SONGS - THE ANTHEMS\CAR SONGS - THE ANTHEMS - CD4\07.Terence Trent D'Arby - Wishing Well.wav

Peak level 94.3 %
Extraction speed 25.9 X
Track quality 100.0 %
Copy CRC FD043C4F
Track not present in AccurateRip database
Copy OK

Track 8

Filename A:\PsPBuRnOuT's MUSIC\DRIVE\CAR SONGS - THE ANTHEMS\CAR SONGS - THE ANTHEMS - CD4\08.Daryl Hall & John Oates - Out Of Touch.wav

Peak level 94.3 %
Extraction speed 27.1 X
Track quality 100.0 %
Copy CRC E469DDAF
Track not present in AccurateRip database
Copy OK

Track 9

Filename A:\PsPBuRnOuT's MUSIC\DRIVE\CAR SONGS - THE ANTHEMS\CAR SONGS - THE ANTHEMS - CD4\09.Mental As Anything - Live It Up.wav

Peak level 94.3 %
Extraction speed 29.8 X
Track quality 100.0 %
Copy CRC C2C359A9
Track not present in AccurateRip database
Copy OK

Track 10

Filename A:\PsPBuRnOuT's MUSIC\DRIVE\CAR SONGS - THE ANTHEMS\CAR SONGS - THE ANTHEMS - CD4\10.Mr. Mister - Broken Wings.wav

Peak level 90.8 %
Extraction speed 25.4 X
Track quality 99.9 %
Copy CRC 75347AD3
Track not present in AccurateRip database
Copy OK

Track 11

Filename A:\PsPBuRnOuT's MUSIC\DRIVE\CAR SONGS - THE ANTHEMS\CAR SONGS - THE ANTHEMS - CD4\11.Martika - Toy Soldiers.wav

Peak level 96.6 %
Extraction speed 26.9 X
Track quality 100.0 %
Copy CRC A2EBA007
Track not present in AccurateRip database
Copy OK

Track 12

Filename A:\PsPBuRnOuT's MUSIC\DRIVE\CAR SONGS - THE ANTHEMS\CAR SONGS - THE ANTHEMS - CD4\12.Michael Bolton - Soul Provider.wav

Peak level 94.3 %
Extraction speed 33.1 X
Track quality 100.0 %
Copy CRC 0CFD90E3
Track not present in AccurateRip database
Copy OK

Track 13

Filename A:\PsPBuRnOuT's MUSIC\DRIVE\CAR SONGS - THE ANTHEMS\CAR SONGS - THE ANTHEMS - CD4\13.Spandau Ballet - Through The Barricades.wav

Peak level 93.4 %
Extraction speed 33.4 X
Track quality 100.0 %
Copy CRC 8407476B
Track not present in AccurateRip database
Copy OK

Track 14

Filename A:\PsPBuRnOuT's MUSIC\DRIVE\CAR SONGS - THE ANTHEMS\CAR SONGS - THE ANTHEMS - CD4\14.Gloria Estefan - Don't Wanna Lose You.wav

Peak level 93.5 %
Extraction speed 36.3 X
Track quality 100.0 %
Copy CRC DF3C2A80
Track not present in AccurateRip database
Copy OK

Track 15

Filename A:\PsPBuRnOuT's MUSIC\DRIVE\CAR SONGS - THE ANTHEMS\CAR SONGS - THE ANTHEMS - CD4\15.Jennifer Rush - The Power Of Love.wav

Peak level 85.1 %
Extraction speed 37.3 X
Track quality 100.0 %
Copy CRC 7DF039B3
Track not present in AccurateRip database
Copy OK

Track 16

Filename A:\PsPBuRnOuT's MUSIC\DRIVE\CAR SONGS - THE ANTHEMS\CAR SONGS - THE ANTHEMS - CD4\16.Air Supply - All Out Of Love.wav

Peak level 85.1 %
Extraction speed 36.3 X
Track quality 100.0 %
Copy CRC 728A918D
Track not present in AccurateRip database
Copy OK

Track 17

Filename A:\PsPBuRnOuT's MUSIC\DRIVE\CAR SONGS - THE ANTHEMS\CAR SONGS - THE ANTHEMS - CD4\17.Harry Nilsson - Without You.wav

Peak level 94.3 %
Extraction speed 38.5 X
Track quality 100.0 %
Copy CRC 2C7E1DCA
Track not present in AccurateRip database
Copy OK

Track 18

Filename A:\PsPBuRnOuT's MUSIC\DRIVE\CAR SONGS - THE ANTHEMS\CAR SONGS - THE ANTHEMS - CD4\18.Kirsty MacColl - Days.wav

Peak level 87.0 %
Extraction speed 40.2 X
Track quality 100.0 %
Copy CRC 4FE63962
Track not present in AccurateRip database
Copy OK

Track 19

Filename A:\PsPBuRnOuT's MUSIC\DRIVE\CAR SONGS - THE ANTHEMS\CAR SONGS - THE ANTHEMS - CD4\19.Dolly Parton - Jolene.wav

Peak level 94.3 %
Extraction speed 36.8 X
Track quality 100.0 %
Copy CRC 1FEC9979
Track not present in AccurateRip database
Copy OK

Track 20

Filename A:\PsPBuRnOuT's MUSIC\DRIVE\CAR SONGS - THE ANTHEMS\CAR SONGS - THE ANTHEMS - CD4\20.Big Brother & The Holding Company Feat. Janis Joplin - Piece Of My Heart.wav

Peak level 85.1 %
Extraction speed 41.0 X
Track quality 100.0 %
Copy CRC 44B9843B
Track not present in AccurateRip database
Copy OK


None of the tracks are present in the AccurateRip database

No errors occurred

End of status report

–– CUETools DB Plugin V2.1.6

[CTDB TOCID: EBvjilToDDmDvoum9ynzjeUPP7A-] found
Submit result: EBvjilToDDmDvoum9ynzjeUPP7A- has been confirmed
Track | CTDB Status
1 | (1/1) Accurately ripped
2 | (1/1) Accurately ripped
3 | (1/1) Accurately ripped
4 | (1/1) Accurately ripped
5 | (1/1) Accurately ripped
6 | (1/1) Accurately ripped
7 | (1/1) Accurately ripped
8 | (1/1) Accurately ripped
9 | (1/1) Accurately ripped
10 | (1/1) Accurately ripped
11 | (1/1) Accurately ripped
12 | (1/1) Accurately ripped
13 | (1/1) Accurately ripped
14 | (1/1) Accurately ripped
15 | (1/1) Accurately ripped
16 | (1/1) Accurately ripped
17 | (1/1) Accurately ripped
18 | (1/1) Accurately ripped
19 | (1/1) Accurately ripped
20 | (1/1) Accurately ripped