Tags
Language
Tags

VA - Grumpier Old Men: Music From The Motion Picture (1995) [Re-Up]

Posted By: Efgrapha
VA - Grumpier Old Men: Music From The Motion Picture (1995) [Re-Up]

VA - Grumpier Old Men: Music From The Motion Picture (1995)
EAC | FLAC (Tracks) + cue.+log ~ 211 Mb | Mp3, CBR320 kbps ~ 106 Mb | Scans included
Soundtrack, Vocal Jazz, Traditional Pop, Pop/Rock | Label: TVT | # TVT 6810-2 | 00:35:18

There are some really nice tunes on this soundtrack to the excellent film "Grumpier Old Men."

The highlights for me are the songs by Louis Armstrong, Dean Martin, Harry Belafonte, Doris Day, Nat King Cole and the couple of instrumentals by composer Alan Silvestri. These are the recordings that will remind you of the fun that GOM provided to those fortunate to see legends Lemmon, Matthau, Meredith, Ann-Margaret and Sophia Loren (holy moly) in their last great film together.

The only pity is that because the first films soundtrack is not available to buy, that the song from that film "We're Having A Heatwave" is not here.

Sound quality is excellent and joyous.

Peter J. Chambers

VA - Grumpier Old Men: Music From The Motion Picture (1995) [Re-Up]


~ Film at IMDB
~ Film at Wiki

Tracklist:

01. Louis Armstrong & Louis Jordan - I'll be Glad When You're Dead (Your Rascal You) (3:05)
02. Buster Poindexter - Hit the Road Jack (3:14)
03. Dean Martin - That's Amore (3:07)
04. Johnny Cash - Understand Your Man (2:42)
05. Shocking Blue - Venus (2:59)
06. Harry Belafonte - Jump in the Line (Shake Senora) (3:43)
07. Bee Gees - Stayin' Alive (4:43)
08. Wally Olson Band - The Chicken Dance (1:05)
09. Les Brown & His Orchestra feat. Doris Day - 'S Wonderful (1:32)
10. Nat King Cole - Almost Like Being In Love (1:54)
11. Dell Vikings - I Hear Bells (Wedding Bells) (2:27)
12. Alan Silvestri - What the Heck (1:01)
13. Alan Silvestri - End Title (3:43)


Exact Audio Copy V0.99 prebeta 4 from 23. January 2008

EAC extraction logfile from 14. March 2011, 17:28

Various / Grumpier Old Men

Used drive : Optiarc DVD RW AD-7241S Adapter: 1 ID: 1

Read mode : Secure
Utilize accurate stream : Yes
Defeat audio cache : Yes
Make use of C2 pointers : No

Read offset correction : 48
Overread into Lead-In and Lead-Out : No
Fill up missing offset samples with silence : Yes
Delete leading and trailing silent blocks : No
Null samples used in CRC calculations : Yes
Used interface : Installed external ASPI interface
Gap handling : Appended to previous track

Used output format : User Defined Encoder
Selected bitrate : 1024 kBit/s
Quality : High
Add ID3 tag : No
Command line compressor : C:\Program Files\Exact Audio Copy\Flac\flac.exe
Additional command line options : -8 -V -T "ARTIST=%a" -T "TITLE=%t" -T "ALBUM=%g" -T "DATE=%y" -T "TRACKNUMBER=%n" -T "GENRE=%m" -T "COMMENT=EAC FLAC -8" %s


TOC of the extracted CD

Track | Start | Length | Start sector | End sector
––––––––––––––––––––––––––––-
1 | 0:00.32 | 3:05.23 | 32 | 13929
2 | 3:05.55 | 3:14.32 | 13930 | 28511
3 | 6:20.12 | 3:07.15 | 28512 | 42551
4 | 9:27.27 | 2:42.35 | 42552 | 54736
5 | 12:09.62 | 2:59.25 | 54737 | 68186
6 | 15:09.12 | 3:42.38 | 68187 | 84874
7 | 18:51.50 | 4:43.22 | 84875 | 106121
8 | 23:34.72 | 1:05.35 | 106122 | 111031
9 | 24:40.32 | 1:31.48 | 111032 | 117904
10 | 26:12.05 | 1:54.00 | 117905 | 126454
11 | 28:06.05 | 2:27.30 | 126455 | 137509
12 | 30:33.35 | 1:01.27 | 137510 | 142111
13 | 31:34.62 | 3:43.30 | 142112 | 158866


Track 1

Filename F:\torrent\Grumpier Old Men_OST\ost\01. Louis Armstrong & Louis Jordan – I'll be Glad When You're Dead (Your Rascal You).wav

Pre-gap length 0:00:02.42

Peak level 84.5 %
Track quality 99.9 %
Test CRC 3622F2BC
Copy CRC 3622F2BC
Accurately ripped (confidence 3) [56450D29]
Copy OK

Track 2

Filename F:\torrent\Grumpier Old Men_OST\ost\02. Buster Poindexter – Hit the Road Jack.wav

Pre-gap length 0:00:00.02

Peak level 90.5 %
Track quality 100.0 %
Test CRC 04038CB4
Copy CRC 04038CB4
Accurately ripped (confidence 3) [8CD902B8]
Copy OK

Track 3

Filename F:\torrent\Grumpier Old Men_OST\ost\03. Dean Martin – That's Amore.wav

Pre-gap length 0:00:00.02

Peak level 88.3 %
Track quality 100.0 %
Test CRC 479CD9BF
Copy CRC 479CD9BF
Accurately ripped (confidence 3) [414C77D7]
Copy OK

Track 4

Filename F:\torrent\Grumpier Old Men_OST\ost\04. Johnny Cash – Understand Your Man.wav

Pre-gap length 0:00:01.69

Peak level 78.4 %
Track quality 100.0 %
Test CRC F81693BE
Copy CRC F81693BE
Accurately ripped (confidence 3) [DE95D18A]
Copy OK

Track 5

Filename F:\torrent\Grumpier Old Men_OST\ost\05. Shocking Blue – Venus.wav

Pre-gap length 0:00:01.25

Peak level 71.6 %
Track quality 99.9 %
Test CRC 14D6A0E7
Copy CRC 14D6A0E7
Accurately ripped (confidence 3) [C335811A]
Copy OK

Track 6

Filename F:\torrent\Grumpier Old Men_OST\ost\06. Harry Belafonte – Jump in the Line (Shake Senora).wav

Pre-gap length 0:00:00.42

Peak level 95.1 %
Track quality 99.9 %
Test CRC 8A6067A9
Copy CRC 8A6067A9
Accurately ripped (confidence 3) [3C9872EE]
Copy OK

Track 7

Filename F:\torrent\Grumpier Old Men_OST\ost\07. Bee Gees – Stayin' Alive.wav

Pre-gap length 0:00:00.02

Peak level 90.2 %
Track quality 100.0 %
Test CRC 83A84373
Copy CRC 83A84373
Accurately ripped (confidence 3) [63939A31]
Copy OK

Track 8

Filename F:\torrent\Grumpier Old Men_OST\ost\08. Wally Olson Band – The Chicken Dance.wav

Pre-gap length 0:00:01.05

Peak level 84.4 %
Track quality 100.0 %
Test CRC 400A7D4F
Copy CRC 400A7D4F
Accurately ripped (confidence 3) [132E6705]
Copy OK

Track 9

Filename F:\torrent\Grumpier Old Men_OST\ost\09. Les Brown & His Orchestra feat. Doris Day – 'S Wonderful.wav

Pre-gap length 0:00:00.25

Peak level 88.3 %
Track quality 99.8 %
Test CRC 3EDC1B7A
Copy CRC 3EDC1B7A
Accurately ripped (confidence 3) [CFC04E3B]
Copy OK

Track 10

Filename F:\torrent\Grumpier Old Men_OST\ost\10. Nat King Cole – Almost Like Being In Love.wav

Pre-gap length 0:00:00.02

Peak level 80.0 %
Track quality 100.0 %
Test CRC 4F9A8D8F
Copy CRC 4F9A8D8F
Accurately ripped (confidence 3) [E8D028D5]
Copy OK

Track 11

Filename F:\torrent\Grumpier Old Men_OST\ost\11. Dell Vikings – I Hear Bells (Wedding Bells).wav

Pre-gap length 0:00:01.56

Peak level 61.2 %
Track quality 99.9 %
Test CRC 1B4D1631
Copy CRC 1B4D1631
Accurately ripped (confidence 3) [94B4D700]
Copy OK

Track 12

Filename F:\torrent\Grumpier Old Men_OST\ost\12. Alan Silvestri – What the Heck.wav

Pre-gap length 0:00:03.46

Peak level 65.1 %
Track quality 100.0 %
Test CRC C429902F
Copy CRC C429902F
Accurately ripped (confidence 3) [11760452]
Copy OK

Track 13

Filename F:\torrent\Grumpier Old Men_OST\ost\13. Alan Silvestri – End Title.wav

Pre-gap length 0:00:00.76

Peak level 94.6 %
Track quality 100.0 %
Test CRC 9FBFE1D0
Copy CRC 9FBFE1D0
Accurately ripped (confidence 3) [B8425F6B]
Copy OK


All tracks accurately ripped

No errors occurred

End of status report

foobar2000 1.2 / Dynamic Range Meter 1.1.1
log date: 2017-04-21 19:11:29

––––––––––––––––––––––––––––––––––––––––
Analyzed: Alan Silvestri / Grumpier Old Men (1-2)
Bee Gees / Grumpier Old Men (3)
Buster Poindexter / Grumpier Old Men (4)
Dean Martin / Grumpier Old Men (5)
Dell Vikings / Grumpier Old Men (6)
Harry Belafonte / Grumpier Old Men (7)
Johnny Cash / Grumpier Old Men (8)
Les Brown & His Orchestra feat. Doris Day / Grumpier Old Men (9)
Louis Armstrong & Louis Jordan / Grumpier Old Men (10)
Nat King Cole / Grumpier Old Men (11)
Shocking Blue / Grumpier Old Men (12)
Wally Olson Band / Grumpier Old Men (13)
––––––––––––––––––––––––––––––––––––––––

DR Peak RMS Duration Track
––––––––––––––––––––––––––––––––––––––––
DR10 -3.72 dB -16.81 dB 1:01 12-What the Heck
DR14 -0.48 dB -19.08 dB 3:43 13-End Title
DR13 -0.89 dB -15.72 dB 4:43 07-Stayin' Alive
DR12 -0.86 dB -15.90 dB 3:14 02-Hit the Road Jack
DR11 -1.07 dB -15.11 dB 3:07 03-That's Amore
DR11 -4.26 dB -17.36 dB 2:27 11-I Hear Bells (Wedding Bells)
DR11 -0.43 dB -14.18 dB 3:43 06-Jump in the Line (Shake Senora)
DR12 -2.11 dB -16.74 dB 2:42 04-Understand Your Man
DR11 -1.07 dB -14.38 dB 1:32 09-'S Wonderful
DR10 -1.46 dB -13.50 dB 3:05 01-I'll be Glad When You're Dead (Your Rascal You)
DR11 -1.94 dB -14.82 dB 1:54 10-Almost Like Being In Love
DR11 -2.89 dB -15.71 dB 2:59 05-Venus
DR14 -1.47 dB -17.76 dB 1:05 08-The Chicken Dance
––––––––––––––––––––––––––––––––––––––––

Number of tracks: 13
Official DR value: DR12

Samplerate: 44100 Hz
Channels: 2
Bits per sample: 16
Bitrate: 860 kbps
Codec: FLAC
================================================================================

VA - Grumpier Old Men: Music From The Motion Picture (1995) [Re-Up]

VA - Grumpier Old Men: Music From The Motion Picture (1995) [Re-Up]