Subcategories

VA - Indie Anthems: The Ultimate Collection (5CD, 2019)

Posted By: ciklon5
VA - Indie Anthems: The Ultimate Collection (5CD, 2019)

VA - Indie Anthems: The Ultimate Collection (5CD, 2019)
FLAC (tracks+.cue,log,scans) | 05:59:46 | 2,6 Gb
Genre: Pop. Rock Indie / Label: Ultimate Collection

So the festival season is over, the tent is packed away for another year and wellies are stored for a rainy day… Why not re-live your summer with Indie Anthems – The Ultimate Collection … 100 Hits of Indie classics past and present.
This 5CD set offers 100 hits of pure Indie greatness. Featuring over 50 top 20 hits including over 10 No.1s, there is something for everyone. This is the Ultimate Collection of Indie Anthems.

Track List:
CD1
01.Keane - Is It Any Wonder - 00:03:06
02.Athlete - El Salvador - 00:03:25
03.Two Door Cinema Club - This Is The Life - 00:03:29
04.The Rumble Strips - Girls & Boys In Love - 00:02:30
05.KT Tunstall - Suddenly I See - 00:03:20
06.Kate Nash - Foundations - 00:03:42
07.Amy Winehouse - You Know I'm No Good - 00:03:36
08.The Beautiful South - Perfect 10 - 00:03:36
09.Dodgy - Staying Out For The Summer - 00:03:05
10.Dirty Pretty Things - Bang Bang You're Dead - 00:03:32
11.James - Sit Down - 00:04:03
12.Stereophonics - Dakota - 00:04:57
13.The Magic Numbers - Love Me Like You - 00:04:18
14.The Jesus & Mary Chain - Just Like Honey - 00:03:01
15.Turin Brakes - Painkiller - 00:03:41
16.Noah & The Whale - L.I.F.E.G.O.E.S.O.N. - 00:03:45
17.Hoobastank - The Reason - 00:03:50
18.Of Monsters & Men - Little Talks - 00:04:10
19.Kirsty MacColl - You Just Haven't Earned It Yet, Baby - 00:02:46
20.Amy Macdonald - This Is The Life - 00:03:03

CD2
01.Placebo - Running Up That Hill - 00:04:54
02.The Dandy Warhols - Bohemian Like You - 00:03:29
03.Doves - Catch The Sun - 00:04:46
04.The Vines - Hey - 00:01:34
05.Space - Female Of The Species - 00:03:18
06.Reverend And The Makers - Shine The Light - 00:03:24
07.The Mock Turtles - Can You Dig It - 00:04:09
08.The Fratellis - Chelsea Dagger - 00:03:33
09.Idlewild - Readers And Writers - 00:02:51
10.Madness - My Girl - 00:02:38
11.Ocean Colour Scene - Hundred Mile High City - 00:03:55
12.The Libertines - Don't Look Back Into The Sun - 00:02:58
13.Shed Seven - Chasing Rainbows - 00:04:23
14.The Farm - Altogether Now - 00:05:41
15.The Soup Dragons - I'm Free - 00:03:48
16.Stereo MC's - Connected - 00:03:45
17.Sneaker Pimps - Six Underground - 00:03:52
18.Fatboy Slim - Praise You - 00:03:46
19.Razorlight - America - 00:04:09
20.Richard Hawley - Baby, You're My Light - 00:02:53

CD3
01.Amy Winehouse - Rehab - 00:03:32
02.Madness - Embarrassment - 00:03:02
03.Space - Avenging Angels - 00:02:58
04.Placebo - Every You, Every Me - 00:03:34
05.Kula Shaker - Hush - 00:02:55
06.Pulp - Common People - 00:04:06
07.Klaxons - Gravity's Rainbow - 00:02:37
08.Reverend And The Makers - Heavyweight Champion Of The World - 00:03:24
09.Guillemots - Trains To Brazil - 00:04:01
10.Nerina Pallot - I Don't Want To Go Out - 00:03:25
11.Kubb - Wicked Soul - 00:03:44
12.Gene - Olympian - 00:05:22
13.Dodgy - In A Room - 00:04:15
14.Meredith Brooks - Bitch - 00:03:56
15.Faith No More - Epic - 00:04:52
16.Catatonia - Mulder And Scully - 00:04:11
17.Jet - Look What You've Done - 00:03:51
18.The LA's - There She Goes - 00:02:41
19.The Feeling - Sewn - 00:03:43
20.Troggs - Wild Thing - 00:02:35

CD4
01.We Are Scientists - Nobody Move, Nobody Gets Hurt - 00:03:15
02.Queens Of The Stone Age - No One Knows - 00:04:39
03.The Datsuns - Cry Crybaby - 00:02:39
04.The Automatic - Monster - 00:03:38
05.The Wonder Stuff - A Wish Away - 00:02:28
06.L7 - Pretend We're Dead - 00:03:54
07.Longpigs - She Said - 00:04:22
08.Bowling For Soup - Girl All The Bad Guys Want - 00:03:17
09.New Found Glory - My Friends Over You - 00:03:40
10.OK Go - Get Over It - 00:03:16
11.Blink 182 - All The Small Things - 00:02:47
12.Smash Mouth - All Star - 00:03:18
13.OPM - Heaven Is A Halfpipe (If I Die) - 00:04:15
14.Bloodhound Gang - The Bad Touch - 00:03:37
15.The Undertones - Teenage Kicks - 00:02:25
16.Palma Violets - Best Of Friends - 00:03:30
17.Wreckless Eric - Whole Wide World - 00:02:51
18.The Cribs - Hey Scenesters! - 00:03:10
19.Tenpole Tudor - Swords Of A Thousand Men - 00:02:55
20.The Enemy - Saturday - 00:03:12

CD5
01.The XX - Angels - 00:02:50
02.Sonic Youth - Bull In The Heather - 00:03:04
03.Mansun - I Can Only Disappoint U - 00:04:19
04.Arcade Fire - Rebellion (Lies) - 00:05:05
05.Noah And The Whale - 5 Years Time - 00:03:03
06.Bloc Party - Banquet - 00:03:19
07.Primal Scream - Rocks - 00:03:26
08.The Courteeners - Not Nineteen Forever - 00:03:23
09.Fall Out Boy - Thnks Fr Th Mmrs - 00:03:23
10.Yeah Yeah Yeahs - Heads Will Roll - 00:03:40
11.The Vines - Get Out - 00:02:08
12.Hole - Celebrity Skin - 00:02:41
13.White Lies - To Lose My Life - 00:03:09
14.Sound Garden - Black Hole Sun - 00:04:30
15.Alex Clare - Too Close - 00:03:42
16.Delphic - Halcyon - 00:03:54
17.Empire Of The Sun - Walking On A Dream - 00:03:14
18.Groove Armada - Paper Romance - 00:06:16
19.808 State - Pacific 707 - 00:03:52
20.The Prodigy - Stand Up - 00:05:24

Exact Audio Copy V1.3 from 2. September 2016

EAC extraction logfile from 7. September 2019, 13:16

Various / Indie Anthems - The Ultimate Collection - CD1

Used drive : ATAPI iHAS124 Y Adapter: 1 ID: 0

Read mode : Secure
Utilize accurate stream : Yes
Defeat audio cache : No
Make use of C2 pointers : Yes

Read offset correction : 48
Overread into Lead-In and Lead-Out : No
Fill up missing offset samples with silence : Yes
Delete leading and trailing silent blocks : No
Null samples used in CRC calculations : Yes
Used interface : Native Win32 interface for Win NT & 2000
Gap handling : Not detected, thus appended to previous track

Used output format : User Defined Encoder
Selected bitrate : 768 kBit/s
Quality : High
Add ID3 tag : No
Command line compressor : C:\Program Files (x86)\Exact Audio Copy\FLAC\FLAC.EXE
Additional command line options : -6 -V -T "ARTIST=%artist%" -T "TITLE=%title%" -T "ALBUM=%albumtitle%" -T "DATE=%year%" -T "TRACKNUMBER=%tracknr%" -T "GENRE=%genre%" -T "COMMENT=%comment%" -T "BAND=%albuminterpret%" -T "ALBUMARTIST=%albuminterpret%" -T "COMPOSER=%composer%" %haslyrics%–tag-from-file=LYRICS="%lyricsfile%"%haslyrics% -T "DISCNUMBER=%cdnumber%" -T "TOTALDISCS=%totalcds%" -T "TOTALTRACKS=%numtracks%" %hascover%–picture="%coverfile%"%hascover% %source% -o %dest%


TOC of the extracted CD

Track | Start | Length | Start sector | End sector
––––––––––––––––––––––––––––-
1 | 0:00.00 | 3:06.08 | 0 | 13957
2 | 3:06.08 | 3:25.23 | 13958 | 29355
3 | 6:31.31 | 3:29.69 | 29356 | 45099
4 | 10:01.25 | 2:30.48 | 45100 | 56397
5 | 12:31.73 | 3:20.44 | 56398 | 71441
6 | 15:52.42 | 3:42.14 | 71442 | 88105
7 | 19:34.56 | 3:36.56 | 88106 | 104361
8 | 23:11.37 | 3:36.61 | 104362 | 120622
9 | 26:48.23 | 3:05.22 | 120623 | 134519
10 | 29:53.45 | 3:32.68 | 134520 | 150487
11 | 33:26.38 | 4:03.69 | 150488 | 168781
12 | 37:30.32 | 4:57.21 | 168782 | 191077
13 | 42:27.53 | 4:18.69 | 191078 | 210496
14 | 46:46.47 | 3:01.49 | 210497 | 224120
15 | 49:48.21 | 3:41.55 | 224121 | 240750
16 | 53:30.01 | 3:45.59 | 240751 | 257684
17 | 57:15.60 | 3:50.36 | 257685 | 274970
18 | 61:06.21 | 4:10.41 | 274971 | 293761
19 | 65:16.62 | 2:46.33 | 293762 | 306244
20 | 68:03.20 | 3:03.57 | 306245 | 320026


Track 1

Filename A:\PsPBuRnOuT's MUSIC\SORTED BY YEAR\2000 PLUS\INDIE ANTHEMS - THE ULTIMATE COLLECTION\INDIE ANTHEMS - THE ULTIMATE COLLECTION - CD1\01.Keane - Is It Any Wonder.wav

Peak level 94.4 %
Extraction speed 12.3 X
Track quality 99.8 %
Copy CRC 1065DF04
Accurately ripped (confidence 10) [7598A23C] (AR v2)
Copy OK

Track 2

Filename A:\PsPBuRnOuT's MUSIC\SORTED BY YEAR\2000 PLUS\INDIE ANTHEMS - THE ULTIMATE COLLECTION\INDIE ANTHEMS - THE ULTIMATE COLLECTION - CD1\02.Athlete - El Salvador.wav

Peak level 92.1 %
Extraction speed 17.6 X
Track quality 100.0 %
Copy CRC F5DEC223
Accurately ripped (confidence 9) [FE3497C5] (AR v2)
Copy OK

Track 3

Filename A:\PsPBuRnOuT's MUSIC\SORTED BY YEAR\2000 PLUS\INDIE ANTHEMS - THE ULTIMATE COLLECTION\INDIE ANTHEMS - THE ULTIMATE COLLECTION - CD1\03.Two Door Cinema Club - This Is The Life.wav

Peak level 97.7 %
Extraction speed 21.4 X
Track quality 100.0 %
Copy CRC 0F49DA10
Accurately ripped (confidence 10) [26802C9D] (AR v2)
Copy OK

Track 4

Filename A:\PsPBuRnOuT's MUSIC\SORTED BY YEAR\2000 PLUS\INDIE ANTHEMS - THE ULTIMATE COLLECTION\INDIE ANTHEMS - THE ULTIMATE COLLECTION - CD1\04.The Rumble Strips - Girls & Boys In Love.wav

Peak level 79.7 %
Extraction speed 22.5 X
Track quality 100.0 %
Copy CRC 8C84BF9E
Accurately ripped (confidence 10) [23EF9BF1] (AR v2)
Copy OK

Track 5

Filename A:\PsPBuRnOuT's MUSIC\SORTED BY YEAR\2000 PLUS\INDIE ANTHEMS - THE ULTIMATE COLLECTION\INDIE ANTHEMS - THE ULTIMATE COLLECTION - CD1\05.KT Tunstall - Suddenly I See.wav

Peak level 96.5 %
Extraction speed 25.0 X
Track quality 100.0 %
Copy CRC AF4AF8CD
Accurately ripped (confidence 9) [93063F6C] (AR v2)
Copy OK

Track 6

Filename A:\PsPBuRnOuT's MUSIC\SORTED BY YEAR\2000 PLUS\INDIE ANTHEMS - THE ULTIMATE COLLECTION\INDIE ANTHEMS - THE ULTIMATE COLLECTION - CD1\06.Kate Nash - Foundations.wav

Peak level 96.6 %
Extraction speed 25.8 X
Track quality 100.0 %
Copy CRC 88942FB1
Accurately ripped (confidence 9) [02FDC219] (AR v2)
Copy OK

Track 7

Filename A:\PsPBuRnOuT's MUSIC\SORTED BY YEAR\2000 PLUS\INDIE ANTHEMS - THE ULTIMATE COLLECTION\INDIE ANTHEMS - THE ULTIMATE COLLECTION - CD1\07.Amy Winehouse - You Know I'm No Good.wav

Peak level 96.9 %
Extraction speed 27.5 X
Track quality 100.0 %
Copy CRC D3CD7C06
Accurately ripped (confidence 10) [B86D759A] (AR v2)
Copy OK

Track 8

Filename A:\PsPBuRnOuT's MUSIC\SORTED BY YEAR\2000 PLUS\INDIE ANTHEMS - THE ULTIMATE COLLECTION\INDIE ANTHEMS - THE ULTIMATE COLLECTION - CD1\08.The Beautiful South - Perfect 10.wav

Peak level 97.7 %
Extraction speed 28.7 X
Track quality 100.0 %
Copy CRC 9BD03CB5
Accurately ripped (confidence 9) [757DFF35] (AR v2)
Copy OK

Track 9

Filename A:\PsPBuRnOuT's MUSIC\SORTED BY YEAR\2000 PLUS\INDIE ANTHEMS - THE ULTIMATE COLLECTION\INDIE ANTHEMS - THE ULTIMATE COLLECTION - CD1\09.Dodgy - Staying Out For The Summer.wav

Peak level 97.7 %
Extraction speed 27.6 X
Track quality 100.0 %
Copy CRC 31DCF2E3
Accurately ripped (confidence 10) [3CB76CA9] (AR v2)
Copy OK

Track 10

Filename A:\PsPBuRnOuT's MUSIC\SORTED BY YEAR\2000 PLUS\INDIE ANTHEMS - THE ULTIMATE COLLECTION\INDIE ANTHEMS - THE ULTIMATE COLLECTION - CD1\10.Dirty Pretty Things - Bang Bang You're Dead.wav

Peak level 96.6 %
Extraction speed 31.0 X
Track quality 100.0 %
Copy CRC A04B1883
Accurately ripped (confidence 10) [7361B7F2] (AR v2)
Copy OK

Track 11

Filename A:\PsPBuRnOuT's MUSIC\SORTED BY YEAR\2000 PLUS\INDIE ANTHEMS - THE ULTIMATE COLLECTION\INDIE ANTHEMS - THE ULTIMATE COLLECTION - CD1\11.James - Sit Down.wav

Peak level 97.7 %
Extraction speed 32.0 X
Track quality 100.0 %
Copy CRC AFA4A8FA
Accurately ripped (confidence 9) [D4F77BB9] (AR v2)
Copy OK

Track 12

Filename A:\PsPBuRnOuT's MUSIC\SORTED BY YEAR\2000 PLUS\INDIE ANTHEMS - THE ULTIMATE COLLECTION\INDIE ANTHEMS - THE ULTIMATE COLLECTION - CD1\12.Stereophonics - Dakota.wav

Peak level 96.4 %
Extraction speed 31.2 X
Track quality 100.0 %
Copy CRC B4E52727
Accurately ripped (confidence 9) [706C84AE] (AR v2)
Copy OK

Track 13

Filename A:\PsPBuRnOuT's MUSIC\SORTED BY YEAR\2000 PLUS\INDIE ANTHEMS - THE ULTIMATE COLLECTION\INDIE ANTHEMS - THE ULTIMATE COLLECTION - CD1\13.The Magic Numbers - Love Me Like You.wav

Peak level 97.7 %
Extraction speed 31.4 X
Track quality 100.0 %
Copy CRC 6E0BD8F6
Accurately ripped (confidence 9) [D9E65392] (AR v2)
Copy OK

Track 14

Filename A:\PsPBuRnOuT's MUSIC\SORTED BY YEAR\2000 PLUS\INDIE ANTHEMS - THE ULTIMATE COLLECTION\INDIE ANTHEMS - THE ULTIMATE COLLECTION - CD1\14.The Jesus & Mary Chain - Just Like Honey.wav

Peak level 97.7 %
Extraction speed 25.8 X
Track quality 99.8 %
Copy CRC 8681D943
Accurately ripped (confidence 9) [55E100AD] (AR v2)
Copy OK

Track 15

Filename A:\PsPBuRnOuT's MUSIC\SORTED BY YEAR\2000 PLUS\INDIE ANTHEMS - THE ULTIMATE COLLECTION\INDIE ANTHEMS - THE ULTIMATE COLLECTION - CD1\15.Turin Brakes - Painkiller.wav

Peak level 96.6 %
Extraction speed 26.9 X
Track quality 100.0 %
Copy CRC 77D0D310
Accurately ripped (confidence 9) [F6140CE9] (AR v2)
Copy OK

Track 16

Filename A:\PsPBuRnOuT's MUSIC\SORTED BY YEAR\2000 PLUS\INDIE ANTHEMS - THE ULTIMATE COLLECTION\INDIE ANTHEMS - THE ULTIMATE COLLECTION - CD1\16.Noah & The Whale - L.I.F.E.G.O.E.S.O.N..wav

Peak level 95.5 %
Extraction speed 35.2 X
Track quality 100.0 %
Copy CRC 92C1D2B0
Accurately ripped (confidence 9) [467117F6] (AR v2)
Copy OK

Track 17

Filename A:\PsPBuRnOuT's MUSIC\SORTED BY YEAR\2000 PLUS\INDIE ANTHEMS - THE ULTIMATE COLLECTION\INDIE ANTHEMS - THE ULTIMATE COLLECTION - CD1\17.Hoobastank - The Reason.wav

Peak level 93.3 %
Extraction speed 36.4 X
Track quality 100.0 %
Copy CRC 7FFC89C1
Accurately ripped (confidence 9) [9E765F97] (AR v2)
Copy OK

Track 18

Filename A:\PsPBuRnOuT's MUSIC\SORTED BY YEAR\2000 PLUS\INDIE ANTHEMS - THE ULTIMATE COLLECTION\INDIE ANTHEMS - THE ULTIMATE COLLECTION - CD1\18.Of Monsters & Men - Little Talks.wav

Peak level 96.5 %
Extraction speed 36.9 X
Track quality 100.0 %
Copy CRC B44B9974
Accurately ripped (confidence 10) [58C30ABC] (AR v2)
Copy OK

Track 19

Filename A:\PsPBuRnOuT's MUSIC\SORTED BY YEAR\2000 PLUS\INDIE ANTHEMS - THE ULTIMATE COLLECTION\INDIE ANTHEMS - THE ULTIMATE COLLECTION - CD1\19.Kirsty MacColl - You Just Haven't Earned It Yet, Baby.wav

Peak level 97.7 %
Extraction speed 12.1 X
Track quality 99.8 %
Copy CRC 9D526D9F
Accurately ripped (confidence 10) [040CA7E5] (AR v2)
Copy OK

Track 20

Filename A:\PsPBuRnOuT's MUSIC\SORTED BY YEAR\2000 PLUS\INDIE ANTHEMS - THE ULTIMATE COLLECTION\INDIE ANTHEMS - THE ULTIMATE COLLECTION - CD1\20.Amy Macdonald - This Is The Life.wav

Peak level 97.6 %
Extraction speed 8.0 X
Track quality 99.3 %
Copy CRC C1520801
Accurately ripped (confidence 9) [96945E50] (AR v2)
Copy OK


All tracks accurately ripped

No errors occurred

End of status report

–– CUETools DB Plugin V2.1.6

[CTDB TOCID: AyCWYiZdWFPdhhRgUp.daEKkNzU-] found
Submit result: AyCWYiZdWFPdhhRgUp.daEKkNzU- has been confirmed
Track | CTDB Status
1 | (26/26) Accurately ripped
2 | (26/26) Accurately ripped
3 | (26/26) Accurately ripped
4 | (26/26) Accurately ripped
5 | (26/26) Accurately ripped
6 | (26/26) Accurately ripped
7 | (26/26) Accurately ripped
8 | (26/26) Accurately ripped
9 | (26/26) Accurately ripped
10 | (26/26) Accurately ripped
11 | (26/26) Accurately ripped
12 | (26/26) Accurately ripped
13 | (26/26) Accurately ripped
14 | (26/26) Accurately ripped
15 | (26/26) Accurately ripped
16 | (26/26) Accurately ripped
17 | (26/26) Accurately ripped
18 | (26/26) Accurately ripped
19 | (26/26) Accurately ripped
20 | (26/26) Accurately ripped

Exact Audio Copy V1.3 from 2. September 2016

EAC extraction logfile from 7. September 2019, 13:43

Various / Indie Anthems - The Ultimate Collection - CD2

Used drive : ATAPI iHAS124 Y Adapter: 1 ID: 0

Read mode : Secure
Utilize accurate stream : Yes
Defeat audio cache : No
Make use of C2 pointers : Yes

Read offset correction : 48
Overread into Lead-In and Lead-Out : No
Fill up missing offset samples with silence : Yes
Delete leading and trailing silent blocks : No
Null samples used in CRC calculations : Yes
Used interface : Native Win32 interface for Win NT & 2000
Gap handling : Not detected, thus appended to previous track

Used output format : User Defined Encoder
Selected bitrate : 768 kBit/s
Quality : High
Add ID3 tag : No
Command line compressor : C:\Program Files (x86)\Exact Audio Copy\FLAC\FLAC.EXE
Additional command line options : -6 -V -T "ARTIST=%artist%" -T "TITLE=%title%" -T "ALBUM=%albumtitle%" -T "DATE=%year%" -T "TRACKNUMBER=%tracknr%" -T "GENRE=%genre%" -T "COMMENT=%comment%" -T "BAND=%albuminterpret%" -T "ALBUMARTIST=%albuminterpret%" -T "COMPOSER=%composer%" %haslyrics%–tag-from-file=LYRICS="%lyricsfile%"%haslyrics% -T "DISCNUMBER=%cdnumber%" -T "TOTALDISCS=%totalcds%" -T "TOTALTRACKS=%numtracks%" %hascover%–picture="%coverfile%"%hascover% %source% -o %dest%


TOC of the extracted CD

Track | Start | Length | Start sector | End sector
––––––––––––––––––––––––––––-
1 | 0:00.00 | 4:54.07 | 0 | 22056
2 | 4:54.07 | 3:29.21 | 22057 | 37752
3 | 8:23.28 | 4:46.53 | 37753 | 59255
4 | 13:10.06 | 1:34.10 | 59256 | 66315
5 | 14:44.16 | 3:18.32 | 66316 | 81197
6 | 18:02.48 | 3:24.64 | 81198 | 96561
7 | 21:27.37 | 4:09.71 | 96562 | 115307
8 | 25:37.33 | 3:33.69 | 115308 | 131351
9 | 29:11.27 | 2:51.16 | 131352 | 144192
10 | 32:02.43 | 2:38.59 | 144193 | 156101
11 | 34:41.27 | 3:55.24 | 156102 | 173750
12 | 38:36.51 | 2:58.67 | 173751 | 187167
13 | 41:35.43 | 4:23.29 | 187168 | 206921
14 | 45:58.72 | 5:41.19 | 206922 | 232515
15 | 51:40.16 | 3:48.64 | 232516 | 249679
16 | 55:29.05 | 3:45.60 | 249680 | 266614
17 | 59:14.65 | 3:52.73 | 266615 | 284087
18 | 63:07.63 | 3:46.73 | 284088 | 301110
19 | 66:54.61 | 4:09.66 | 301111 | 319851
20 | 71:04.52 | 2:53.69 | 319852 | 332895


Track 1

Filename A:\PsPBuRnOuT's MUSIC\SORTED BY YEAR\2000 PLUS\INDIE ANTHEMS - THE ULTIMATE COLLECTION\INDIE ANTHEMS - THE ULTIMATE COLLECTION - CD2\01.Placebo - Running Up That Hill.wav

Peak level 97.0 %
Extraction speed 9.3 X
Track quality 99.9 %
Copy CRC 4D708D05
Accurately ripped (confidence 8) [E9DA6FAE] (AR v2)
Copy OK

Track 2

Filename A:\PsPBuRnOuT's MUSIC\SORTED BY YEAR\2000 PLUS\INDIE ANTHEMS - THE ULTIMATE COLLECTION\INDIE ANTHEMS - THE ULTIMATE COLLECTION - CD2\02.The Dandy Warhols - Bohemian Like You.wav

Peak level 96.5 %
Extraction speed 10.7 X
Track quality 100.0 %
Copy CRC E1787031
Accurately ripped (confidence 8) [7AC1E2FF] (AR v2)
Copy OK

Track 3

Filename A:\PsPBuRnOuT's MUSIC\SORTED BY YEAR\2000 PLUS\INDIE ANTHEMS - THE ULTIMATE COLLECTION\INDIE ANTHEMS - THE ULTIMATE COLLECTION - CD2\03.Doves - Catch The Sun.wav

Peak level 97.7 %
Extraction speed 11.6 X
Track quality 100.0 %
Copy CRC AB1E53A7
Accurately ripped (confidence 8) [FA325DC7] (AR v2)
Copy OK

Track 4

Filename A:\PsPBuRnOuT's MUSIC\SORTED BY YEAR\2000 PLUS\INDIE ANTHEMS - THE ULTIMATE COLLECTION\INDIE ANTHEMS - THE ULTIMATE COLLECTION - CD2\04.The Vines - Hey.wav

Peak level 92.2 %
Extraction speed 13.4 X
Track quality 100.0 %
Copy CRC 8312D1D7
Accurately ripped (confidence 8) [8DA79116] (AR v2)
Copy OK

Track 5

Filename A:\PsPBuRnOuT's MUSIC\SORTED BY YEAR\2000 PLUS\INDIE ANTHEMS - THE ULTIMATE COLLECTION\INDIE ANTHEMS - THE ULTIMATE COLLECTION - CD2\05.Space - Female Of The Species.wav

Peak level 97.7 %
Extraction speed 12.8 X
Track quality 100.0 %
Copy CRC CFC01F58
Accurately ripped (confidence 7) [78DC0DC9] (AR v2)
Copy OK

Track 6

Filename A:\PsPBuRnOuT's MUSIC\SORTED BY YEAR\2000 PLUS\INDIE ANTHEMS - THE ULTIMATE COLLECTION\INDIE ANTHEMS - THE ULTIMATE COLLECTION - CD2\06.Reverend And The Makers - Shine The Light.wav

Peak level 75.7 %
Extraction speed 13.2 X
Track quality 100.0 %
Copy CRC F9BCDD03
Accurately ripped (confidence 7) [1922A88C] (AR v2)
Copy OK

Track 7

Filename A:\PsPBuRnOuT's MUSIC\SORTED BY YEAR\2000 PLUS\INDIE ANTHEMS - THE ULTIMATE COLLECTION\INDIE ANTHEMS - THE ULTIMATE COLLECTION - CD2\07.The Mock Turtles - Can You Dig It.wav

Peak level 97.7 %
Extraction speed 14.6 X
Track quality 100.0 %
Copy CRC B7F15CCC
Accurately ripped (confidence 8) [375EA128] (AR v2)
Copy OK

Track 8

Filename A:\PsPBuRnOuT's MUSIC\SORTED BY YEAR\2000 PLUS\INDIE ANTHEMS - THE ULTIMATE COLLECTION\INDIE ANTHEMS - THE ULTIMATE COLLECTION - CD2\08.The Fratellis - Chelsea Dagger.wav

Peak level 84.8 %
Extraction speed 15.3 X
Track quality 100.0 %
Copy CRC BA49D5A6
Accurately ripped (confidence 7) [EAFAF43B] (AR v2)
Copy OK

Track 9

Filename A:\PsPBuRnOuT's MUSIC\SORTED BY YEAR\2000 PLUS\INDIE ANTHEMS - THE ULTIMATE COLLECTION\INDIE ANTHEMS - THE ULTIMATE COLLECTION - CD2\09.Idlewild - Readers And Writers.wav

Peak level 90.1 %
Extraction speed 16.0 X
Track quality 100.0 %
Copy CRC B79FEDF7
Accurately ripped (confidence 7) [CB58E135] (AR v2)
Copy OK

Track 10

Filename A:\PsPBuRnOuT's MUSIC\SORTED BY YEAR\2000 PLUS\INDIE ANTHEMS - THE ULTIMATE COLLECTION\INDIE ANTHEMS - THE ULTIMATE COLLECTION - CD2\10.Madness - My Girl.wav

Peak level 97.7 %
Extraction speed 16.5 X
Track quality 100.0 %
Copy CRC E6A5727B
Accurately ripped (confidence 7) [A639D2B9] (AR v2)
Copy OK

Track 11

Filename A:\PsPBuRnOuT's MUSIC\SORTED BY YEAR\2000 PLUS\INDIE ANTHEMS - THE ULTIMATE COLLECTION\INDIE ANTHEMS - THE ULTIMATE COLLECTION - CD2\11.Ocean Colour Scene - Hundred Mile High City.wav

Peak level 95.5 %
Extraction speed 16.7 X
Track quality 100.0 %
Copy CRC 3C875560
Accurately ripped (confidence 8) [E137CD9A] (AR v2)
Copy OK

Track 12

Filename A:\PsPBuRnOuT's MUSIC\SORTED BY YEAR\2000 PLUS\INDIE ANTHEMS - THE ULTIMATE COLLECTION\INDIE ANTHEMS - THE ULTIMATE COLLECTION - CD2\12.The Libertines - Don't Look Back Into The Sun.wav

Peak level 97.7 %
Extraction speed 17.4 X
Track quality 100.0 %
Copy CRC 936DA653
Accurately ripped (confidence 8) [F10109DF] (AR v2)
Copy OK

Track 13

Filename A:\PsPBuRnOuT's MUSIC\SORTED BY YEAR\2000 PLUS\INDIE ANTHEMS - THE ULTIMATE COLLECTION\INDIE ANTHEMS - THE ULTIMATE COLLECTION - CD2\13.Shed Seven - Chasing Rainbows.wav

Peak level 94.1 %
Extraction speed 17.2 X
Track quality 100.0 %
Copy CRC FFD2E3E7
Accurately ripped (confidence 7) [B2EDEE4F] (AR v2)
Copy OK

Track 14

Filename A:\PsPBuRnOuT's MUSIC\SORTED BY YEAR\2000 PLUS\INDIE ANTHEMS - THE ULTIMATE COLLECTION\INDIE ANTHEMS - THE ULTIMATE COLLECTION - CD2\14.The Farm - Altogether Now.wav

Peak level 93.3 %
Extraction speed 17.8 X
Track quality 100.0 %
Copy CRC 864B2528
Accurately ripped (confidence 7) [A53B66FC] (AR v2)
Copy OK

Track 15

Filename A:\PsPBuRnOuT's MUSIC\SORTED BY YEAR\2000 PLUS\INDIE ANTHEMS - THE ULTIMATE COLLECTION\INDIE ANTHEMS - THE ULTIMATE COLLECTION - CD2\15.The Soup Dragons - I'm Free.wav

Peak level 97.7 %
Extraction speed 19.2 X
Track quality 100.0 %
Copy CRC E3922B01
Accurately ripped (confidence 8) [B6086DB7] (AR v2)
Copy OK

Track 16

Filename A:\PsPBuRnOuT's MUSIC\SORTED BY YEAR\2000 PLUS\INDIE ANTHEMS - THE ULTIMATE COLLECTION\INDIE ANTHEMS - THE ULTIMATE COLLECTION - CD2\16.Stereo MC's - Connected.wav

Peak level 97.7 %
Extraction speed 19.1 X
Track quality 100.0 %
Copy CRC 440AD864
Accurately ripped (confidence 7) [4EAD1303] (AR v2)
Copy OK

Track 17

Filename A:\PsPBuRnOuT's MUSIC\SORTED BY YEAR\2000 PLUS\INDIE ANTHEMS - THE ULTIMATE COLLECTION\INDIE ANTHEMS - THE ULTIMATE COLLECTION - CD2\17.Sneaker Pimps - Six Underground.wav

Peak level 97.7 %
Extraction speed 20.2 X
Track quality 100.0 %
Copy CRC 3BDF3D37
Accurately ripped (confidence 8) [202BA75D] (AR v2)
Copy OK

Track 18

Filename A:\PsPBuRnOuT's MUSIC\SORTED BY YEAR\2000 PLUS\INDIE ANTHEMS - THE ULTIMATE COLLECTION\INDIE ANTHEMS - THE ULTIMATE COLLECTION - CD2\18.Fatboy Slim - Praise You.wav

Peak level 97.7 %
Extraction speed 20.6 X
Track quality 100.0 %
Copy CRC 2C10997E
Accurately ripped (confidence 8) [86FB4B55] (AR v2)
Copy OK

Track 19

Filename A:\PsPBuRnOuT's MUSIC\SORTED BY YEAR\2000 PLUS\INDIE ANTHEMS - THE ULTIMATE COLLECTION\INDIE ANTHEMS - THE ULTIMATE COLLECTION - CD2\19.Razorlight - America.wav

Peak level 84.1 %
Extraction speed 21.2 X
Track quality 100.0 %
Copy CRC 3A0F5C3C
Accurately ripped (confidence 6) [33CD1BC2] (AR v2)
Copy OK

Track 20

Filename A:\PsPBuRnOuT's MUSIC\SORTED BY YEAR\2000 PLUS\INDIE ANTHEMS - THE ULTIMATE COLLECTION\INDIE ANTHEMS - THE ULTIMATE COLLECTION - CD2\20.Richard Hawley - Baby, You're My Light.wav

Peak level 97.7 %
Extraction speed 20.8 X
Track quality 100.0 %
Copy CRC FA6E12DC
Accurately ripped (confidence 7) [86D3CC7B] (AR v2)
Copy OK


All tracks accurately ripped

No errors occurred

End of status report

–– CUETools DB Plugin V2.1.6

[CTDB TOCID: liSvcc.Sd_OqVhpGGh2k2m0leUg-] found
Submit result: liSvcc.Sd_OqVhpGGh2k2m0leUg- has been confirmed
Track | CTDB Status
1 | (24/24) Accurately ripped
2 | (24/24) Accurately ripped
3 | (24/24) Accurately ripped
4 | (24/24) Accurately ripped
5 | (24/24) Accurately ripped
6 | (24/24) Accurately ripped
7 | (24/24) Accurately ripped
8 | (24/24) Accurately ripped
9 | (24/24) Accurately ripped
10 | (24/24) Accurately ripped
11 | (24/24) Accurately ripped
12 | (24/24) Accurately ripped
13 | (24/24) Accurately ripped
14 | (24/24) Accurately ripped
15 | (24/24) Accurately ripped
16 | (24/24) Accurately ripped
17 | (24/24) Accurately ripped
18 | (24/24) Accurately ripped
19 | (24/24) Accurately ripped
20 | (24/24) Accurately ripped

Exact Audio Copy V1.3 from 2. September 2016

EAC extraction logfile from 7. September 2019, 14:17

Various / Indie Anthems - The Ultimate Collection - CD3

Used drive : ATAPI iHAS124 Y Adapter: 1 ID: 0

Read mode : Secure
Utilize accurate stream : Yes
Defeat audio cache : No
Make use of C2 pointers : Yes

Read offset correction : 48
Overread into Lead-In and Lead-Out : No
Fill up missing offset samples with silence : Yes
Delete leading and trailing silent blocks : No
Null samples used in CRC calculations : Yes
Used interface : Native Win32 interface for Win NT & 2000
Gap handling : Not detected, thus appended to previous track

Used output format : User Defined Encoder
Selected bitrate : 768 kBit/s
Quality : High
Add ID3 tag : No
Command line compressor : C:\Program Files (x86)\Exact Audio Copy\FLAC\FLAC.EXE
Additional command line options : -6 -V -T "ARTIST=%artist%" -T "TITLE=%title%" -T "ALBUM=%albumtitle%" -T "DATE=%year%" -T "TRACKNUMBER=%tracknr%" -T "GENRE=%genre%" -T "COMMENT=%comment%" -T "BAND=%albuminterpret%" -T "ALBUMARTIST=%albuminterpret%" -T "COMPOSER=%composer%" %haslyrics%–tag-from-file=LYRICS="%lyricsfile%"%haslyrics% -T "DISCNUMBER=%cdnumber%" -T "TOTALDISCS=%totalcds%" -T "TOTALTRACKS=%numtracks%" %hascover%–picture="%coverfile%"%hascover% %source% -o %dest%


TOC of the extracted CD

Track | Start | Length | Start sector | End sector
––––––––––––––––––––––––––––-
1 | 0:00.00 | 3:32.41 | 0 | 15940
2 | 3:32.41 | 3:02.26 | 15941 | 29616
3 | 6:34.67 | 2:58.40 | 29617 | 43006
4 | 9:33.32 | 3:34.08 | 43007 | 59064
5 | 13:07.40 | 2:55.10 | 59065 | 72199
6 | 16:02.50 | 4:06.35 | 72200 | 90684
7 | 20:09.10 | 2:37.50 | 90685 | 102509
8 | 22:46.60 | 3:24.53 | 102510 | 117862
9 | 26:11.38 | 4:01.57 | 117863 | 135994
10 | 30:13.20 | 3:25.40 | 135995 | 151409
11 | 33:38.60 | 3:44.29 | 151410 | 168238
12 | 37:23.14 | 5:22.43 | 168239 | 192431
13 | 42:45.57 | 4:15.72 | 192432 | 211628
14 | 47:01.54 | 3:56.40 | 211629 | 229368
15 | 50:58.19 | 4:52.53 | 229369 | 251321
16 | 55:50.72 | 4:11.15 | 251322 | 270161
17 | 60:02.12 | 3:51.13 | 270162 | 287499
18 | 63:53.25 | 2:41.32 | 287500 | 299606
19 | 66:34.57 | 3:43.29 | 299607 | 316360
20 | 70:18.11 | 2:35.41 | 316361 | 328026


Track 1

Filename A:\PsPBuRnOuT's MUSIC\SORTED BY YEAR\2000 PLUS\INDIE ANTHEMS - THE ULTIMATE COLLECTION\INDIE ANTHEMS - THE ULTIMATE COLLECTION - CD3\01.Amy Winehouse - Rehab.wav

Peak level 97.7 %
Extraction speed 11.8 X
Track quality 99.9 %
Copy CRC AF7AC990
Accurately ripped (confidence 7) [FB2A770A] (AR v2)
Copy OK

Track 2

Filename A:\PsPBuRnOuT's MUSIC\SORTED BY YEAR\2000 PLUS\INDIE ANTHEMS - THE ULTIMATE COLLECTION\INDIE ANTHEMS - THE ULTIMATE COLLECTION - CD3\02.Madness - Embarrassment.wav

Peak level 95.5 %
Extraction speed 15.9 X
Track quality 100.0 %
Copy CRC 035DDA1E
Accurately ripped (confidence 8) [E569841A] (AR v2)
Copy OK

Track 3

Filename A:\PsPBuRnOuT's MUSIC\SORTED BY YEAR\2000 PLUS\INDIE ANTHEMS - THE ULTIMATE COLLECTION\INDIE ANTHEMS - THE ULTIMATE COLLECTION - CD3\03.Space - Avenging Angels.wav

Peak level 97.7 %
Extraction speed 22.4 X
Track quality 100.0 %
Copy CRC E523EA59
Accurately ripped (confidence 7) [CF4FAF4E] (AR v2)
Copy OK

Track 4

Filename A:\PsPBuRnOuT's MUSIC\SORTED BY YEAR\2000 PLUS\INDIE ANTHEMS - THE ULTIMATE COLLECTION\INDIE ANTHEMS - THE ULTIMATE COLLECTION - CD3\04.Placebo - Every You, Every Me.wav

Peak level 95.7 %
Extraction speed 22.5 X
Track quality 100.0 %
Copy CRC 64BA0B94
Accurately ripped (confidence 8) [DF369C54] (AR v2)
Copy OK

Track 5

Filename A:\PsPBuRnOuT's MUSIC\SORTED BY YEAR\2000 PLUS\INDIE ANTHEMS - THE ULTIMATE COLLECTION\INDIE ANTHEMS - THE ULTIMATE COLLECTION - CD3\05.Kula Shaker - Hush.wav

Peak level 94.4 %
Extraction speed 23.8 X
Track quality 100.0 %
Copy CRC 750842F8
Accurately ripped (confidence 7) [904577AA] (AR v2)
Copy OK

Track 6

Filename A:\PsPBuRnOuT's MUSIC\SORTED BY YEAR\2000 PLUS\INDIE ANTHEMS - THE ULTIMATE COLLECTION\INDIE ANTHEMS - THE ULTIMATE COLLECTION - CD3\06.Pulp - Common People.wav

Peak level 97.7 %
Extraction speed 26.3 X
Track quality 100.0 %
Copy CRC 8452884E
Accurately ripped (confidence 7) [72614DC6] (AR v2)
Copy OK

Track 7

Filename A:\PsPBuRnOuT's MUSIC\SORTED BY YEAR\2000 PLUS\INDIE ANTHEMS - THE ULTIMATE COLLECTION\INDIE ANTHEMS - THE ULTIMATE COLLECTION - CD3\07.Klaxons - Gravity's Rainbow.wav

Peak level 92.2 %
Extraction speed 26.0 X
Track quality 100.0 %
Copy CRC 15955520
Accurately ripped (confidence 7) [ADDB6A9B] (AR v2)
Copy OK

Track 8

Filename A:\PsPBuRnOuT's MUSIC\SORTED BY YEAR\2000 PLUS\INDIE ANTHEMS - THE ULTIMATE COLLECTION\INDIE ANTHEMS - THE ULTIMATE COLLECTION - CD3\08.Reverend And The Makers - Heavyweight Champion Of The World.wav

Peak level 97.7 %
Extraction speed 28.5 X
Track quality 100.0 %
Copy CRC CEF19ECE
Accurately ripped (confidence 7) [8EFDF482] (AR v2)
Copy OK

Track 9

Filename A:\PsPBuRnOuT's MUSIC\SORTED BY YEAR\2000 PLUS\INDIE ANTHEMS - THE ULTIMATE COLLECTION\INDIE ANTHEMS - THE ULTIMATE COLLECTION - CD3\09.Guillemots - Trains To Brazil.wav

Peak level 95.2 %
Extraction speed 28.6 X
Track quality 100.0 %
Copy CRC A04A6EB6
Accurately ripped (confidence 8) [5E27E4AC] (AR v2)
Copy OK

Track 10

Filename A:\PsPBuRnOuT's MUSIC\SORTED BY YEAR\2000 PLUS\INDIE ANTHEMS - THE ULTIMATE COLLECTION\INDIE ANTHEMS - THE ULTIMATE COLLECTION - CD3\10.Nerina Pallot - I Don't Want To Go Out.wav

Peak level 85.1 %
Extraction speed 24.9 X
Track quality 99.8 %
Copy CRC 25CEB5C2
Accurately ripped (confidence 7) [D5882CF4] (AR v2)
Copy OK

Track 11

Filename A:\PsPBuRnOuT's MUSIC\SORTED BY YEAR\2000 PLUS\INDIE ANTHEMS - THE ULTIMATE COLLECTION\INDIE ANTHEMS - THE ULTIMATE COLLECTION - CD3\11.Kubb - Wicked Soul.wav

Peak level 93.4 %
Extraction speed 25.6 X
Track quality 100.0 %
Copy CRC 95BDD6D0
Accurately ripped (confidence 7) [AED9FEB2] (AR v2)
Copy OK

Track 12

Filename A:\PsPBuRnOuT's MUSIC\SORTED BY YEAR\2000 PLUS\INDIE ANTHEMS - THE ULTIMATE COLLECTION\INDIE ANTHEMS - THE ULTIMATE COLLECTION - CD3\12.Gene - Olympian.wav

Peak level 97.7 %
Extraction speed 33.2 X
Track quality 100.0 %
Copy CRC 0287CF89
Accurately ripped (confidence 8) [39643B1D] (AR v2)
Copy OK

Track 13

Filename A:\PsPBuRnOuT's MUSIC\SORTED BY YEAR\2000 PLUS\INDIE ANTHEMS - THE ULTIMATE COLLECTION\INDIE ANTHEMS - THE ULTIMATE COLLECTION - CD3\13.Dodgy - In A Room.wav

Peak level 97.7 %
Extraction speed 34.6 X
Track quality 100.0 %
Copy CRC 8EAF784F
Accurately ripped (confidence 8) [7278E51B] (AR v2)
Copy OK

Track 14

Filename A:\PsPBuRnOuT's MUSIC\SORTED BY YEAR\2000 PLUS\INDIE ANTHEMS - THE ULTIMATE COLLECTION\INDIE ANTHEMS - THE ULTIMATE COLLECTION - CD3\14.Meredith Brooks - Bitch.wav

Peak level 96.5 %
Extraction speed 35.8 X
Track quality 100.0 %
Copy CRC 0025A4CA
Accurately ripped (confidence 8) [3BAE7F84] (AR v2)
Copy OK

Track 15

Filename A:\PsPBuRnOuT's MUSIC\SORTED BY YEAR\2000 PLUS\INDIE ANTHEMS - THE ULTIMATE COLLECTION\INDIE ANTHEMS - THE ULTIMATE COLLECTION - CD3\15.Faith No More - Epic.wav

Peak level 97.7 %
Extraction speed 35.4 X
Track quality 100.0 %
Copy CRC 094F426E
Accurately ripped (confidence 7) [F1A58673] (AR v2)
Copy OK

Track 16

Filename A:\PsPBuRnOuT's MUSIC\SORTED BY YEAR\2000 PLUS\INDIE ANTHEMS - THE ULTIMATE COLLECTION\INDIE ANTHEMS - THE ULTIMATE COLLECTION - CD3\16.Catatonia - Mulder And Scully.wav

Peak level 97.7 %
Extraction speed 38.2 X
Track quality 100.0 %
Copy CRC 722CA452
Accurately ripped (confidence 8) [D3BA5292] (AR v2)
Copy OK

Track 17

Filename A:\PsPBuRnOuT's MUSIC\SORTED BY YEAR\2000 PLUS\INDIE ANTHEMS - THE ULTIMATE COLLECTION\INDIE ANTHEMS - THE ULTIMATE COLLECTION - CD3\17.Jet - Look What You've Done.wav

Peak level 82.9 %
Extraction speed 39.1 X
Track quality 100.0 %
Copy CRC C33C735A
Accurately ripped (confidence 7) [82E0F553] (AR v2)
Copy OK

Track 18

Filename A:\PsPBuRnOuT's MUSIC\SORTED BY YEAR\2000 PLUS\INDIE ANTHEMS - THE ULTIMATE COLLECTION\INDIE ANTHEMS - THE ULTIMATE COLLECTION - CD3\18.The LA's - There She Goes.wav

Peak level 97.7 %
Extraction speed 37.3 X
Track quality 100.0 %
Copy CRC 8196A306
Accurately ripped (confidence 7) [F9B9A6C1] (AR v2)
Copy OK

Track 19

Filename A:\PsPBuRnOuT's MUSIC\SORTED BY YEAR\2000 PLUS\INDIE ANTHEMS - THE ULTIMATE COLLECTION\INDIE ANTHEMS - THE ULTIMATE COLLECTION - CD3\19.The Feeling - Sewn.wav

Peak level 87.0 %
Extraction speed 29.0 X
Track quality 99.9 %
Copy CRC E0DC4CC8
Accurately ripped (confidence 7) [BD6D3AC2] (AR v2)
Copy OK

Track 20

Filename A:\PsPBuRnOuT's MUSIC\SORTED BY YEAR\2000 PLUS\INDIE ANTHEMS - THE ULTIMATE COLLECTION\INDIE ANTHEMS - THE ULTIMATE COLLECTION - CD3\20.Troggs - Wild Thing.wav

Peak level 97.7 %
Extraction speed 27.5 X
Track quality 100.0 %
Copy CRC 65AD4B92
Accurately ripped (confidence 7) [EF35DF8A] (AR v2)
Copy OK


All tracks accurately ripped

No errors occurred

End of status report

–– CUETools DB Plugin V2.1.6

[CTDB TOCID: MnT13f3swPGbXDIPe7ratQ9mdsQ-] found
Submit result: MnT13f3swPGbXDIPe7ratQ9mdsQ- has been confirmed
Track | CTDB Status
1 | (24/24) Accurately ripped
2 | (24/24) Accurately ripped
3 | (24/24) Accurately ripped
4 | (24/24) Accurately ripped
5 | (24/24) Accurately ripped
6 | (24/24) Accurately ripped
7 | (24/24) Accurately ripped
8 | (24/24) Accurately ripped
9 | (24/24) Accurately ripped
10 | (24/24) Accurately ripped
11 | (23/24) Accurately ripped
12 | (23/24) Accurately ripped
13 | (23/24) Accurately ripped
14 | (23/24) Accurately ripped
15 | (23/24) Accurately ripped
16 | (23/24) Accurately ripped
17 | (23/24) Accurately ripped
18 | (23/24) Accurately ripped
19 | (23/24) Accurately ripped
20 | (23/24) Accurately ripped

Exact Audio Copy V1.3 from 2. September 2016

EAC extraction logfile from 8. September 2019, 0:18

Various / Indie Anthems - The Ultimate Collection - CD4

Used drive : ATAPI iHAS124 Y Adapter: 1 ID: 0

Read mode : Secure
Utilize accurate stream : Yes
Defeat audio cache : No
Make use of C2 pointers : Yes

Read offset correction : 48
Overread into Lead-In and Lead-Out : No
Fill up missing offset samples with silence : Yes
Delete leading and trailing silent blocks : No
Null samples used in CRC calculations : Yes
Used interface : Native Win32 interface for Win NT & 2000
Gap handling : Not detected, thus appended to previous track

Used output format : User Defined Encoder
Selected bitrate : 768 kBit/s
Quality : High
Add ID3 tag : No
Command line compressor : C:\Program Files (x86)\Exact Audio Copy\FLAC\FLAC.EXE
Additional command line options : -6 -V -T "ARTIST=%artist%" -T "TITLE=%title%" -T "ALBUM=%albumtitle%" -T "DATE=%year%" -T "TRACKNUMBER=%tracknr%" -T "GENRE=%genre%" -T "COMMENT=%comment%" -T "BAND=%albuminterpret%" -T "ALBUMARTIST=%albuminterpret%" -T "COMPOSER=%composer%" %haslyrics%–tag-from-file=LYRICS="%lyricsfile%"%haslyrics% -T "DISCNUMBER=%cdnumber%" -T "TOTALDISCS=%totalcds%" -T "TOTALTRACKS=%numtracks%" %hascover%–picture="%coverfile%"%hascover% %source% -o %dest%


TOC of the extracted CD

Track | Start | Length | Start sector | End sector
––––––––––––––––––––––––––––-
1 | 0:00.00 | 3:15.34 | 0 | 14658
2 | 3:15.34 | 4:39.69 | 14659 | 35652
3 | 7:55.28 | 2:39.73 | 35653 | 47650
4 | 10:35.26 | 3:38.43 | 47651 | 64043
5 | 14:13.69 | 2:28.26 | 64044 | 75169
6 | 16:42.20 | 3:54.14 | 75170 | 92733
7 | 20:36.34 | 4:22.15 | 92734 | 112398
8 | 24:58.49 | 3:17.33 | 112399 | 127206
9 | 28:16.07 | 3:40.31 | 127207 | 143737
10 | 31:56.38 | 3:16.04 | 143738 | 158441
11 | 35:12.42 | 2:47.60 | 158442 | 171026
12 | 38:00.27 | 3:18.52 | 171027 | 185928
13 | 41:19.04 | 4:15.43 | 185929 | 205096
14 | 45:34.47 | 3:37.42 | 205097 | 221413
15 | 49:12.14 | 2:25.48 | 221414 | 232336
16 | 51:37.62 | 3:30.03 | 232337 | 248089
17 | 55:07.65 | 2:51.11 | 248090 | 260925
18 | 57:59.01 | 3:10.59 | 260926 | 275234
19 | 61:09.60 | 2:55.23 | 275235 | 288382
20 | 64:05.08 | 3:12.50 | 288383 | 302832


Track 1

Filename A:\PsPBuRnOuT's MUSIC\SORTED BY YEAR\2000 PLUS\INDIE ANTHEMS - THE ULTIMATE COLLECTION\INDIE ANTHEMS - THE ULTIMATE COLLECTION - CD4\01.We Are Scientists - Nobody Move, Nobody Gets Hurt.wav

Peak level 91.2 %
Extraction speed 14.3 X
Track quality 100.0 %
Copy CRC B6B242CC
Accurately ripped (confidence 8) [43065EC5] (AR v2)
Copy OK

Track 2

Filename A:\PsPBuRnOuT's MUSIC\SORTED BY YEAR\2000 PLUS\INDIE ANTHEMS - THE ULTIMATE COLLECTION\INDIE ANTHEMS - THE ULTIMATE COLLECTION - CD4\02.Queens Of The Stone Age - No One Knows.wav

Peak level 97.1 %
Extraction speed 21.1 X
Track quality 100.0 %
Copy CRC DD6DBE26
Accurately ripped (confidence 8) [B59A724C] (AR v2)
Copy OK

Track 3

Filename A:\PsPBuRnOuT's MUSIC\SORTED BY YEAR\2000 PLUS\INDIE ANTHEMS - THE ULTIMATE COLLECTION\INDIE ANTHEMS - THE ULTIMATE COLLECTION - CD4\03.The Datsuns - Cry Crybaby.wav

Peak level 87.0 %
Extraction speed 18.1 X
Track quality 99.8 %
Copy CRC A313096D
Accurately ripped (confidence 8) [B55C7BE9] (AR v2)
Copy OK

Track 4

Filename A:\PsPBuRnOuT's MUSIC\SORTED BY YEAR\2000 PLUS\INDIE ANTHEMS - THE ULTIMATE COLLECTION\INDIE ANTHEMS - THE ULTIMATE COLLECTION - CD4\04.The Automatic - Monster.wav

Peak level 92.2 %
Extraction speed 16.1 X
Track quality 99.9 %
Copy CRC 0FEAAB84
Accurately ripped (confidence 8) [A492B70B] (AR v2)
Copy OK

Track 5

Filename A:\PsPBuRnOuT's MUSIC\SORTED BY YEAR\2000 PLUS\INDIE ANTHEMS - THE ULTIMATE COLLECTION\INDIE ANTHEMS - THE ULTIMATE COLLECTION - CD4\05.The Wonder Stuff - A Wish Away.wav

Peak level 88.1 %
Extraction speed 18.5 X
Track quality 100.0 %
Copy CRC 16AF9BA4
Accurately ripped (confidence 8) [14108511] (AR v2)
Copy OK

Track 6

Filename A:\PsPBuRnOuT's MUSIC\SORTED BY YEAR\2000 PLUS\INDIE ANTHEMS - THE ULTIMATE COLLECTION\INDIE ANTHEMS - THE ULTIMATE COLLECTION - CD4\06.L7 - Pretend We're Dead.wav

Peak level 97.7 %
Extraction speed 25.3 X
Track quality 100.0 %
Copy CRC 69508BE0
Accurately ripped (confidence 8) [1AE0296B] (AR v2)
Copy OK

Track 7

Filename A:\PsPBuRnOuT's MUSIC\SORTED BY YEAR\2000 PLUS\INDIE ANTHEMS - THE ULTIMATE COLLECTION\INDIE ANTHEMS - THE ULTIMATE COLLECTION - CD4\07.Longpigs - She Said.wav

Peak level 95.5 %
Extraction speed 26.7 X
Track quality 100.0 %
Copy CRC 67FDF080
Accurately ripped (confidence 8) [F14856C3] (AR v2)
Copy OK

Track 8

Filename A:\PsPBuRnOuT's MUSIC\SORTED BY YEAR\2000 PLUS\INDIE ANTHEMS - THE ULTIMATE COLLECTION\INDIE ANTHEMS - THE ULTIMATE COLLECTION - CD4\08.Bowling For Soup - Girl All The Bad Guys Want.wav

Peak level 95.5 %
Extraction speed 28.0 X
Track quality 100.0 %
Copy CRC 26D24B36
Accurately ripped (confidence 8) [7B423A52] (AR v2)
Copy OK

Track 9

Filename A:\PsPBuRnOuT's MUSIC\SORTED BY YEAR\2000 PLUS\INDIE ANTHEMS - THE ULTIMATE COLLECTION\INDIE ANTHEMS - THE ULTIMATE COLLECTION - CD4\09.New Found Glory - My Friends Over You.wav

Peak level 96.7 %
Extraction speed 29.1 X
Track quality 100.0 %
Copy CRC ABEBC032
Accurately ripped (confidence 8) [27CE4EF7] (AR v2)
Copy OK

Track 10

Filename A:\PsPBuRnOuT's MUSIC\SORTED BY YEAR\2000 PLUS\INDIE ANTHEMS - THE ULTIMATE COLLECTION\INDIE ANTHEMS - THE ULTIMATE COLLECTION - CD4\10.OK Go - Get Over It.wav

Peak level 94.6 %
Extraction speed 31.6 X
Track quality 100.0 %
Copy CRC 195C36E8
Accurately ripped (confidence 8) [B6274986] (AR v2)
Copy OK

Track 11

Filename A:\PsPBuRnOuT's MUSIC\SORTED BY YEAR\2000 PLUS\INDIE ANTHEMS - THE ULTIMATE COLLECTION\INDIE ANTHEMS - THE ULTIMATE COLLECTION - CD4\11.Blink 182 - All The Small Things.wav

Peak level 90.6 %
Extraction speed 30.8 X
Track quality 100.0 %
Copy CRC 967B8092
Accurately ripped (confidence 8) [2D93C5AA] (AR v2)
Copy OK

Track 12

Filename A:\PsPBuRnOuT's MUSIC\SORTED BY YEAR\2000 PLUS\INDIE ANTHEMS - THE ULTIMATE COLLECTION\INDIE ANTHEMS - THE ULTIMATE COLLECTION - CD4\12.Smash Mouth - All Star.wav

Peak level 97.7 %
Extraction speed 31.7 X
Track quality 100.0 %
Copy CRC 4022C3FA
Accurately ripped (confidence 7) [EC320152] (AR v2)
Copy OK

Track 13

Filename A:\PsPBuRnOuT's MUSIC\SORTED BY YEAR\2000 PLUS\INDIE ANTHEMS - THE ULTIMATE COLLECTION\INDIE ANTHEMS - THE ULTIMATE COLLECTION - CD4\13.OPM - Heaven Is A Halfpipe (If I Die).wav

Peak level 97.7 %
Extraction speed 28.0 X
Track quality 99.9 %
Copy CRC DB66A2FF
Accurately ripped (confidence 7) [C8E7F9BC] (AR v2)
Copy OK

Track 14

Filename A:\PsPBuRnOuT's MUSIC\SORTED BY YEAR\2000 PLUS\INDIE ANTHEMS - THE ULTIMATE COLLECTION\INDIE ANTHEMS - THE ULTIMATE COLLECTION - CD4\14.Bloodhound Gang - The Bad Touch.wav

Peak level 97.7 %
Extraction speed 25.9 X
Track quality 100.0 %
Copy CRC 9B2A3B94
Accurately ripped (confidence 8) [28DE8EE2] (AR v2)
Copy OK

Track 15

Filename A:\PsPBuRnOuT's MUSIC\SORTED BY YEAR\2000 PLUS\INDIE ANTHEMS - THE ULTIMATE COLLECTION\INDIE ANTHEMS - THE ULTIMATE COLLECTION - CD4\15.The Undertones - Teenage Kicks.wav

Peak level 97.1 %
Extraction speed 25.8 X
Track quality 99.8 %
Copy CRC 4354A855
Accurately ripped (confidence 8) [E1F3D5D6] (AR v2)
Copy OK

Track 16

Filename A:\PsPBuRnOuT's MUSIC\SORTED BY YEAR\2000 PLUS\INDIE ANTHEMS - THE ULTIMATE COLLECTION\INDIE ANTHEMS - THE ULTIMATE COLLECTION - CD4\16.Palma Violets - Best Of Friends.wav

Peak level 88.9 %
Extraction speed 27.6 X
Track quality 100.0 %
Copy CRC 547751C2
Accurately ripped (confidence 8) [40B619BC] (AR v2)
Copy OK

Track 17

Filename A:\PsPBuRnOuT's MUSIC\SORTED BY YEAR\2000 PLUS\INDIE ANTHEMS - THE ULTIMATE COLLECTION\INDIE ANTHEMS - THE ULTIMATE COLLECTION - CD4\17.Wreckless Eric - Whole Wide World.wav

Peak level 95.5 %
Extraction speed 27.7 X
Track quality 99.8 %
Copy CRC 2A0BAB0C
Accurately ripped (confidence 8) [AF0366DD] (AR v2)
Copy OK

Track 18

Filename A:\PsPBuRnOuT's MUSIC\SORTED BY YEAR\2000 PLUS\INDIE ANTHEMS - THE ULTIMATE COLLECTION\INDIE ANTHEMS - THE ULTIMATE COLLECTION - CD4\18.The Cribs - Hey Scenesters!.wav

Peak level 93.3 %
Extraction speed 26.6 X
Track quality 100.0 %
Copy CRC 57FB897F
Accurately ripped (confidence 8) [9DDF2623] (AR v2)
Copy OK

Track 19

Filename A:\PsPBuRnOuT's MUSIC\SORTED BY YEAR\2000 PLUS\INDIE ANTHEMS - THE ULTIMATE COLLECTION\INDIE ANTHEMS - THE ULTIMATE COLLECTION - CD4\19.Tenpole Tudor - Swords Of A Thousand Men.wav

Peak level 97.7 %
Extraction speed 39.6 X
Track quality 100.0 %
Copy CRC B3E21235
Accurately ripped (confidence 7) [374614F4] (AR v2)
Copy OK

Track 20

Filename A:\PsPBuRnOuT's MUSIC\SORTED BY YEAR\2000 PLUS\INDIE ANTHEMS - THE ULTIMATE COLLECTION\INDIE ANTHEMS - THE ULTIMATE COLLECTION - CD4\20.The Enemy - Saturday.wav

Peak level 85.0 %
Extraction speed 37.8 X
Track quality 100.0 %
Copy CRC 00F5A3AB
Accurately ripped (confidence 8) [45A59868] (AR v2)
Copy OK


All tracks accurately ripped

No errors occurred

End of status report

–– CUETools DB Plugin V2.1.6

[CTDB TOCID: tqTZmaqJKtQHbEDehyeY7gFuIYg-] found
Submit result: tqTZmaqJKtQHbEDehyeY7gFuIYg- has been confirmed
Track | CTDB Status
1 | (26/27) Accurately ripped
2 | (27/27) Accurately ripped
3 | (27/27) Accurately ripped
4 | (27/27) Accurately ripped
5 | (27/27) Accurately ripped
6 | (27/27) Accurately ripped
7 | (27/27) Accurately ripped
8 | (27/27) Accurately ripped
9 | (27/27) Accurately ripped
10 | (27/27) Accurately ripped
11 | (27/27) Accurately ripped
12 | (27/27) Accurately ripped
13 | (27/27) Accurately ripped
14 | (27/27) Accurately ripped
15 | (27/27) Accurately ripped
16 | (27/27) Accurately ripped
17 | (27/27) Accurately ripped
18 | (27/27) Accurately ripped
19 | (26/27) Accurately ripped
20 | (26/27) Accurately ripped

Exact Audio Copy V1.3 from 2. September 2016

EAC extraction logfile from 8. September 2019, 0:44

Various / Indie Anthems - The Ultimate Collection - CD5

Used drive : ATAPI iHAS124 Y Adapter: 1 ID: 0

Read mode : Secure
Utilize accurate stream : Yes
Defeat audio cache : No
Make use of C2 pointers : Yes

Read offset correction : 48
Overread into Lead-In and Lead-Out : No
Fill up missing offset samples with silence : Yes
Delete leading and trailing silent blocks : No
Null samples used in CRC calculations : Yes
Used interface : Native Win32 interface for Win NT & 2000
Gap handling : Not detected, thus appended to previous track

Used output format : User Defined Encoder
Selected bitrate : 768 kBit/s
Quality : High
Add ID3 tag : No
Command line compressor : C:\Program Files (x86)\Exact Audio Copy\FLAC\FLAC.EXE
Additional command line options : -6 -V -T "ARTIST=%artist%" -T "TITLE=%title%" -T "ALBUM=%albumtitle%" -T "DATE=%year%" -T "TRACKNUMBER=%tracknr%" -T "GENRE=%genre%" -T "COMMENT=%comment%" -T "BAND=%albuminterpret%" -T "ALBUMARTIST=%albuminterpret%" -T "COMPOSER=%composer%" %haslyrics%–tag-from-file=LYRICS="%lyricsfile%"%haslyrics% -T "DISCNUMBER=%cdnumber%" -T "TOTALDISCS=%totalcds%" -T "TOTALTRACKS=%numtracks%" %hascover%–picture="%coverfile%"%hascover% %source% -o %dest%


TOC of the extracted CD

Track | Start | Length | Start sector | End sector
––––––––––––––––––––––––––––-
1 | 0:00.00 | 2:50.30 | 0 | 12779
2 | 2:50.30 | 3:04.25 | 12780 | 26604
3 | 5:54.55 | 4:19.21 | 26605 | 46050
4 | 10:14.01 | 5:05.61 | 46051 | 68986
5 | 15:19.62 | 3:03.53 | 68987 | 82764
6 | 18:23.40 | 3:19.44 | 82765 | 97733
7 | 21:43.09 | 3:26.14 | 97734 | 113197
8 | 25:09.23 | 3:23.52 | 113198 | 128474
9 | 28:33.00 | 3:23.18 | 128475 | 143717
10 | 31:56.18 | 3:40.56 | 143718 | 160273
11 | 35:36.74 | 2:08.16 | 160274 | 169889
12 | 37:45.15 | 2:41.65 | 169890 | 182029
13 | 40:27.05 | 3:09.12 | 182030 | 196216
14 | 43:36.17 | 4:30.71 | 196217 | 216537
15 | 48:07.13 | 3:42.24 | 216538 | 233211
16 | 51:49.37 | 3:54.16 | 233212 | 250777
17 | 55:43.53 | 3:14.33 | 250778 | 265360
18 | 58:58.11 | 6:16.54 | 265361 | 293614
19 | 65:14.65 | 3:52.03 | 293615 | 311017
20 | 69:06.68 | 5:24.59 | 311018 | 335376


Track 1

Filename A:\PsPBuRnOuT's MUSIC\SORTED BY YEAR\2000 PLUS\INDIE ANTHEMS - THE ULTIMATE COLLECTION\INDIE ANTHEMS - THE ULTIMATE COLLECTION - CD5\01.The XX - Angels.wav

Peak level 96.6 %
Extraction speed 11.9 X
Track quality 100.0 %
Copy CRC E65C460A
Accurately ripped (confidence 7) [4366B309] (AR v2)
Copy OK

Track 2

Filename A:\PsPBuRnOuT's MUSIC\SORTED BY YEAR\2000 PLUS\INDIE ANTHEMS - THE ULTIMATE COLLECTION\INDIE ANTHEMS - THE ULTIMATE COLLECTION - CD5\02.Sonic Youth - Bull In The Heather.wav

Peak level 97.7 %
Extraction speed 20.8 X
Track quality 100.0 %
Copy CRC 80BC659A
Accurately ripped (confidence 7) [CBF8AC8D] (AR v2)
Copy OK

Track 3

Filename A:\PsPBuRnOuT's MUSIC\SORTED BY YEAR\2000 PLUS\INDIE ANTHEMS - THE ULTIMATE COLLECTION\INDIE ANTHEMS - THE ULTIMATE COLLECTION - CD5\03.Mansun - I Can Only Disappoint U.wav

Peak level 97.7 %
Extraction speed 21.5 X
Track quality 100.0 %
Copy CRC 6A06BAF9
Accurately ripped (confidence 7) [8D19BC02] (AR v2)
Copy OK

Track 4

Filename A:\PsPBuRnOuT's MUSIC\SORTED BY YEAR\2000 PLUS\INDIE ANTHEMS - THE ULTIMATE COLLECTION\INDIE ANTHEMS - THE ULTIMATE COLLECTION - CD5\04.Arcade Fire - Rebellion (Lies).wav

Peak level 97.7 %
Extraction speed 23.3 X
Track quality 100.0 %
Copy CRC 08EE54D1
Accurately ripped (confidence 7) [1277F64E] (AR v2)
Copy OK

Track 5

Filename A:\PsPBuRnOuT's MUSIC\SORTED BY YEAR\2000 PLUS\INDIE ANTHEMS - THE ULTIMATE COLLECTION\INDIE ANTHEMS - THE ULTIMATE COLLECTION - CD5\05.Noah And The Whale - 5 Years Time.wav

Peak level 91.0 %
Extraction speed 26.0 X
Track quality 100.0 %
Copy CRC B64476F3
Accurately ripped (confidence 6) [0A2AE8F1] (AR v2)
Copy OK

Track 6

Filename A:\PsPBuRnOuT's MUSIC\SORTED BY YEAR\2000 PLUS\INDIE ANTHEMS - THE ULTIMATE COLLECTION\INDIE ANTHEMS - THE ULTIMATE COLLECTION - CD5\06.Bloc Party - Banquet.wav

Peak level 92.1 %
Extraction speed 27.1 X
Track quality 100.0 %
Copy CRC 8F8DB571
Accurately ripped (confidence 7) [AEBD08B3] (AR v2)
Copy OK

Track 7

Filename A:\PsPBuRnOuT's MUSIC\SORTED BY YEAR\2000 PLUS\INDIE ANTHEMS - THE ULTIMATE COLLECTION\INDIE ANTHEMS - THE ULTIMATE COLLECTION - CD5\07.Primal Scream - Rocks.wav

Peak level 97.7 %
Extraction speed 23.1 X
Track quality 99.8 %
Copy CRC 9489F4C8
Accurately ripped (confidence 6) [E7D82F95] (AR v2)
Copy OK

Track 8

Filename A:\PsPBuRnOuT's MUSIC\SORTED BY YEAR\2000 PLUS\INDIE ANTHEMS - THE ULTIMATE COLLECTION\INDIE ANTHEMS - THE ULTIMATE COLLECTION - CD5\08.The Courteeners - Not Nineteen Forever.wav

Peak level 80.2 %
Extraction speed 21.9 X
Track quality 100.0 %
Copy CRC ADEA5489
Accurately ripped (confidence 6) [23FD2140] (AR v2)
Copy OK

Track 9

Filename A:\PsPBuRnOuT's MUSIC\SORTED BY YEAR\2000 PLUS\INDIE ANTHEMS - THE ULTIMATE COLLECTION\INDIE ANTHEMS - THE ULTIMATE COLLECTION - CD5\09.Fall Out Boy - Thnks Fr Th Mmrs.wav

Peak level 84.2 %
Extraction speed 28.7 X
Track quality 100.0 %
Copy CRC D07AF003
Accurately ripped (confidence 6) [B77BE186] (AR v2)
Copy OK

Track 10

Filename A:\PsPBuRnOuT's MUSIC\SORTED BY YEAR\2000 PLUS\INDIE ANTHEMS - THE ULTIMATE COLLECTION\INDIE ANTHEMS - THE ULTIMATE COLLECTION - CD5\10.Yeah Yeah Yeahs - Heads Will Roll.wav

Peak level 90.1 %
Extraction speed 30.1 X
Track quality 100.0 %
Copy CRC D3D335E6
Accurately ripped (confidence 7) [D25ABA01] (AR v2)
Copy OK

Track 11

Filename A:\PsPBuRnOuT's MUSIC\SORTED BY YEAR\2000 PLUS\INDIE ANTHEMS - THE ULTIMATE COLLECTION\INDIE ANTHEMS - THE ULTIMATE COLLECTION - CD5\11.The Vines - Get Out.wav

Peak level 92.2 %
Extraction speed 32.7 X
Track quality 100.0 %
Copy CRC 54F371F9
Accurately ripped (confidence 7) [21A3335C] (AR v2)
Copy OK

Track 12

Filename A:\PsPBuRnOuT's MUSIC\SORTED BY YEAR\2000 PLUS\INDIE ANTHEMS - THE ULTIMATE COLLECTION\INDIE ANTHEMS - THE ULTIMATE COLLECTION - CD5\12.Hole - Celebrity Skin.wav

Peak level 92.2 %
Extraction speed 25.1 X
Track quality 99.8 %
Copy CRC 15A47655
Accurately ripped (confidence 7) [9B92D171] (AR v2)
Copy OK

Track 13

Filename A:\PsPBuRnOuT's MUSIC\SORTED BY YEAR\2000 PLUS\INDIE ANTHEMS - THE ULTIMATE COLLECTION\INDIE ANTHEMS - THE ULTIMATE COLLECTION - CD5\13.White Lies - To Lose My Life.wav

Peak level 80.3 %
Extraction speed 24.5 X
Track quality 100.0 %
Copy CRC 978BDB12
Accurately ripped (confidence 8) [559B071A] (AR v2)
Copy OK

Track 14

Filename A:\PsPBuRnOuT's MUSIC\SORTED BY YEAR\2000 PLUS\INDIE ANTHEMS - THE ULTIMATE COLLECTION\INDIE ANTHEMS - THE ULTIMATE COLLECTION - CD5\14.Sound Garden - Black Hole Sun.wav

Peak level 97.7 %
Extraction speed 35.0 X
Track quality 100.0 %
Copy CRC DD0ACEC2
Accurately ripped (confidence 7) [CA087068] (AR v2)
Copy OK

Track 15

Filename A:\PsPBuRnOuT's MUSIC\SORTED BY YEAR\2000 PLUS\INDIE ANTHEMS - THE ULTIMATE COLLECTION\INDIE ANTHEMS - THE ULTIMATE COLLECTION - CD5\15.Alex Clare - Too Close.wav

Peak level 69.0 %
Extraction speed 34.4 X
Track quality 100.0 %
Copy CRC C53B87BC
Accurately ripped (confidence 7) [31EEE0E8] (AR v2)
Copy OK

Track 16

Filename A:\PsPBuRnOuT's MUSIC\SORTED BY YEAR\2000 PLUS\INDIE ANTHEMS - THE ULTIMATE COLLECTION\INDIE ANTHEMS - THE ULTIMATE COLLECTION - CD5\16.Delphic - Halcyon.wav

Peak level 96.6 %
Extraction speed 29.6 X
Track quality 99.9 %
Copy CRC 8E20C596
Accurately ripped (confidence 7) [82FA1F54] (AR v2)
Copy OK

Track 17

Filename A:\PsPBuRnOuT's MUSIC\SORTED BY YEAR\2000 PLUS\INDIE ANTHEMS - THE ULTIMATE COLLECTION\INDIE ANTHEMS - THE ULTIMATE COLLECTION - CD5\17.Empire Of The Sun - Walking On A Dream.wav

Peak level 91.8 %
Extraction speed 28.0 X
Track quality 100.0 %
Copy CRC 35F4F75E
Accurately ripped (confidence 8) [FCE14D1D] (AR v2)
Copy OK

Track 18

Filename A:\PsPBuRnOuT's MUSIC\SORTED BY YEAR\2000 PLUS\INDIE ANTHEMS - THE ULTIMATE COLLECTION\INDIE ANTHEMS - THE ULTIMATE COLLECTION - CD5\18.Groove Armada - Paper Romance.wav

Peak level 95.5 %
Extraction speed 38.5 X
Track quality 100.0 %
Copy CRC 947C9FE8
Accurately ripped (confidence 7) [32FF03B3] (AR v2)
Copy OK

Track 19

Filename A:\PsPBuRnOuT's MUSIC\SORTED BY YEAR\2000 PLUS\INDIE ANTHEMS - THE ULTIMATE COLLECTION\INDIE ANTHEMS - THE ULTIMATE COLLECTION - CD5\19.808 State - Pacific 707.wav

Peak level 97.7 %
Extraction speed 40.4 X
Track quality 100.0 %
Copy CRC 6C47E3FF
Accurately ripped (confidence 8) [2CAA8EE1] (AR v2)
Copy OK

Track 20

Filename A:\PsPBuRnOuT's MUSIC\SORTED BY YEAR\2000 PLUS\INDIE ANTHEMS - THE ULTIMATE COLLECTION\INDIE ANTHEMS - THE ULTIMATE COLLECTION - CD5\20.The Prodigy - Stand Up.wav

Peak level 97.6 %
Extraction speed 41.3 X
Track quality 100.0 %
Copy CRC D515FB6B
Accurately ripped (confidence 8) [BA15B0DF] (AR v2)
Copy OK


All tracks accurately ripped

No errors occurred

End of status report

–– CUETools DB Plugin V2.1.6

[CTDB TOCID: qmV6mGCGuV7_ouWgh27S_33ckrY-] found
Submit result: qmV6mGCGuV7_ouWgh27S_33ckrY- has been confirmed
Track | CTDB Status
1 | (26/26) Accurately ripped
2 | (26/26) Accurately ripped
3 | (26/26) Accurately ripped
4 | (26/26) Accurately ripped
5 | (26/26) Accurately ripped
6 | (26/26) Accurately ripped
7 | (26/26) Accurately ripped
8 | (26/26) Accurately ripped
9 | (26/26) Accurately ripped
10 | (26/26) Accurately ripped
11 | (26/26) Accurately ripped
12 | (26/26) Accurately ripped
13 | (26/26) Accurately ripped
14 | (26/26) Accurately ripped
15 | (26/26) Accurately ripped
16 | (26/26) Accurately ripped
17 | (26/26) Accurately ripped
18 | (26/26) Accurately ripped
19 | (26/26) Accurately ripped
20 | (26/26) Accurately ripped