Subcategories

VA - NOW 100 Hits Christmas (5CD, 2019)

Posted By: ciklon5
VA - NOW 100 Hits Christmas (5CD, 2019)

VA - NOW 100 Hits Christmas (5CD, 2019)
FLAC tracks +cue+log+scans | 5:12:52 | 1,9 Gb
Genre: Pop, Rock / Label: Now

'Now That's What I Call Christmas' is the seventh best-selling album of all time in the UK with 4.5 million units sold. With the success of NOW's '100 Hits' series, this collection is an expanded version of this phenomenal and well-loved Christmas album. Get into the holiday spirit with the finest collection of festive hits.

Track List:
CD1
01.John Lennon, The Plastic Ono Band - Happy Xmas (War Is Over) - 00:03:34
02.Shakin' Stevens - Merry Christmas Everyone - 00:03:39
03.Elton John - Step Into Christmas - 00:04:30
04.Band Aid - Do They Know It's Christmas? - 00:03:46
05.Leona Lewis - One More Sleep - 00:04:00
06.Darlene Love - Christmas (Baby Please Come Home) - 00:02:44
07.Jackson Five - Santa Claus Is Coming To Town - 00:02:24
08.Brenda Lee - Rockin' Around The Christmas Tree - 00:02:04
09.The Ronettes - Sleigh Ride - 00:03:00
10.The Waitresses - Christmas Wrapping - 00:04:21
11.Slade - Merry Xmas Everybody - 00:03:26
12.Paul McCartney - Wonderful Christmastime - 00:04:16
13.Justin Bieber - Mistletoe - 00:03:03
14.Ariana Grande - Santa Tell Me - 00:03:24
15.Kelly Clarkson - Underneath The Tree - 00:03:49
16.Boney M. - Mary's Boy Child - Oh My Lord - 00:04:02
17.Girls Aloud - I Wish It Could Be Christmas Everyday - 00:04:01
18.Robbie Williams - Let's Not Go Shopping - 00:03:08
19.Jona Lewie - Stop The Cavalry - 00:02:55
20.Greg Lake - I Believe In Father Christmas - 00:03:32

CD2
01.Bing Crosby & The London Symphony Orchestra - It's Beginning To Look A Lot Like Christmas - 00:03:05
02.Elvis Presley - Blue Christmas - 00:02:08
03.Dean Martin - Let It Snow! Let It Snow! Let It Snow! - 00:01:56
04.Tony Bennett - Winter Wonderland - 00:02:13
05.Peggy Lee - Happy Holiday - 00:01:54
06.Julie London - Warm December - 00:01:56
07.Eartha Kitt - Santa Baby - 00:03:23
08.Nat King Cole - The Christmas Song (Merry Christmas To You) - 00:03:11
09.Doris Day - I'll Be Home For Christmas - 00:02:25
10.Perry Como - I Wish It Could Be Christmas Forever - 00:03:09
11.Jim Reeves - Silver Bells - 00:02:55
12.Dickie Valentine - Christmas Alphabet - 00:02:06
13.Bobby Helms - Jingle Bell Rock - 00:02:09
14.Burl Ives - Holly Jolly Christmas - 00:02:12
15.Frank Sinatra - Jingle Bells - 00:02:00
16.Louis Armstrong - 'Zat You, Santa Claus? - 00:02:39
17.The Platters - Christmas Time - 00:02:04
18.Ella Fitzgerald - God Rest Ye Merry Gentlemen - 00:01:26
19.Nat King Cole - Silent Night - 00:02:08
20.Bing Crosby & David Bowie - Peace On Earth - Little Drummer Boy - 00:02:37

CD3
01.Andy Williams - It's The Most Wonderful Time Of The Year - 00:02:32
02.Jackson Five - Frosty The Snowman - 00:02:39
03.The Crystals - Rudolph The Red-Nosed Reindeer - 00:02:31
04.Marvin Gaye - Purple Snowflakes - 00:02:55
05.Stevie Wonder - What Christmas Means To Me - 00:02:28
06.Smokey Robinson & The Miracles - Away In A Manger - Coventry Carol (Medley) - 00:02:25
07.James Brown - Merry Christmas Baby - 00:03:54
08.Engelbert Humperdinck - Winter World Of Love - 00:03:20
09.Jim Reeves - Senor Santa Claus - 00:02:22
10.Perry Como - The Twelve Days Of Christmas - 00:04:00
11.Doris Day - The Christmas Waltz - 00:02:45
12.Peggy Lee - It's Christmas Time Again - 00:02:59
13.Tony Bennett - Christmas Time Is Here - 00:03:59
14.Julie London - I'd Like You For Christmas - 00:02:34
15.Petula Clark - Christmas Cards - 00:02:27
16.Mike Oldfield - In Dulci Jubilo - 00:02:50
17.Chris De Burgh - A Spaceman Came Travelling - 00:04:03
18.Pentatonix - Mary, Did You Know - 00:03:20
19.Frankie Goes To Hollywood - The Power Of Love - 00:05:29
20.Celine Dion - O Holy Night - 00:05:19

CD4
01.Johnny Mathis - When A Child Is Born - 00:03:43
02.Jackson Five - I Saw Mommy Kissing Santa Claus - 00:03:00
03.Henry Mancini - Baby, It's Cold Outside - 00:01:46
04.Ella Fitzgerald - Christmas Island - 00:02:18
05.James Brown - Christmas In Heaven - 00:02:53
06.Jim Reeves - C-H-R-I-S-T-M-A-S - 00:02:47
07.Burl Ives - O Little Town Of Bethlehem - 00:04:04
08.Perry Como - O Come All Ye Faithful - 00:02:45
09.Elvis Presley - Here Comes Santa Claus (Right Down Santa Claus Lane) - 00:01:55
10.Bing Crosby & The Andrews Sisters - Mele Kalikimaka - 00:02:53
11.Darlene Love - Marshmallow World - 00:02:24
12.Beach Boys - Little Saint Nick - 00:01:58
13.Kacey Musgraves - I Want A Hippopotamus For Christmas - 00:02:24
14.Peggy Lee - Ring Those Christmas Bells - 00:02:20
15.The Weavers - We Wish You A Merry Christmas - 00:02:26
16.Bing Crosby - White Christmas - 00:03:17
17.Dean Martin - The Christmas Blues - 00:02:53
18.Nat King Cole - The Little Boy That Santa Claus Forgot - 00:02:32
19.Sam Smith - Have Yourself A Merry Little Christmas - 00:02:45
20.Peter Auty - Walking In The Air - 00:03:30

CD5
01.Whitney Houston - One Wish (For Christmas) - 00:04:11
02.Backstreet Boys - Christmas Time - 00:04:12
03.Britney Spears - My Only Wish (This Year) - 00:04:15
04.Christina Aguilera - This Christmas - 00:04:02
05.Destiny's Child - 8 Days Of Christmas - 00:03:29
06.NSYNC - Merry Christmas, Happy Holidays - 00:04:13
07.Jessie J - Man With The Bag - 00:02:41
08.John Legend - Merry Merry Christmas - 00:04:13
09.KT Tunstall - 2000 Miles - 00:03:38
10.Train - Shake Up Christmas - 00:03:52
11.Girls Aloud - Not Tonight Santa - 00:02:42
12.Aretha Franklin - Joy To The World - 00:03:02
13.Cyndi Lauper - Early Christmas Morning - 00:03:40
14.Smokey Robinson & The Miracles - Christmas Lullaby - 00:03:59
15.Marvin Gaye - I Want To Come Home For Christmas - 00:03:22
16.Luther Vandross - Please Come Home For Christmas - 00:03:36
17.David Essex - A Winter's Tale - 00:04:10
18.Whitney Houston - Do You Hear What I Hear - 00:03:31
19.Susan Boyle - Auld Lang Syne - 00:02:42
20.Abba - Happy New Year - 00:04:23

Exact Audio Copy V1.3 from 2. September 2016

EAC extraction logfile from 1. December 2019, 20:18

Various / Now - 100 Hits - Christmas - CD1

Used drive : ATAPI iHAS124 Y Adapter: 1 ID: 0

Read mode : Secure
Utilize accurate stream : Yes
Defeat audio cache : No
Make use of C2 pointers : Yes

Read offset correction : 48
Overread into Lead-In and Lead-Out : No
Fill up missing offset samples with silence : Yes
Delete leading and trailing silent blocks : No
Null samples used in CRC calculations : Yes
Used interface : Native Win32 interface for Win NT & 2000
Gap handling : Not detected, thus appended to previous track

Used output format : User Defined Encoder
Selected bitrate : 768 kBit/s
Quality : High
Add ID3 tag : No
Command line compressor : C:\Program Files (x86)\Exact Audio Copy\FLAC\FLAC.EXE
Additional command line options : -6 -V -T "ARTIST=%artist%" -T "TITLE=%title%" -T "ALBUM=%albumtitle%" -T "DATE=%year%" -T "TRACKNUMBER=%tracknr%" -T "GENRE=%genre%" -T "COMMENT=%comment%" -T "BAND=%albuminterpret%" -T "ALBUMARTIST=%albuminterpret%" -T "COMPOSER=%composer%" %haslyrics%–tag-from-file=LYRICS="%lyricsfile%"%haslyrics% -T "DISCNUMBER=%cdnumber%" -T "TOTALDISCS=%totalcds%" -T "TOTALTRACKS=%numtracks%" %hascover%–picture="%coverfile%"%hascover% %source% -o %dest%


TOC of the extracted CD

Track | Start | Length | Start sector | End sector
––––––––––––––––––––––––––––-
1 | 0:00.00 | 3:34.58 | 0 | 16107
2 | 3:34.58 | 3:39.63 | 16108 | 32595
3 | 7:14.46 | 4:30.62 | 32596 | 52907
4 | 11:45.33 | 3:46.15 | 52908 | 69872
5 | 15:31.48 | 4:00.02 | 69873 | 87874
6 | 19:31.50 | 2:44.72 | 87875 | 100246
7 | 22:16.47 | 2:24.61 | 100247 | 111107
8 | 24:41.33 | 2:04.61 | 111108 | 120468
9 | 26:46.19 | 3:00.63 | 120469 | 134031
10 | 29:47.07 | 4:21.14 | 134032 | 153620
11 | 34:08.21 | 3:26.60 | 153621 | 169130
12 | 37:35.06 | 4:16.13 | 169131 | 188343
13 | 41:51.19 | 3:03.26 | 188344 | 202094
14 | 44:54.45 | 3:24.11 | 202095 | 217405
15 | 48:18.56 | 3:49.11 | 217406 | 234591
16 | 52:07.67 | 4:02.44 | 234592 | 252785
17 | 56:10.36 | 4:01.35 | 252786 | 270895
18 | 60:11.71 | 3:08.74 | 270896 | 285069
19 | 63:20.70 | 2:55.62 | 285070 | 298256
20 | 66:16.57 | 3:32.10 | 298257 | 314166


Track 1

Filename A:\PsPBuRnOuT's MUSIC\SORTED BY YEAR\NOW MUSIC\NOW - 100 HITS - CHRISTMAS\NOW - 100 HITS - CHRISTMAS - CD1\01.John Lennon, The Plastic Ono Band, Yoko Ono & The Harlem Community Choir - Happy Xmas (War Is Over).wav

Peak level 73.1 %
Extraction speed 12.8 X
Track quality 99.9 %
Copy CRC 34E0BA68
Track not present in AccurateRip database
Copy OK

Track 2

Filename A:\PsPBuRnOuT's MUSIC\SORTED BY YEAR\NOW MUSIC\NOW - 100 HITS - CHRISTMAS\NOW - 100 HITS - CHRISTMAS - CD1\02.Shakin' Stevens - Merry Christmas Everyone.wav

Peak level 78.5 %
Extraction speed 15.8 X
Track quality 100.0 %
Copy CRC DD080A96
Track not present in AccurateRip database
Copy OK

Track 3

Filename A:\PsPBuRnOuT's MUSIC\SORTED BY YEAR\NOW MUSIC\NOW - 100 HITS - CHRISTMAS\NOW - 100 HITS - CHRISTMAS - CD1\03.Elton John - Step Into Christmas.wav

Peak level 79.8 %
Extraction speed 21.5 X
Track quality 100.0 %
Copy CRC 8608A6F2
Track not present in AccurateRip database
Copy OK

Track 4

Filename A:\PsPBuRnOuT's MUSIC\SORTED BY YEAR\NOW MUSIC\NOW - 100 HITS - CHRISTMAS\NOW - 100 HITS - CHRISTMAS - CD1\04.Band Aid - Do They Know It's Christmas.wav

Peak level 89.1 %
Extraction speed 23.2 X
Track quality 100.0 %
Copy CRC 7E93B9E5
Track not present in AccurateRip database
Copy OK

Track 5

Filename A:\PsPBuRnOuT's MUSIC\SORTED BY YEAR\NOW MUSIC\NOW - 100 HITS - CHRISTMAS\NOW - 100 HITS - CHRISTMAS - CD1\05.Leona Lewis - One More Sleep.wav

Peak level 76.7 %
Extraction speed 25.6 X
Track quality 100.0 %
Copy CRC B86D8622
Track not present in AccurateRip database
Copy OK

Track 6

Filename A:\PsPBuRnOuT's MUSIC\SORTED BY YEAR\NOW MUSIC\NOW - 100 HITS - CHRISTMAS\NOW - 100 HITS - CHRISTMAS - CD1\06.Darlene Love - Christmas (Baby Please Come Home).wav

Peak level 86.6 %
Extraction speed 25.3 X
Track quality 100.0 %
Copy CRC 7E6E283A
Track not present in AccurateRip database
Copy OK

Track 7

Filename A:\PsPBuRnOuT's MUSIC\SORTED BY YEAR\NOW MUSIC\NOW - 100 HITS - CHRISTMAS\NOW - 100 HITS - CHRISTMAS - CD1\07.Jackson Five - Santa Claus Is Coming To Town.wav

Peak level 77.1 %
Extraction speed 28.0 X
Track quality 100.0 %
Copy CRC D45C7CBE
Track not present in AccurateRip database
Copy OK

Track 8

Filename A:\PsPBuRnOuT's MUSIC\SORTED BY YEAR\NOW MUSIC\NOW - 100 HITS - CHRISTMAS\NOW - 100 HITS - CHRISTMAS - CD1\08.Brenda Lee - Rockin' Around The Christmas Tree.wav

Peak level 89.1 %
Extraction speed 26.5 X
Track quality 100.0 %
Copy CRC 2FCC0DB5
Track not present in AccurateRip database
Copy OK

Track 9

Filename A:\PsPBuRnOuT's MUSIC\SORTED BY YEAR\NOW MUSIC\NOW - 100 HITS - CHRISTMAS\NOW - 100 HITS - CHRISTMAS - CD1\09.The Ronettes - Sleigh Ride.wav

Peak level 89.1 %
Extraction speed 28.1 X
Track quality 100.0 %
Copy CRC 6D0C831C
Track not present in AccurateRip database
Copy OK

Track 10

Filename A:\PsPBuRnOuT's MUSIC\SORTED BY YEAR\NOW MUSIC\NOW - 100 HITS - CHRISTMAS\NOW - 100 HITS - CHRISTMAS - CD1\10.The Waitresses - Christmas Wrapping.wav

Peak level 74.0 %
Extraction speed 29.1 X
Track quality 100.0 %
Copy CRC 3EA84651
Track not present in AccurateRip database
Copy OK

Track 11

Filename A:\PsPBuRnOuT's MUSIC\SORTED BY YEAR\NOW MUSIC\NOW - 100 HITS - CHRISTMAS\NOW - 100 HITS - CHRISTMAS - CD1\11.Slade - Merry Xmas Everybody.wav

Peak level 78.4 %
Extraction speed 25.2 X
Track quality 99.8 %
Copy CRC 895AE6ED
Track not present in AccurateRip database
Copy OK

Track 12

Filename A:\PsPBuRnOuT's MUSIC\SORTED BY YEAR\NOW MUSIC\NOW - 100 HITS - CHRISTMAS\NOW - 100 HITS - CHRISTMAS - CD1\12.Paul McCartney - Wonderful Christmastime.wav

Peak level 89.1 %
Extraction speed 22.4 X
Track quality 99.9 %
Copy CRC BE76F7B2
Track not present in AccurateRip database
Copy OK

Track 13

Filename A:\PsPBuRnOuT's MUSIC\SORTED BY YEAR\NOW MUSIC\NOW - 100 HITS - CHRISTMAS\NOW - 100 HITS - CHRISTMAS - CD1\13.Justin Bieber - Mistletoe.wav

Peak level 78.3 %
Extraction speed 25.1 X
Track quality 100.0 %
Copy CRC 269BCF43
Track not present in AccurateRip database
Copy OK

Track 14

Filename A:\PsPBuRnOuT's MUSIC\SORTED BY YEAR\NOW MUSIC\NOW - 100 HITS - CHRISTMAS\NOW - 100 HITS - CHRISTMAS - CD1\14.Ariana Grande - Santa Tell Me.wav

Peak level 73.5 %
Extraction speed 32.7 X
Track quality 100.0 %
Copy CRC 4F4C5929
Track not present in AccurateRip database
Copy OK

Track 15

Filename A:\PsPBuRnOuT's MUSIC\SORTED BY YEAR\NOW MUSIC\NOW - 100 HITS - CHRISTMAS\NOW - 100 HITS - CHRISTMAS - CD1\15.Kelly Clarkson - Underneath The Tree.wav

Peak level 70.3 %
Extraction speed 28.1 X
Track quality 99.9 %
Copy CRC C4A38799
Track not present in AccurateRip database
Copy OK

Track 16

Filename A:\PsPBuRnOuT's MUSIC\SORTED BY YEAR\NOW MUSIC\NOW - 100 HITS - CHRISTMAS\NOW - 100 HITS - CHRISTMAS - CD1\16.Boney M. - Mary's Boy Child - Oh My Lord.wav

Peak level 76.6 %
Extraction speed 28.2 X
Track quality 100.0 %
Copy CRC 3781A948
Track not present in AccurateRip database
Copy OK

Track 17

Filename A:\PsPBuRnOuT's MUSIC\SORTED BY YEAR\NOW MUSIC\NOW - 100 HITS - CHRISTMAS\NOW - 100 HITS - CHRISTMAS - CD1\17.Girls Aloud - I Wish It Could Be Christmas Everyday.wav

Peak level 71.9 %
Extraction speed 35.4 X
Track quality 100.0 %
Copy CRC 25C0DB7B
Track not present in AccurateRip database
Copy OK

Track 18

Filename A:\PsPBuRnOuT's MUSIC\SORTED BY YEAR\NOW MUSIC\NOW - 100 HITS - CHRISTMAS\NOW - 100 HITS - CHRISTMAS - CD1\18.Robbie Williams - Let's Not Go Shopping.wav

Peak level 89.1 %
Extraction speed 28.6 X
Track quality 99.8 %
Copy CRC 6DDF40F4
Track not present in AccurateRip database
Copy OK

Track 19

Filename A:\PsPBuRnOuT's MUSIC\SORTED BY YEAR\NOW MUSIC\NOW - 100 HITS - CHRISTMAS\NOW - 100 HITS - CHRISTMAS - CD1\19.Jona Lewie - Stop The Cavalry.wav

Peak level 89.1 %
Extraction speed 26.1 X
Track quality 100.0 %
Copy CRC 3684EC8B
Track not present in AccurateRip database
Copy OK

Track 20

Filename A:\PsPBuRnOuT's MUSIC\SORTED BY YEAR\NOW MUSIC\NOW - 100 HITS - CHRISTMAS\NOW - 100 HITS - CHRISTMAS - CD1\20.Greg Lake - I Believe In Father Christmas.wav

Peak level 79.0 %
Extraction speed 37.6 X
Track quality 100.0 %
Copy CRC F487E5D6
Track not present in AccurateRip database
Copy OK


None of the tracks are present in the AccurateRip database

No errors occurred

End of status report

–– CUETools DB Plugin V2.1.6

[CTDB TOCID: wzPu8n7.oVGM9_w0.Qk3yThRgXU-] found
Submit result: wzPu8n7.oVGM9_w0.Qk3yThRgXU- has been confirmed
Track | CTDB Status
1 | (5/5) Accurately ripped
2 | (5/5) Accurately ripped
3 | (5/5) Accurately ripped
4 | (5/5) Accurately ripped
5 | (5/5) Accurately ripped
6 | (5/5) Accurately ripped
7 | (5/5) Accurately ripped
8 | (5/5) Accurately ripped
9 | (5/5) Accurately ripped
10 | (5/5) Accurately ripped
11 | (5/5) Accurately ripped
12 | (5/5) Accurately ripped
13 | (5/5) Accurately ripped
14 | (5/5) Accurately ripped
15 | (5/5) Accurately ripped
16 | (5/5) Accurately ripped
17 | (5/5) Accurately ripped
18 | (5/5) Accurately ripped
19 | (5/5) Accurately ripped
20 | (5/5) Accurately ripped

Exact Audio Copy V1.3 from 2. September 2016

EAC extraction logfile from 1. December 2019, 20:48

Various / Now - 100 Hits - Christmas - CD2

Used drive : ATAPI iHAS124 Y Adapter: 1 ID: 0

Read mode : Secure
Utilize accurate stream : Yes
Defeat audio cache : No
Make use of C2 pointers : Yes

Read offset correction : 48
Overread into Lead-In and Lead-Out : No
Fill up missing offset samples with silence : Yes
Delete leading and trailing silent blocks : No
Null samples used in CRC calculations : Yes
Used interface : Native Win32 interface for Win NT & 2000
Gap handling : Not detected, thus appended to previous track

Used output format : User Defined Encoder
Selected bitrate : 768 kBit/s
Quality : High
Add ID3 tag : No
Command line compressor : C:\Program Files (x86)\Exact Audio Copy\FLAC\FLAC.EXE
Additional command line options : -6 -V -T "ARTIST=%artist%" -T "TITLE=%title%" -T "ALBUM=%albumtitle%" -T "DATE=%year%" -T "TRACKNUMBER=%tracknr%" -T "GENRE=%genre%" -T "COMMENT=%comment%" -T "BAND=%albuminterpret%" -T "ALBUMARTIST=%albuminterpret%" -T "COMPOSER=%composer%" %haslyrics%–tag-from-file=LYRICS="%lyricsfile%"%haslyrics% -T "DISCNUMBER=%cdnumber%" -T "TOTALDISCS=%totalcds%" -T "TOTALTRACKS=%numtracks%" %hascover%–picture="%coverfile%"%hascover% %source% -o %dest%


TOC of the extracted CD

Track | Start | Length | Start sector | End sector
––––––––––––––––––––––––––––-
1 | 0:00.00 | 3:05.57 | 0 | 13931
2 | 3:05.57 | 2:08.23 | 13932 | 23554
3 | 5:14.05 | 1:56.59 | 23555 | 32313
4 | 7:10.64 | 2:13.11 | 32314 | 42299
5 | 9:24.00 | 1:54.67 | 42300 | 50916
6 | 11:18.67 | 1:56.36 | 50917 | 59652
7 | 13:15.28 | 3:23.69 | 59653 | 74946
8 | 16:39.22 | 3:11.41 | 74947 | 89312
9 | 19:50.63 | 2:25.31 | 89313 | 100218
10 | 22:16.19 | 3:09.27 | 100219 | 114420
11 | 25:25.46 | 2:55.33 | 114421 | 127578
12 | 28:21.04 | 2:06.51 | 127579 | 137079
13 | 30:27.55 | 2:09.62 | 137080 | 146816
14 | 32:37.42 | 2:12.67 | 146817 | 156783
15 | 34:50.34 | 2:00.23 | 156784 | 165806
16 | 36:50.57 | 2:39.14 | 165807 | 177745
17 | 39:29.71 | 2:04.14 | 177746 | 187059
18 | 41:34.10 | 1:26.14 | 187060 | 193523
19 | 43:00.24 | 2:08.37 | 193524 | 203160
20 | 45:08.61 | 2:37.49 | 203161 | 214984


Track 1

Filename A:\PsPBuRnOuT's MUSIC\SORTED BY YEAR\NOW MUSIC\NOW - 100 HITS - CHRISTMAS\NOW - 100 HITS - CHRISTMAS - CD2\01.Bing Crosby & The London Symphony Orchestra - It's Beginning To Look A Lot Like Christmas.wav

Peak level 83.6 %
Extraction speed 11.1 X
Track quality 99.8 %
Copy CRC E4D5EDF3
Track not present in AccurateRip database
Copy OK

Track 2

Filename A:\PsPBuRnOuT's MUSIC\SORTED BY YEAR\NOW MUSIC\NOW - 100 HITS - CHRISTMAS\NOW - 100 HITS - CHRISTMAS - CD2\02.Elvis Presley - Blue Christmas.wav

Peak level 77.0 %
Extraction speed 14.0 X
Track quality 100.0 %
Copy CRC F8D9363B
Track not present in AccurateRip database
Copy OK

Track 3

Filename A:\PsPBuRnOuT's MUSIC\SORTED BY YEAR\NOW MUSIC\NOW - 100 HITS - CHRISTMAS\NOW - 100 HITS - CHRISTMAS - CD2\03.Dean Martin - Let It Snow! Let It Snow! Let It Snow!.wav

Peak level 79.7 %
Extraction speed 18.6 X
Track quality 100.0 %
Copy CRC 9B6183BE
Track not present in AccurateRip database
Copy OK

Track 4

Filename A:\PsPBuRnOuT's MUSIC\SORTED BY YEAR\NOW MUSIC\NOW - 100 HITS - CHRISTMAS\NOW - 100 HITS - CHRISTMAS - CD2\04.Tony Bennett - Winter Wonderland.wav

Peak level 74.6 %
Extraction speed 19.1 X
Track quality 100.0 %
Copy CRC 6EDB6045
Track not present in AccurateRip database
Copy OK

Track 5

Filename A:\PsPBuRnOuT's MUSIC\SORTED BY YEAR\NOW MUSIC\NOW - 100 HITS - CHRISTMAS\NOW - 100 HITS - CHRISTMAS - CD2\05.Peggy Lee - Happy Holiday.wav

Peak level 89.1 %
Extraction speed 20.1 X
Track quality 100.0 %
Copy CRC 36A2AB4B
Track not present in AccurateRip database
Copy OK

Track 6

Filename A:\PsPBuRnOuT's MUSIC\SORTED BY YEAR\NOW MUSIC\NOW - 100 HITS - CHRISTMAS\NOW - 100 HITS - CHRISTMAS - CD2\06.Julie London - Warm December.wav

Peak level 89.1 %
Extraction speed 21.0 X
Track quality 100.0 %
Copy CRC 2A0813CA
Track not present in AccurateRip database
Copy OK

Track 7

Filename A:\PsPBuRnOuT's MUSIC\SORTED BY YEAR\NOW MUSIC\NOW - 100 HITS - CHRISTMAS\NOW - 100 HITS - CHRISTMAS - CD2\07.Eartha Kitt - Santa Baby.wav

Peak level 83.6 %
Extraction speed 21.8 X
Track quality 100.0 %
Copy CRC 6C630F2C
Track not present in AccurateRip database
Copy OK

Track 8

Filename A:\PsPBuRnOuT's MUSIC\SORTED BY YEAR\NOW MUSIC\NOW - 100 HITS - CHRISTMAS\NOW - 100 HITS - CHRISTMAS - CD2\08.Nat King Cole - The Christmas Song (Merry Christmas To You).wav

Peak level 89.1 %
Extraction speed 19.8 X
Track quality 99.8 %
Copy CRC DF66906C
Track not present in AccurateRip database
Copy OK

Track 9

Filename A:\PsPBuRnOuT's MUSIC\SORTED BY YEAR\NOW MUSIC\NOW - 100 HITS - CHRISTMAS\NOW - 100 HITS - CHRISTMAS - CD2\09.Doris Day - I'll Be Home For Christmas.wav

Peak level 84.9 %
Extraction speed 19.3 X
Track quality 100.0 %
Copy CRC D3A02507
Track not present in AccurateRip database
Copy OK

Track 10

Filename A:\PsPBuRnOuT's MUSIC\SORTED BY YEAR\NOW MUSIC\NOW - 100 HITS - CHRISTMAS\NOW - 100 HITS - CHRISTMAS - CD2\10.Perry Como - I Wish It Could Be Christmas Forever.wav

Peak level 89.1 %
Extraction speed 26.4 X
Track quality 100.0 %
Copy CRC 9710825C
Track not present in AccurateRip database
Copy OK

Track 11

Filename A:\PsPBuRnOuT's MUSIC\SORTED BY YEAR\NOW MUSIC\NOW - 100 HITS - CHRISTMAS\NOW - 100 HITS - CHRISTMAS - CD2\11.Jim Reeves - Silver Bells.wav

Peak level 87.3 %
Extraction speed 26.2 X
Track quality 100.0 %
Copy CRC 9BB77041
Track not present in AccurateRip database
Copy OK

Track 12

Filename A:\PsPBuRnOuT's MUSIC\SORTED BY YEAR\NOW MUSIC\NOW - 100 HITS - CHRISTMAS\NOW - 100 HITS - CHRISTMAS - CD2\12.Dickie Valentine - Christmas Alphabet.wav

Peak level 81.2 %
Extraction speed 26.7 X
Track quality 100.0 %
Copy CRC 242BB0B4
Track not present in AccurateRip database
Copy OK

Track 13

Filename A:\PsPBuRnOuT's MUSIC\SORTED BY YEAR\NOW MUSIC\NOW - 100 HITS - CHRISTMAS\NOW - 100 HITS - CHRISTMAS - CD2\13.Bobby Helms - Jingle Bell Rock.wav

Peak level 89.1 %
Extraction speed 29.4 X
Track quality 100.0 %
Copy CRC F536AD21
Track not present in AccurateRip database
Copy OK

Track 14

Filename A:\PsPBuRnOuT's MUSIC\SORTED BY YEAR\NOW MUSIC\NOW - 100 HITS - CHRISTMAS\NOW - 100 HITS - CHRISTMAS - CD2\14.Burl Ives - Holly Jolly Christmas.wav

Peak level 77.5 %
Extraction speed 21.8 X
Track quality 99.8 %
Copy CRC 290595AD
Track not present in AccurateRip database
Copy OK

Track 15

Filename A:\PsPBuRnOuT's MUSIC\SORTED BY YEAR\NOW MUSIC\NOW - 100 HITS - CHRISTMAS\NOW - 100 HITS - CHRISTMAS - CD2\15.Frank Sinatra - Jingle Bells.wav

Peak level 89.1 %
Extraction speed 19.7 X
Track quality 100.0 %
Copy CRC C9D30C20
Track not present in AccurateRip database
Copy OK

Track 16

Filename A:\PsPBuRnOuT's MUSIC\SORTED BY YEAR\NOW MUSIC\NOW - 100 HITS - CHRISTMAS\NOW - 100 HITS - CHRISTMAS - CD2\16.Louis Armstrong - 'Zat You, Santa Claus.wav

Peak level 84.5 %
Extraction speed 28.9 X
Track quality 100.0 %
Copy CRC AF8CC54B
Track not present in AccurateRip database
Copy OK

Track 17

Filename A:\PsPBuRnOuT's MUSIC\SORTED BY YEAR\NOW MUSIC\NOW - 100 HITS - CHRISTMAS\NOW - 100 HITS - CHRISTMAS - CD2\17.The Platters - Christmas Time.wav

Peak level 71.6 %
Extraction speed 29.3 X
Track quality 100.0 %
Copy CRC 8FE05341
Track not present in AccurateRip database
Copy OK

Track 18

Filename A:\PsPBuRnOuT's MUSIC\SORTED BY YEAR\NOW MUSIC\NOW - 100 HITS - CHRISTMAS\NOW - 100 HITS - CHRISTMAS - CD2\18.Ella Fitzgerald - God Rest Ye Merry Gentlemen.wav

Peak level 81.5 %
Extraction speed 33.0 X
Track quality 100.0 %
Copy CRC 0ABBC153
Track not present in AccurateRip database
Copy OK

Track 19

Filename A:\PsPBuRnOuT's MUSIC\SORTED BY YEAR\NOW MUSIC\NOW - 100 HITS - CHRISTMAS\NOW - 100 HITS - CHRISTMAS - CD2\19.Nat King Cole - Silent Night.wav

Peak level 79.5 %
Extraction speed 32.9 X
Track quality 100.0 %
Copy CRC 701B9801
Track not present in AccurateRip database
Copy OK

Track 20

Filename A:\PsPBuRnOuT's MUSIC\SORTED BY YEAR\NOW MUSIC\NOW - 100 HITS - CHRISTMAS\NOW - 100 HITS - CHRISTMAS - CD2\20.Bing Crosby & David Bowie - Peace On Earth - Little Drummer Boy.wav

Peak level 79.2 %
Extraction speed 31.2 X
Track quality 100.0 %
Copy CRC 40515179
Track not present in AccurateRip database
Copy OK


None of the tracks are present in the AccurateRip database

No errors occurred

End of status report

–– CUETools DB Plugin V2.1.6

[CTDB TOCID: YS4RtP5AlbAf1.05Y2G1AojL.9c-] found
Submit result: YS4RtP5AlbAf1.05Y2G1AojL.9c- has been submitted
Track | CTDB Status
1 | (2/2) Accurately ripped
2 | (2/2) Accurately ripped
3 | (2/2) Accurately ripped
4 | (2/2) Accurately ripped
5 | (2/2) Accurately ripped
6 | (2/2) Accurately ripped
7 | (2/2) Accurately ripped
8 | (2/2) Accurately ripped
9 | (2/2) Accurately ripped
10 | (2/2) Accurately ripped
11 | (2/2) Accurately ripped
12 | (2/2) Accurately ripped
13 | (2/2) Accurately ripped
14 | (2/2) Accurately ripped
15 | (0/2) No match
16 | (2/2) Accurately ripped
17 | (2/2) Accurately ripped
18 | (2/2) Accurately ripped
19 | (2/2) Accurately ripped
20 | (2/2) Accurately ripped

Exact Audio Copy V1.3 from 2. September 2016

EAC extraction logfile from 1. December 2019, 21:25

Various / Now - 100 Hits - Christmas - CD3

Used drive : ATAPI iHAS124 Y Adapter: 1 ID: 0

Read mode : Secure
Utilize accurate stream : Yes
Defeat audio cache : No
Make use of C2 pointers : Yes

Read offset correction : 48
Overread into Lead-In and Lead-Out : No
Fill up missing offset samples with silence : Yes
Delete leading and trailing silent blocks : No
Null samples used in CRC calculations : Yes
Used interface : Native Win32 interface for Win NT & 2000
Gap handling : Not detected, thus appended to previous track

Used output format : User Defined Encoder
Selected bitrate : 768 kBit/s
Quality : High
Add ID3 tag : No
Command line compressor : C:\Program Files (x86)\Exact Audio Copy\FLAC\FLAC.EXE
Additional command line options : -6 -V -T "ARTIST=%artist%" -T "TITLE=%title%" -T "ALBUM=%albumtitle%" -T "DATE=%year%" -T "TRACKNUMBER=%tracknr%" -T "GENRE=%genre%" -T "COMMENT=%comment%" -T "BAND=%albuminterpret%" -T "ALBUMARTIST=%albuminterpret%" -T "COMPOSER=%composer%" %haslyrics%–tag-from-file=LYRICS="%lyricsfile%"%haslyrics% -T "DISCNUMBER=%cdnumber%" -T "TOTALDISCS=%totalcds%" -T "TOTALTRACKS=%numtracks%" %hascover%–picture="%coverfile%"%hascover% %source% -o %dest%


TOC of the extracted CD

Track | Start | Length | Start sector | End sector
––––––––––––––––––––––––––––-
1 | 0:00.00 | 2:32.41 | 0 | 11440
2 | 2:32.41 | 2:39.61 | 11441 | 23426
3 | 5:12.27 | 2:31.47 | 23427 | 34798
4 | 7:43.74 | 2:55.16 | 34799 | 47939
5 | 10:39.15 | 2:28.50 | 47940 | 59089
6 | 13:07.65 | 2:25.46 | 59090 | 70010
7 | 15:33.36 | 3:54.24 | 70011 | 87584
8 | 19:27.60 | 3:20.41 | 87585 | 102625
9 | 22:48.26 | 2:22.04 | 102626 | 113279
10 | 25:10.30 | 4:00.23 | 113280 | 131302
11 | 29:10.53 | 2:45.56 | 131303 | 143733
12 | 31:56.34 | 2:59.14 | 143734 | 157172
13 | 34:55.48 | 3:59.11 | 157173 | 175108
14 | 38:54.59 | 2:34.68 | 175109 | 186726
15 | 41:29.52 | 2:27.13 | 186727 | 197764
16 | 43:56.65 | 2:50.11 | 197765 | 210525
17 | 46:47.01 | 4:03.57 | 210526 | 228807
18 | 50:50.58 | 3:20.27 | 228808 | 243834
19 | 54:11.10 | 5:29.06 | 243835 | 268515
20 | 59:40.16 | 5:19.43 | 268516 | 292483


Track 1

Filename A:\PsPBuRnOuT's MUSIC\SORTED BY YEAR\NOW MUSIC\NOW - 100 HITS - CHRISTMAS\NOW - 100 HITS - CHRISTMAS - CD3\01.Andy Williams - It's The Most Wonderful Time Of The Year.wav

Peak level 83.6 %
Extraction speed 8.8 X
Track quality 100.0 %
Copy CRC D63ED105
Track not present in AccurateRip database
Copy OK

Track 2

Filename A:\PsPBuRnOuT's MUSIC\SORTED BY YEAR\NOW MUSIC\NOW - 100 HITS - CHRISTMAS\NOW - 100 HITS - CHRISTMAS - CD3\02.Jackson Five - Frosty The Snowman.wav

Peak level 87.0 %
Extraction speed 10.0 X
Track quality 100.0 %
Copy CRC 8C631D86
Track not present in AccurateRip database
Copy OK

Track 3

Filename A:\PsPBuRnOuT's MUSIC\SORTED BY YEAR\NOW MUSIC\NOW - 100 HITS - CHRISTMAS\NOW - 100 HITS - CHRISTMAS - CD3\03.The Crystals - Rudolph The Red-Nosed Reindeer.wav

Peak level 85.5 %
Extraction speed 10.5 X
Track quality 100.0 %
Copy CRC 018E30DE
Track not present in AccurateRip database
Copy OK

Track 4

Filename A:\PsPBuRnOuT's MUSIC\SORTED BY YEAR\NOW MUSIC\NOW - 100 HITS - CHRISTMAS\NOW - 100 HITS - CHRISTMAS - CD3\04.Marvin Gaye - Purple Snowflakes.wav

Peak level 86.1 %
Extraction speed 11.1 X
Track quality 100.0 %
Copy CRC 18D49981
Track not present in AccurateRip database
Copy OK

Track 5

Filename A:\PsPBuRnOuT's MUSIC\SORTED BY YEAR\NOW MUSIC\NOW - 100 HITS - CHRISTMAS\NOW - 100 HITS - CHRISTMAS - CD3\05.Stevie Wonder - What Christmas Means To Me.wav

Peak level 89.1 %
Extraction speed 11.8 X
Track quality 100.0 %
Copy CRC 4377AD7C
Track not present in AccurateRip database
Copy OK

Track 6

Filename A:\PsPBuRnOuT's MUSIC\SORTED BY YEAR\NOW MUSIC\NOW - 100 HITS - CHRISTMAS\NOW - 100 HITS - CHRISTMAS - CD3\06.Smokey Robinson & The Miracles - Away In A Manger - Coventry Carol (Medley).wav

Peak level 83.4 %
Extraction speed 12.0 X
Track quality 99.8 %
Copy CRC E563BDA5
Track not present in AccurateRip database
Copy OK

Track 7

Filename A:\PsPBuRnOuT's MUSIC\SORTED BY YEAR\NOW MUSIC\NOW - 100 HITS - CHRISTMAS\NOW - 100 HITS - CHRISTMAS - CD3\07.James Brown - Merry Christmas Baby.wav

Peak level 64.5 %
Extraction speed 13.2 X
Track quality 100.0 %
Copy CRC BEDA4C90
Track not present in AccurateRip database
Copy OK

Track 8

Filename A:\PsPBuRnOuT's MUSIC\SORTED BY YEAR\NOW MUSIC\NOW - 100 HITS - CHRISTMAS\NOW - 100 HITS - CHRISTMAS - CD3\08.Engelbert Humperdinck - Winter World Of Love.wav

Peak level 88.0 %
Extraction speed 14.0 X
Track quality 100.0 %
Copy CRC 4783BC3A
Track not present in AccurateRip database
Copy OK

Track 9

Filename A:\PsPBuRnOuT's MUSIC\SORTED BY YEAR\NOW MUSIC\NOW - 100 HITS - CHRISTMAS\NOW - 100 HITS - CHRISTMAS - CD3\09.Jim Reeves - Senor Santa Claus.wav

Peak level 89.1 %
Extraction speed 13.8 X
Track quality 100.0 %
Copy CRC 5FD265C7
Track not present in AccurateRip database
Copy OK

Track 10

Filename A:\PsPBuRnOuT's MUSIC\SORTED BY YEAR\NOW MUSIC\NOW - 100 HITS - CHRISTMAS\NOW - 100 HITS - CHRISTMAS - CD3\10.Perry Como - The Twelve Days Of Christmas.wav

Peak level 89.1 %
Extraction speed 14.9 X
Track quality 100.0 %
Copy CRC 345ECA6D
Track not present in AccurateRip database
Copy OK

Track 11

Filename A:\PsPBuRnOuT's MUSIC\SORTED BY YEAR\NOW MUSIC\NOW - 100 HITS - CHRISTMAS\NOW - 100 HITS - CHRISTMAS - CD3\11.Doris Day - The Christmas Waltz.wav

Peak level 89.1 %
Extraction speed 15.6 X
Track quality 100.0 %
Copy CRC 9408328D
Track not present in AccurateRip database
Copy OK

Track 12

Filename A:\PsPBuRnOuT's MUSIC\SORTED BY YEAR\NOW MUSIC\NOW - 100 HITS - CHRISTMAS\NOW - 100 HITS - CHRISTMAS - CD3\12.Peggy Lee - It's Christmas Time Again.wav

Peak level 89.1 %
Extraction speed 16.1 X
Track quality 100.0 %
Copy CRC 6756C0E3
Track not present in AccurateRip database
Copy OK

Track 13

Filename A:\PsPBuRnOuT's MUSIC\SORTED BY YEAR\NOW MUSIC\NOW - 100 HITS - CHRISTMAS\NOW - 100 HITS - CHRISTMAS - CD3\13.Tony Bennett - Christmas Time Is Here.wav

Peak level 89.1 %
Extraction speed 16.4 X
Track quality 100.0 %
Copy CRC 199E1A43
Track not present in AccurateRip database
Copy OK

Track 14

Filename A:\PsPBuRnOuT's MUSIC\SORTED BY YEAR\NOW MUSIC\NOW - 100 HITS - CHRISTMAS\NOW - 100 HITS - CHRISTMAS - CD3\14.Julie London - I'd like You For Christmas.wav

Peak level 82.2 %
Extraction speed 17.2 X
Track quality 100.0 %
Copy CRC 9C7A7646
Track not present in AccurateRip database
Copy OK

Track 15

Filename A:\PsPBuRnOuT's MUSIC\SORTED BY YEAR\NOW MUSIC\NOW - 100 HITS - CHRISTMAS\NOW - 100 HITS - CHRISTMAS - CD3\15.Petula Clark - Christmas Cards.wav

Peak level 89.1 %
Extraction speed 16.2 X
Track quality 100.0 %
Copy CRC A875DF60
Track not present in AccurateRip database
Copy OK

Track 16

Filename A:\PsPBuRnOuT's MUSIC\SORTED BY YEAR\NOW MUSIC\NOW - 100 HITS - CHRISTMAS\NOW - 100 HITS - CHRISTMAS - CD3\16.Mike Oldfield - In Dulci Jubilo.wav

Peak level 78.5 %
Extraction speed 16.7 X
Track quality 99.8 %
Copy CRC ED669B51
Track not present in AccurateRip database
Copy OK

Track 17

Filename A:\PsPBuRnOuT's MUSIC\SORTED BY YEAR\NOW MUSIC\NOW - 100 HITS - CHRISTMAS\NOW - 100 HITS - CHRISTMAS - CD3\17.Chris De Burgh - A Spaceman Came Travelling.wav

Peak level 85.8 %
Extraction speed 17.3 X
Track quality 99.9 %
Copy CRC A6A53595
Track not present in AccurateRip database
Copy OK

Track 18

Filename A:\PsPBuRnOuT's MUSIC\SORTED BY YEAR\NOW MUSIC\NOW - 100 HITS - CHRISTMAS\NOW - 100 HITS - CHRISTMAS - CD3\18.Pentatonix - Mary, Did You Know.wav

Peak level 84.0 %
Extraction speed 17.7 X
Track quality 100.0 %
Copy CRC 3FF66AC0
Track not present in AccurateRip database
Copy OK

Track 19

Filename A:\PsPBuRnOuT's MUSIC\SORTED BY YEAR\NOW MUSIC\NOW - 100 HITS - CHRISTMAS\NOW - 100 HITS - CHRISTMAS - CD3\19.Frankie Goes To Hollywood - The Power Of Love.wav

Peak level 78.0 %
Extraction speed 18.4 X
Track quality 100.0 %
Copy CRC 284141CD
Track not present in AccurateRip database
Copy OK

Track 20

Filename A:\PsPBuRnOuT's MUSIC\SORTED BY YEAR\NOW MUSIC\NOW - 100 HITS - CHRISTMAS\NOW - 100 HITS - CHRISTMAS - CD3\20.Celine Dion - O Holy Night.wav

Peak level 83.6 %
Extraction speed 19.0 X
Track quality 100.0 %
Copy CRC 73087D9E
Track not present in AccurateRip database
Copy OK


None of the tracks are present in the AccurateRip database

No errors occurred

End of status report

–– CUETools DB Plugin V2.1.6

[CTDB TOCID: T5n1VzCC7rN5vsFRiqZiwpOlBpk-] found
Submit result: T5n1VzCC7rN5vsFRiqZiwpOlBpk- has been confirmed
Track | CTDB Status
1 | (2/2) Accurately ripped
2 | (2/2) Accurately ripped
3 | (2/2) Accurately ripped
4 | (2/2) Accurately ripped
5 | (2/2) Accurately ripped
6 | (2/2) Accurately ripped
7 | (2/2) Accurately ripped
8 | (2/2) Accurately ripped
9 | (2/2) Accurately ripped
10 | (2/2) Accurately ripped
11 | (2/2) Accurately ripped
12 | (2/2) Accurately ripped
13 | (2/2) Accurately ripped
14 | (2/2) Accurately ripped
15 | (2/2) Accurately ripped
16 | (2/2) Accurately ripped
17 | (2/2) Accurately ripped
18 | (2/2) Accurately ripped
19 | (2/2) Accurately ripped
20 | (2/2) Accurately ripped

Exact Audio Copy V1.3 from 2. September 2016

EAC extraction logfile from 1. December 2019, 22:06

Various / Now - 100 Hits - Christmas - CD4

Used drive : ATAPI iHAS124 Y Adapter: 1 ID: 0

Read mode : Secure
Utilize accurate stream : Yes
Defeat audio cache : No
Make use of C2 pointers : Yes

Read offset correction : 48
Overread into Lead-In and Lead-Out : No
Fill up missing offset samples with silence : Yes
Delete leading and trailing silent blocks : No
Null samples used in CRC calculations : Yes
Used interface : Native Win32 interface for Win NT & 2000
Gap handling : Not detected, thus appended to previous track

Used output format : User Defined Encoder
Selected bitrate : 768 kBit/s
Quality : High
Add ID3 tag : No
Command line compressor : C:\Program Files (x86)\Exact Audio Copy\FLAC\FLAC.EXE
Additional command line options : -6 -V -T "ARTIST=%artist%" -T "TITLE=%title%" -T "ALBUM=%albumtitle%" -T "DATE=%year%" -T "TRACKNUMBER=%tracknr%" -T "GENRE=%genre%" -T "COMMENT=%comment%" -T "BAND=%albuminterpret%" -T "ALBUMARTIST=%albuminterpret%" -T "COMPOSER=%composer%" %haslyrics%–tag-from-file=LYRICS="%lyricsfile%"%haslyrics% -T "DISCNUMBER=%cdnumber%" -T "TOTALDISCS=%totalcds%" -T "TOTALTRACKS=%numtracks%" %hascover%–picture="%coverfile%"%hascover% %source% -o %dest%


TOC of the extracted CD

Track | Start | Length | Start sector | End sector
––––––––––––––––––––––––––––-
1 | 0:00.00 | 3:43.10 | 0 | 16734
2 | 3:43.10 | 3:00.18 | 16735 | 30252
3 | 6:43.28 | 1:46.27 | 30253 | 38229
4 | 8:29.55 | 2:18.44 | 38230 | 48623
5 | 10:48.24 | 2:53.07 | 48624 | 61605
6 | 13:41.31 | 2:47.30 | 61606 | 74160
7 | 16:28.61 | 4:04.03 | 74161 | 92463
8 | 20:32.64 | 2:45.02 | 92464 | 104840
9 | 23:17.66 | 1:55.27 | 104841 | 113492
10 | 25:13.18 | 2:53.33 | 113493 | 126500
11 | 28:06.51 | 2:24.18 | 126501 | 137318
12 | 30:30.69 | 1:58.10 | 137319 | 146178
13 | 32:29.04 | 2:24.71 | 146179 | 157049
14 | 34:54.00 | 2:20.09 | 157050 | 167558
15 | 37:14.09 | 2:26.50 | 167559 | 178558
16 | 39:40.59 | 3:17.19 | 178559 | 193352
17 | 42:58.03 | 2:53.73 | 193353 | 206400
18 | 45:52.01 | 2:32.44 | 206401 | 217844
19 | 48:24.45 | 2:45.42 | 217845 | 230261
20 | 51:10.12 | 3:30.26 | 230262 | 246037


Track 1

Filename A:\PsPBuRnOuT's MUSIC\SORTED BY YEAR\NOW MUSIC\NOW - 100 HITS - CHRISTMAS\NOW - 100 HITS - CHRISTMAS - CD4\01.Johnny Mathis - When A Child Is Born.wav

Peak level 86.1 %
Extraction speed 13.2 X
Track quality 100.0 %
Copy CRC 5B4F4137
Track not present in AccurateRip database
Copy OK

Track 2

Filename A:\PsPBuRnOuT's MUSIC\SORTED BY YEAR\NOW MUSIC\NOW - 100 HITS - CHRISTMAS\NOW - 100 HITS - CHRISTMAS - CD4\02.Jackson Five - I Saw Mommy Kissing Santa Claus.wav

Peak level 81.2 %
Extraction speed 18.0 X
Track quality 100.0 %
Copy CRC 43E37F36
Track not present in AccurateRip database
Copy OK

Track 3

Filename A:\PsPBuRnOuT's MUSIC\SORTED BY YEAR\NOW MUSIC\NOW - 100 HITS - CHRISTMAS\NOW - 100 HITS - CHRISTMAS - CD4\03.Henry Mancini - Baby, It's Cold Outside.wav

Peak level 89.1 %
Extraction speed 18.8 X
Track quality 100.0 %
Copy CRC 80E36283
Track not present in AccurateRip database
Copy OK

Track 4

Filename A:\PsPBuRnOuT's MUSIC\SORTED BY YEAR\NOW MUSIC\NOW - 100 HITS - CHRISTMAS\NOW - 100 HITS - CHRISTMAS - CD4\04.Ella Fitzgerald - Christmas Island.wav

Peak level 89.1 %
Extraction speed 19.7 X
Track quality 100.0 %
Copy CRC 19DC0297
Track not present in AccurateRip database
Copy OK

Track 5

Filename A:\PsPBuRnOuT's MUSIC\SORTED BY YEAR\NOW MUSIC\NOW - 100 HITS - CHRISTMAS\NOW - 100 HITS - CHRISTMAS - CD4\05.James Brown - Christmas In Heaven.wav

Peak level 74.5 %
Extraction speed 22.2 X
Track quality 100.0 %
Copy CRC 4DBBEF0C
Track not present in AccurateRip database
Copy OK

Track 6

Filename A:\PsPBuRnOuT's MUSIC\SORTED BY YEAR\NOW MUSIC\NOW - 100 HITS - CHRISTMAS\NOW - 100 HITS - CHRISTMAS - CD4\06.Jim Reeves - C-H-R-I-S-T-M-A-S.wav

Peak level 80.0 %
Extraction speed 23.4 X
Track quality 100.0 %
Copy CRC 5D925398
Track not present in AccurateRip database
Copy OK

Track 7

Filename A:\PsPBuRnOuT's MUSIC\SORTED BY YEAR\NOW MUSIC\NOW - 100 HITS - CHRISTMAS\NOW - 100 HITS - CHRISTMAS - CD4\07.Burl Ives - O Little Town Of Bethlehem.wav

Peak level 89.1 %
Extraction speed 23.3 X
Track quality 100.0 %
Copy CRC 7780C29C
Track not present in AccurateRip database
Copy OK

Track 8

Filename A:\PsPBuRnOuT's MUSIC\SORTED BY YEAR\NOW MUSIC\NOW - 100 HITS - CHRISTMAS\NOW - 100 HITS - CHRISTMAS - CD4\08.Perry Como - O Come All Ye Faithful.wav

Peak level 73.6 %
Extraction speed 24.1 X
Track quality 100.0 %
Copy CRC FB1A80AB
Track not present in AccurateRip database
Copy OK

Track 9

Filename A:\PsPBuRnOuT's MUSIC\SORTED BY YEAR\NOW MUSIC\NOW - 100 HITS - CHRISTMAS\NOW - 100 HITS - CHRISTMAS - CD4\09.Elvis Presley - Here Comes Santa Claus (Right Down Santa Claus Lane).wav

Peak level 85.8 %
Extraction speed 18.9 X
Track quality 99.8 %
Copy CRC D2C357AA
Track not present in AccurateRip database
Copy OK

Track 10

Filename A:\PsPBuRnOuT's MUSIC\SORTED BY YEAR\NOW MUSIC\NOW - 100 HITS - CHRISTMAS\NOW - 100 HITS - CHRISTMAS - CD4\10.Bing Crosby & The Andrews Sisters - Mele Kalikimaka.wav

Peak level 88.8 %
Extraction speed 19.8 X
Track quality 100.0 %
Copy CRC 3C9CF08D
Track not present in AccurateRip database
Copy OK

Track 11

Filename A:\PsPBuRnOuT's MUSIC\SORTED BY YEAR\NOW MUSIC\NOW - 100 HITS - CHRISTMAS\NOW - 100 HITS - CHRISTMAS - CD4\11.Darlene Love - Marshmallow World.wav

Peak level 87.3 %
Extraction speed 26.6 X
Track quality 100.0 %
Copy CRC EF1EA59C
Track not present in AccurateRip database
Copy OK

Track 12

Filename A:\PsPBuRnOuT's MUSIC\SORTED BY YEAR\NOW MUSIC\NOW - 100 HITS - CHRISTMAS\NOW - 100 HITS - CHRISTMAS - CD4\12.Beach Boys - Little Saint Nick.wav

Peak level 88.7 %
Extraction speed 26.7 X
Track quality 100.0 %
Copy CRC 0BA8C584
Track not present in AccurateRip database
Copy OK

Track 13

Filename A:\PsPBuRnOuT's MUSIC\SORTED BY YEAR\NOW MUSIC\NOW - 100 HITS - CHRISTMAS\NOW - 100 HITS - CHRISTMAS - CD4\13.Kacey Musgraves - I Want A Hippopotamus For Christmas.wav

Peak level 53.7 %
Extraction speed 27.4 X
Track quality 100.0 %
Copy CRC 49777402
Track not present in AccurateRip database
Copy OK

Track 14

Filename A:\PsPBuRnOuT's MUSIC\SORTED BY YEAR\NOW MUSIC\NOW - 100 HITS - CHRISTMAS\NOW - 100 HITS - CHRISTMAS - CD4\14.Peggy Lee - Ring Those Christmas Bells.wav

Peak level 79.7 %
Extraction speed 28.2 X
Track quality 100.0 %
Copy CRC 4D7F88B5
Track not present in AccurateRip database
Copy OK

Track 15

Filename A:\PsPBuRnOuT's MUSIC\SORTED BY YEAR\NOW MUSIC\NOW - 100 HITS - CHRISTMAS\NOW - 100 HITS - CHRISTMAS - CD4\15.The Weavers - We Wish You A Merry Christmas.wav

Peak level 89.1 %
Extraction speed 31.1 X
Track quality 100.0 %
Copy CRC E7049DAF
Track not present in AccurateRip database
Copy OK

Track 16

Filename A:\PsPBuRnOuT's MUSIC\SORTED BY YEAR\NOW MUSIC\NOW - 100 HITS - CHRISTMAS\NOW - 100 HITS - CHRISTMAS - CD4\16.Bing Crosby - White Christmas.wav

Peak level 67.5 %
Extraction speed 25.1 X
Track quality 99.8 %
Copy CRC F100D278
Track not present in AccurateRip database
Copy OK

Track 17

Filename A:\PsPBuRnOuT's MUSIC\SORTED BY YEAR\NOW MUSIC\NOW - 100 HITS - CHRISTMAS\NOW - 100 HITS - CHRISTMAS - CD4\17.Dean Martin - The Christmas Blues.wav

Peak level 87.4 %
Extraction speed 19.6 X
Track quality 99.8 %
Copy CRC AA23F1FA
Track not present in AccurateRip database
Copy OK

Track 18

Filename A:\PsPBuRnOuT's MUSIC\SORTED BY YEAR\NOW MUSIC\NOW - 100 HITS - CHRISTMAS\NOW - 100 HITS - CHRISTMAS - CD4\18.Nat King Cole - The Little Boy That Santa Claus Forgot.wav

Peak level 89.1 %
Extraction speed 22.2 X
Track quality 100.0 %
Copy CRC 232FC1B6
Track not present in AccurateRip database
Copy OK

Track 19

Filename A:\PsPBuRnOuT's MUSIC\SORTED BY YEAR\NOW MUSIC\NOW - 100 HITS - CHRISTMAS\NOW - 100 HITS - CHRISTMAS - CD4\19.Sam Smith - Have Yourself A Merry Little Christmas.wav

Peak level 71.4 %
Extraction speed 31.9 X
Track quality 100.0 %
Copy CRC DB9D9AD1
Track not present in AccurateRip database
Copy OK

Track 20

Filename A:\PsPBuRnOuT's MUSIC\SORTED BY YEAR\NOW MUSIC\NOW - 100 HITS - CHRISTMAS\NOW - 100 HITS - CHRISTMAS - CD4\20.Peter Auty - Walking In The Air.wav

Peak level 86.2 %
Extraction speed 27.3 X
Track quality 99.8 %
Copy CRC 1D760E5A
Track not present in AccurateRip database
Copy OK


None of the tracks are present in the AccurateRip database

No errors occurred

End of status report

–– CUETools DB Plugin V2.1.6

[CTDB TOCID: .yR811UDdZW_jv5Lm.pJJf0WA5I-] found
Submit result: .yR811UDdZW_jv5Lm.pJJf0WA5I- has been confirmed
Track | CTDB Status
1 | (2/2) Accurately ripped
2 | (2/2) Accurately ripped
3 | (2/2) Accurately ripped
4 | (2/2) Accurately ripped
5 | (2/2) Accurately ripped
6 | (2/2) Accurately ripped
7 | (2/2) Accurately ripped
8 | (2/2) Accurately ripped
9 | (2/2) Accurately ripped
10 | (2/2) Accurately ripped
11 | (2/2) Accurately ripped
12 | (2/2) Accurately ripped
13 | (2/2) Accurately ripped
14 | (2/2) Accurately ripped
15 | (2/2) Accurately ripped
16 | (2/2) Accurately ripped
17 | (2/2) Accurately ripped
18 | (2/2) Accurately ripped
19 | (2/2) Accurately ripped
20 | (2/2) Accurately ripped

Exact Audio Copy V1.3 from 2. September 2016

EAC extraction logfile from 1. December 2019, 22:29

Various / Now - 100 Hits - Christmas - CD5

Used drive : ATAPI iHAS124 Y Adapter: 1 ID: 0

Read mode : Secure
Utilize accurate stream : Yes
Defeat audio cache : No
Make use of C2 pointers : Yes

Read offset correction : 48
Overread into Lead-In and Lead-Out : No
Fill up missing offset samples with silence : Yes
Delete leading and trailing silent blocks : No
Null samples used in CRC calculations : Yes
Used interface : Native Win32 interface for Win NT & 2000
Gap handling : Not detected, thus appended to previous track

Used output format : User Defined Encoder
Selected bitrate : 768 kBit/s
Quality : High
Add ID3 tag : No
Command line compressor : C:\Program Files (x86)\Exact Audio Copy\FLAC\FLAC.EXE
Additional command line options : -6 -V -T "ARTIST=%artist%" -T "TITLE=%title%" -T "ALBUM=%albumtitle%" -T "DATE=%year%" -T "TRACKNUMBER=%tracknr%" -T "GENRE=%genre%" -T "COMMENT=%comment%" -T "BAND=%albuminterpret%" -T "ALBUMARTIST=%albuminterpret%" -T "COMPOSER=%composer%" %haslyrics%–tag-from-file=LYRICS="%lyricsfile%"%haslyrics% -T "DISCNUMBER=%cdnumber%" -T "TOTALDISCS=%totalcds%" -T "TOTALTRACKS=%numtracks%" %hascover%–picture="%coverfile%"%hascover% %source% -o %dest%


TOC of the extracted CD

Track | Start | Length | Start sector | End sector
––––––––––––––––––––––––––––-
1 | 0:00.00 | 4:11.67 | 0 | 18891
2 | 4:11.67 | 4:12.61 | 18892 | 37852
3 | 8:24.53 | 4:15.39 | 37853 | 57016
4 | 12:40.17 | 4:02.06 | 57017 | 75172
5 | 16:42.23 | 3:29.70 | 75173 | 90917
6 | 20:12.18 | 4:13.11 | 90918 | 109903
7 | 24:25.29 | 2:41.61 | 109904 | 122039
8 | 27:07.15 | 4:13.42 | 122040 | 141056
9 | 31:20.57 | 3:38.45 | 141057 | 157451
10 | 34:59.27 | 3:52.60 | 157452 | 174911
11 | 38:52.12 | 2:42.24 | 174912 | 187085
12 | 41:34.36 | 3:02.09 | 187086 | 200744
13 | 44:36.45 | 3:40.44 | 200745 | 217288
14 | 48:17.14 | 3:59.46 | 217289 | 235259
15 | 52:16.60 | 3:22.10 | 235260 | 250419
16 | 55:38.70 | 3:36.27 | 250420 | 266646
17 | 59:15.22 | 4:10.58 | 266647 | 285454
18 | 63:26.05 | 3:31.38 | 285455 | 301317
19 | 66:57.43 | 2:42.01 | 301318 | 313468
20 | 69:39.44 | 4:23.69 | 313469 | 333262


Track 1

Filename A:\PsPBuRnOuT's MUSIC\SORTED BY YEAR\NOW MUSIC\NOW - 100 HITS - CHRISTMAS\NOW - 100 HITS - CHRISTMAS - CD5\01.Whitney Houston - One Wish (For Christmas).wav

Peak level 83.2 %
Extraction speed 15.2 X
Track quality 100.0 %
Copy CRC E054E2D8
Track not present in AccurateRip database
Copy OK

Track 2

Filename A:\PsPBuRnOuT's MUSIC\SORTED BY YEAR\NOW MUSIC\NOW - 100 HITS - CHRISTMAS\NOW - 100 HITS - CHRISTMAS - CD5\02.Backstreet Boys - Christmas Time.wav

Peak level 78.8 %
Extraction speed 21.2 X
Track quality 100.0 %
Copy CRC 1D39A0AF
Track not present in AccurateRip database
Copy OK

Track 3

Filename A:\PsPBuRnOuT's MUSIC\SORTED BY YEAR\NOW MUSIC\NOW - 100 HITS - CHRISTMAS\NOW - 100 HITS - CHRISTMAS - CD5\03.Britney Spears - My Only Wish (This Year).wav

Peak level 74.3 %
Extraction speed 21.8 X
Track quality 100.0 %
Copy CRC 2A628DD9
Track not present in AccurateRip database
Copy OK

Track 4

Filename A:\PsPBuRnOuT's MUSIC\SORTED BY YEAR\NOW MUSIC\NOW - 100 HITS - CHRISTMAS\NOW - 100 HITS - CHRISTMAS - CD5\04.Christina Aguilera - This Christmas.wav

Peak level 89.1 %
Extraction speed 23.5 X
Track quality 100.0 %
Copy CRC 67DA5F95
Track not present in AccurateRip database
Copy OK

Track 5

Filename A:\PsPBuRnOuT's MUSIC\SORTED BY YEAR\NOW MUSIC\NOW - 100 HITS - CHRISTMAS\NOW - 100 HITS - CHRISTMAS - CD5\05.Destiny's Child - 8 Days Of Christmas.wav

Peak level 89.1 %
Extraction speed 24.7 X
Track quality 100.0 %
Copy CRC 75745362
Track not present in AccurateRip database
Copy OK

Track 6

Filename A:\PsPBuRnOuT's MUSIC\SORTED BY YEAR\NOW MUSIC\NOW - 100 HITS - CHRISTMAS\NOW - 100 HITS - CHRISTMAS - CD5\06.*NSYNC - Merry Christmas, Happy Holidays.wav

Peak level 78.3 %
Extraction speed 27.2 X
Track quality 100.0 %
Copy CRC 96ED81E3
Track not present in AccurateRip database
Copy OK

Track 7

Filename A:\PsPBuRnOuT's MUSIC\SORTED BY YEAR\NOW MUSIC\NOW - 100 HITS - CHRISTMAS\NOW - 100 HITS - CHRISTMAS - CD5\07.Jessie J - Man With The Bag.wav

Peak level 74.9 %
Extraction speed 26.8 X
Track quality 100.0 %
Copy CRC EF8C1C67
Track not present in AccurateRip database
Copy OK

Track 8

Filename A:\PsPBuRnOuT's MUSIC\SORTED BY YEAR\NOW MUSIC\NOW - 100 HITS - CHRISTMAS\NOW - 100 HITS - CHRISTMAS - CD5\08.John Legend - Merry Merry Christmas.wav

Peak level 75.8 %
Extraction speed 28.1 X
Track quality 100.0 %
Copy CRC 800BA49B
Track not present in AccurateRip database
Copy OK

Track 9

Filename A:\PsPBuRnOuT's MUSIC\SORTED BY YEAR\NOW MUSIC\NOW - 100 HITS - CHRISTMAS\NOW - 100 HITS - CHRISTMAS - CD5\09.KT Tunstall - 2000 Miles.wav

Peak level 72.0 %
Extraction speed 24.7 X
Track quality 99.9 %
Copy CRC AD96BF3B
Track not present in AccurateRip database
Copy OK

Track 10

Filename A:\PsPBuRnOuT's MUSIC\SORTED BY YEAR\NOW MUSIC\NOW - 100 HITS - CHRISTMAS\NOW - 100 HITS - CHRISTMAS - CD5\10.Train - Shake Up Christmas.wav

Peak level 73.5 %
Extraction speed 23.5 X
Track quality 100.0 %
Copy CRC DD830962
Track not present in AccurateRip database
Copy OK

Track 11

Filename A:\PsPBuRnOuT's MUSIC\SORTED BY YEAR\NOW MUSIC\NOW - 100 HITS - CHRISTMAS\NOW - 100 HITS - CHRISTMAS - CD5\11.Girls Aloud - Not Tonight Santa.wav

Peak level 70.8 %
Extraction speed 33.0 X
Track quality 100.0 %
Copy CRC 7D78A3B7
Track not present in AccurateRip database
Copy OK

Track 12

Filename A:\PsPBuRnOuT's MUSIC\SORTED BY YEAR\NOW MUSIC\NOW - 100 HITS - CHRISTMAS\NOW - 100 HITS - CHRISTMAS - CD5\12.Aretha Franklin - Joy To The World.wav

Peak level 89.1 %
Extraction speed 31.7 X
Track quality 100.0 %
Copy CRC 6E2D2876
Track not present in AccurateRip database
Copy OK

Track 13

Filename A:\PsPBuRnOuT's MUSIC\SORTED BY YEAR\NOW MUSIC\NOW - 100 HITS - CHRISTMAS\NOW - 100 HITS - CHRISTMAS - CD5\13.Cyndi Lauper - Early Christmas Morning.wav

Peak level 86.8 %
Extraction speed 34.4 X
Track quality 100.0 %
Copy CRC 4170CD94
Track not present in AccurateRip database
Copy OK

Track 14

Filename A:\PsPBuRnOuT's MUSIC\SORTED BY YEAR\NOW MUSIC\NOW - 100 HITS - CHRISTMAS\NOW - 100 HITS - CHRISTMAS - CD5\14.Smokey Robinson & The Miracles - Christmas Lullaby.wav

Peak level 89.1 %
Extraction speed 28.4 X
Track quality 99.9 %
Copy CRC A25D7D6C
Track not present in AccurateRip database
Copy OK

Track 15

Filename A:\PsPBuRnOuT's MUSIC\SORTED BY YEAR\NOW MUSIC\NOW - 100 HITS - CHRISTMAS\NOW - 100 HITS - CHRISTMAS - CD5\15.Marvin Gaye - I Want To Come Home For Christmas.wav

Peak level 89.1 %
Extraction speed 27.3 X
Track quality 100.0 %
Copy CRC 9AE95165
Track not present in AccurateRip database
Copy OK

Track 16

Filename A:\PsPBuRnOuT's MUSIC\SORTED BY YEAR\NOW MUSIC\NOW - 100 HITS - CHRISTMAS\NOW - 100 HITS - CHRISTMAS - CD5\16.Luther Vandross - Please Come Home For Christmas.wav

Peak level 88.6 %
Extraction speed 28.9 X
Track quality 99.9 %
Copy CRC DBC688F9
Track not present in AccurateRip database
Copy OK

Track 17

Filename A:\PsPBuRnOuT's MUSIC\SORTED BY YEAR\NOW MUSIC\NOW - 100 HITS - CHRISTMAS\NOW - 100 HITS - CHRISTMAS - CD5\17.David Essex - A Winter's Tale.wav

Peak level 89.1 %
Extraction speed 24.8 X
Track quality 99.9 %
Copy CRC 3E44E0E3
Track not present in AccurateRip database
Copy OK

Track 18

Filename A:\PsPBuRnOuT's MUSIC\SORTED BY YEAR\NOW MUSIC\NOW - 100 HITS - CHRISTMAS\NOW - 100 HITS - CHRISTMAS - CD5\18.Whitney Houston - Do You Hear What I Hear.wav

Peak level 76.6 %
Extraction speed 27.6 X
Track quality 100.0 %
Copy CRC 90E7935D
Track not present in AccurateRip database
Copy OK

Track 19

Filename A:\PsPBuRnOuT's MUSIC\SORTED BY YEAR\NOW MUSIC\NOW - 100 HITS - CHRISTMAS\NOW - 100 HITS - CHRISTMAS - CD5\19.Susan Boyle - Auld Lang Syne.wav

Peak level 77.4 %
Extraction speed 39.8 X
Track quality 100.0 %
Copy CRC 3760F289
Track not present in AccurateRip database
Copy OK

Track 20

Filename A:\PsPBuRnOuT's MUSIC\SORTED BY YEAR\NOW MUSIC\NOW - 100 HITS - CHRISTMAS\NOW - 100 HITS - CHRISTMAS - CD5\20.Abba - Happy New Year.wav

Peak level 79.2 %
Extraction speed 40.4 X
Track quality 100.0 %
Copy CRC 6AC73760
Track not present in AccurateRip database
Copy OK


None of the tracks are present in the AccurateRip database

No errors occurred

End of status report

–– CUETools DB Plugin V2.1.6

[CTDB TOCID: m8QUO9b5JhJC55IgvwVSDMZC8TM-] found
Submit result: m8QUO9b5JhJC55IgvwVSDMZC8TM- has been confirmed
Track | CTDB Status
1 | (2/2) Accurately ripped
2 | (2/2) Accurately ripped
3 | (2/2) Accurately ripped
4 | (2/2) Accurately ripped
5 | (2/2) Accurately ripped
6 | (2/2) Accurately ripped
7 | (2/2) Accurately ripped
8 | (2/2) Accurately ripped
9 | (2/2) Accurately ripped
10 | (2/2) Accurately ripped
11 | (2/2) Accurately ripped
12 | (2/2) Accurately ripped
13 | (2/2) Accurately ripped
14 | (2/2) Accurately ripped
15 | (2/2) Accurately ripped
16 | (2/2) Accurately ripped
17 | (2/2) Accurately ripped
18 | (2/2) Accurately ripped
19 | (2/2) Accurately ripped
20 | (2/2) Accurately ripped