Subcategories

VA - Roots 'N' Culture: 21 Mighty Reggae Cuts (1993) Reissue 1997

Posted By: Designol
VA - Roots 'N' Culture: 21 Mighty Reggae Cuts (1993) Reissue 1997

VA - Roots 'N' Culture: 21 Mighty Reggae Cuts (1993) Reissue 1997
EAC | FLAC | Tracks (Cue&Log) ~ 402 Mb (incl 5%) | Mp3 (CBR320) ~ 182 Mb (incl 5%) | Scans ~ 97 Mb
Genre: Reggae | Label: Nascente | # NSCD016 | Time: 01:15:45

This set, with its powerful melodies, brilliant playing (note the superb horns) and all round attitude, is a sparkling reminder of how reggae sounded when it first influenced the world music scene in the Seventies. But it afso bears testimony to the sophisticated consciousness, wisdom and Afrocentric worldview that were the trademarks of the Rasta rebel soul at that time. This music had weight.

That 'Roots' and 'Culture' became pilloried cliches at the beginning of the 80s says something about the rot that had set in at the heart of reggae - and just as much about, how times had changed. The idea of Roots - kind of personified by Alex Haley's mid-Seventies book and TV series of the same period - typified the search for an African identity, after centuries of physical and then economic slavery, amongst Jamaican youth.

Since the dawning of the rastafarian movement, since the 1920s and Marcus Garvey and other great clarion voices call for repatriation, since the groundbreaking visit of Ethiopia's fable king of kings, lord of lords His Imperial Majesty Haile Selassie to Jamaica in the late 60s, sinca these times, a vision of world order, shaped by remnants of colonial Christianity. African-derived history and mysticism, and honed by the everyday experience of impoverished youth in the Kingston ghettos, had evolved.

This new voice burst out of the ghettos and rattled the coffee cups throughout Jamaica's middle and ruling classes. When through the network of ex-pats and their children this voice began to make its presence felt 'inna Babylon' (Rastafarian biblical lingo for the western industrialised countries, and especially Britain and the USA), the rebel youth with their spidery dreadlocks, 'Natty Dread' style, clouds of ganja smoke and roots of reggae consciousness were in a position of unprecedented political power.

Tracklist:

01. Mighty Diamonds - Right Time (03:17)
02. Big Youth - Train To Rhodesia (03:33)
03. Peter Tosh - Legalize It (04:37)
04. Johnny Clarke - Rockers Time Now (03:28)
05. Culture - International Herb (03:21)
06. Twinkle Brothers - Never Get Burn (03:28)
07. Gregory Isaacs - Universal Tribulation (03:47)
08. Abyssinians - Jah Loves (04:04)
09. Prince Far I - Message From The King (03:28)
10. Gladiators - Soul Rebel (03:55)
11. Big Youth - House Of Dreadlocks (03:16)
12. Twinkle Brothers - Free Africa (04:46)
13. Sly Dunbar & The Tamlins - Sun Is Shining (03:04)
14. Johnny Clarke - Roots, Natty Roots, Natty Congo (03:13)
15. Culture - Behold (04:33)
16. Johnny Clarke - Declaration Of Rights (03:18)
17. Gladiators - Looks Is Deceiving (02:31)
18. Delroy Washington - Freedom Fighters (03:44)
19. Twinkle Brothers - Since I Threw The Comb Away (02:58)
20. Mighty Diamonds - Africa (03:10)
21. Linton Kwesi Johnson - It Dread Inna Inglan (For George Lindo) (04:04)


Exact Audio Copy V1.0 beta 1 from 15. November 2010

EAC extraction logfile from 28. June 2015, 19:30

Various / Roots 'N' Culture (21 Mighty Reggae Cuts)

Used drive : TSSTcorpCDDVDW SH-224DB Adapter: 1 ID: 0

Read mode : Secure
Utilize accurate stream : Yes
Defeat audio cache : Yes
Make use of C2 pointers : No

Read offset correction : 6
Overread into Lead-In and Lead-Out : No
Fill up missing offset samples with silence : Yes
Delete leading and trailing silent blocks : No
Null samples used in CRC calculations : Yes
Used interface : Native Win32 interface for Win NT & 2000
Gap handling : Appended to previous track

Used output format : User Defined Encoder
Selected bitrate : 896 kBit/s
Quality : High
Add ID3 tag : No
Command line compressor : C:\Program Files\Exact Audio Copy\Flac\flac.exe
Additional command line options : -6 -V -T "ARTIST=%a" -T "TITLE=%t" -T "ALBUM=%g" -T "DATE=%y" -T "TRACKNUMBER=%n" -T "GENRE=%m" -T "COMMENT=%e" %s -o %d


TOC of the extracted CD

Track | Start | Length | Start sector | End sector
––––––––––––––––––––––––––––-
1 | 0:00.00 | 3:17.27 | 0 | 14801
2 | 3:17.27 | 3:33.45 | 14802 | 30821
3 | 6:50.72 | 4:37.45 | 30822 | 51641
4 | 11:28.42 | 3:28.03 | 51642 | 67244
5 | 14:56.45 | 3:21.20 | 67245 | 82339
6 | 18:17.65 | 3:28.62 | 82340 | 98001
7 | 21:46.52 | 3:47.05 | 98002 | 115031
8 | 25:33.57 | 4:04.13 | 115032 | 133344
9 | 29:37.70 | 3:28.62 | 133345 | 149006
10 | 33:06.57 | 3:55.23 | 149007 | 166654
11 | 37:02.05 | 3:16.55 | 166655 | 181409
12 | 40:18.60 | 4:46.55 | 181410 | 202914
13 | 45:05.40 | 3:04.40 | 202915 | 216754
14 | 48:10.05 | 3:13.52 | 216755 | 231281
15 | 51:23.57 | 4:33.58 | 231282 | 251814
16 | 55:57.40 | 3:18.32 | 251815 | 266696
17 | 59:15.72 | 2:31.03 | 266697 | 278024
18 | 61:47.00 | 3:44.02 | 278025 | 294826
19 | 65:31.02 | 2:58.58 | 294827 | 308234
20 | 68:29.60 | 3:10.37 | 308235 | 322521
21 | 71:40.22 | 4:04.35 | 322522 | 340856


Track 1

Filename C:\New Folder\01 - Mighty Diamonds - Right Time.wav

Pre-gap length 0:00:02.00

Peak level 93.3 %
Extraction speed 1.8 X
Track quality 100.0 %
Test CRC 57345A90
Copy CRC 57345A90
Accurately ripped (confidence 2) [342C57F2]
Copy OK

Track 2

Filename C:\New Folder\02 - Big Youth - Train To Rhodesia.wav

Pre-gap length 0:00:01.47

Peak level 89.4 %
Extraction speed 2.0 X
Track quality 100.0 %
Test CRC CB155C74
Copy CRC CB155C74
Accurately ripped (confidence 2) [28894AF9]
Copy OK

Track 3

Filename C:\New Folder\03 - Peter Tosh - Legalize It.wav

Pre-gap length 0:00:01.47

Peak level 91.1 %
Extraction speed 2.0 X
Track quality 99.9 %
Test CRC 8A9C1F29
Copy CRC 8A9C1F29
Accurately ripped (confidence 2) [605E403A]
Copy OK

Track 4

Filename C:\New Folder\04 - Johnny Clarke - Rockers Time Now.wav

Pre-gap length 0:00:01.47

Peak level 94.1 %
Extraction speed 2.3 X
Track quality 100.0 %
Test CRC 15A85A88
Copy CRC 15A85A88
Accurately ripped (confidence 2) [E6A4A779]
Copy OK

Track 5

Filename C:\New Folder\05 - Culture - International Herb.wav

Pre-gap length 0:00:01.48

Peak level 94.3 %
Extraction speed 2.4 X
Track quality 100.0 %
Test CRC 4CA1F277
Copy CRC 4CA1F277
Accurately ripped (confidence 2) [0645C124]
Copy OK

Track 6

Filename C:\New Folder\06 - Twinkle Brothers - Never Get Burn.wav

Pre-gap length 0:00:01.48

Peak level 91.0 %
Extraction speed 2.6 X
Track quality 100.0 %
Test CRC 43A305D7
Copy CRC 43A305D7
Accurately ripped (confidence 2) [207B75F4]
Copy OK

Track 7

Filename C:\New Folder\07 - Gregory Isaacs - Universal Tribulation.wav

Pre-gap length 0:00:01.47

Peak level 91.5 %
Extraction speed 2.7 X
Track quality 100.0 %
Test CRC 37AEDAF4
Copy CRC 37AEDAF4
Accurately ripped (confidence 2) [34B2D48F]
Copy OK

Track 8

Filename C:\New Folder\08 - Abyssinians - Jah Loves.wav

Pre-gap length 0:00:01.47

Peak level 88.8 %
Extraction speed 2.9 X
Track quality 100.0 %
Test CRC 0462A615
Copy CRC 0462A615
Accurately ripped (confidence 2) [0B5521CA]
Copy OK

Track 9

Filename C:\New Folder\09 - Prince Far I - Message From The King.wav

Pre-gap length 0:00:01.48

Peak level 80.4 %
Extraction speed 2.9 X
Track quality 100.0 %
Test CRC 15D980CC
Copy CRC 15D980CC
Accurately ripped (confidence 2) [08CDAB00]
Copy OK

Track 10

Filename C:\New Folder\10 - Gladiators - Soul Rebel.wav

Pre-gap length 0:00:01.47

Peak level 90.4 %
Extraction speed 3.1 X
Track quality 100.0 %
Test CRC A0416DBB
Copy CRC A0416DBB
Accurately ripped (confidence 2) [DD11BD01]
Copy OK

Track 11

Filename C:\New Folder\11 - Big Youth - House Of Dreadlocks.wav

Pre-gap length 0:00:01.48

Peak level 84.0 %
Extraction speed 3.1 X
Track quality 100.0 %
Test CRC 859BA59B
Copy CRC 859BA59B
Accurately ripped (confidence 2) [FC9F35BC]
Copy OK

Track 12

Filename C:\New Folder\12 - Twinkle Brothers - Free Africa.wav

Pre-gap length 0:00:01.48

Peak level 89.9 %
Extraction speed 3.4 X
Track quality 100.0 %
Test CRC C84D5CC7
Copy CRC C84D5CC7
Accurately ripped (confidence 2) [B9EB085E]
Copy OK

Track 13

Filename C:\New Folder\13 - Sly Dunbar & The Tamlins - Sun Is Shining.wav

Pre-gap length 0:00:01.48

Peak level 86.6 %
Extraction speed 3.2 X
Track quality 100.0 %
Test CRC 9ED246E6
Copy CRC 9ED246E6
Accurately ripped (confidence 2) [F27F3484]
Copy OK

Track 14

Filename C:\New Folder\14 - Johnny Clarke - Roots, Natty Roots, Natty Congo.wav

Pre-gap length 0:00:01.48

Peak level 85.0 %
Extraction speed 3.4 X
Track quality 100.0 %
Test CRC 2EBF6540
Copy CRC 2EBF6540
Accurately ripped (confidence 2) [BE4E55F3]
Copy OK

Track 15

Filename C:\New Folder\15 - Culture - Behold.wav

Pre-gap length 0:00:01.47

Peak level 92.8 %
Extraction speed 3.6 X
Track quality 100.0 %
Test CRC AA560252
Copy CRC AA560252
Accurately ripped (confidence 2) [07C7BD6B]
Copy OK

Track 16

Filename C:\New Folder\16 - Johnny Clarke - Declaration Of Rights.wav

Pre-gap length 0:00:01.48

Peak level 87.7 %
Extraction speed 3.5 X
Track quality 100.0 %
Test CRC 2A09FEB2
Copy CRC 2A09FEB2
Accurately ripped (confidence 2) [25DCDCD3]
Copy OK

Track 17

Filename C:\New Folder\17 - Gladiators - Looks Is Deceiving.wav

Pre-gap length 0:00:01.50

Peak level 84.9 %
Extraction speed 3.4 X
Track quality 100.0 %
Test CRC C5234818
Copy CRC C5234818
Accurately ripped (confidence 2) [AC63DFED]
Copy OK

Track 18

Filename C:\New Folder\18 - Delroy Washington - Freedom Fighters.wav

Pre-gap length 0:00:01.48

Peak level 89.0 %
Extraction speed 3.7 X
Track quality 100.0 %
Test CRC 528A3466
Copy CRC 528A3466
Accurately ripped (confidence 2) [6D7114C4]
Copy OK

Track 19

Filename C:\New Folder\19 - Twinkle Brothers - Since I Threw The Comb Away.wav

Pre-gap length 0:00:01.47

Peak level 93.3 %
Extraction speed 3.7 X
Track quality 100.0 %
Test CRC F4B74046
Copy CRC F4B74046
Accurately ripped (confidence 2) [3D780E89]
Copy OK

Track 20

Filename C:\New Folder\20 - Mighty Diamonds - Africa.wav

Pre-gap length 0:00:01.48

Peak level 89.8 %
Extraction speed 3.7 X
Track quality 100.0 %
Test CRC F7373BED
Copy CRC F7373BED
Accurately ripped (confidence 2) [82517BE9]
Copy OK

Track 21

Filename C:\New Folder\21 - Linton Kwesi Johnson - It Dread Inna Inglan (For George Lindo).wav

Pre-gap length 0:00:01.47

Peak level 90.3 %
Extraction speed 4.0 X
Track quality 100.0 %
Test CRC 30023DAF
Copy CRC 30023DAF
Accurately ripped (confidence 2) [93369C50]
Copy OK


All tracks accurately ripped

No errors occurred

End of status report

==== Log checksum 81DD78F40F8A9300CCBA983B663075D78217DF93612B6D361EE170A710A75930 ====

foobar2000 1.2 / Dynamic Range Meter 1.1.1
log date: 2016-08-22 14:54:29

––––––––––––––––––––––––––––––––––––––––
Analyzed: Abyssinians / Roots 'N' Culture (21 Mighty Reggae Cuts) (1)
Big Youth / Roots 'N' Culture (21 Mighty Reggae Cuts) (2-3)
Culture / Roots 'N' Culture (21 Mighty Reggae Cuts) (4-5)
Delroy Washington / Roots 'N' Culture (21 Mighty Reggae Cuts) (6)
Gladiators / Roots 'N' Culture (21 Mighty Reggae Cuts) (7-8)
Gregory Isaacs / Roots 'N' Culture (21 Mighty Reggae Cuts) (9)
Johnny Clarke / Roots 'N' Culture (21 Mighty Reggae Cuts) (10-12)
Linton Kwesi Johnson / Roots 'N' Culture (21 Mighty Reggae Cuts) (13)
Mighty Diamonds / Roots 'N' Culture (21 Mighty Reggae Cuts) (14-15)
Peter Tosh / Roots 'N' Culture (21 Mighty Reggae Cuts) (16)
Prince Far I / Roots 'N' Culture (21 Mighty Reggae Cuts) (17)
Sly Dunbar & The Tamlins / Roots 'N' Culture (21 Mighty Reggae Cuts) (18)
Twinkle Brothers / Roots 'N' Culture (21 Mighty Reggae Cuts) (19-21)
––––––––––––––––––––––––––––––––––––––––

DR Peak RMS Duration Track
––––––––––––––––––––––––––––––––––––––––
DR13 -1.03 dB -15.50 dB 4:04 08-Jah Loves
DR13 -0.97 dB -15.36 dB 3:34 02-Train To Rhodesia
DR14 -1.51 dB -16.40 dB 3:17 11-House Of Dreadlocks
DR11 -0.50 dB -13.52 dB 3:21 05-International Herb
DR13 -0.65 dB -14.88 dB 4:34 15-Behold
DR13 -1.00 dB -15.34 dB 3:44 18-Freedom Fighters
DR12 -0.87 dB -14.10 dB 3:55 10-Soul Rebel
DR12 -1.41 dB -14.92 dB 2:31 17-Looks Is Deceiving
DR14 -0.76 dB -16.00 dB 3:47 07-Universal Tribulation
DR10 -0.53 dB -11.96 dB 3:28 04-Rockers Time Now
DR10 -1.41 dB -13.36 dB 3:14 14-Roots, Natty Roots, Natty Congo
DR10 -1.14 dB -12.69 dB 3:18 16-Declaration Of Rights
DR13 -0.88 dB -16.45 dB 4:04 21-It Dread Inna Inglan (For George Lindo)
DR13 -0.60 dB -14.97 dB 3:17 01-Right Time
DR14 -0.93 dB -15.93 dB 3:10 20-Africa
DR11 -0.81 dB -13.81 dB 4:38 03-Legalize It
DR11 -1.89 dB -14.04 dB 3:29 09-Message From The King
DR12 -1.24 dB -14.50 dB 3:05 13-Sun Is Shining
DR12 -0.82 dB -14.61 dB 3:29 06-Never Get Burn
DR11 -0.92 dB -13.72 dB 4:47 12-Free Africa
DR12 -0.59 dB -14.35 dB 2:59 19-Since I Threw The Comb Away
––––––––––––––––––––––––––––––––––––––––

Number of tracks: 21
Official DR value: DR12

Samplerate: 44100 Hz
Channels: 2
Bits per sample: 16
Bitrate: 811 kbps
Codec: FLAC
================================================================================

VA - Roots 'N' Culture: 21 Mighty Reggae Cuts (1993) Reissue 1997

VA - Roots 'N' Culture: 21 Mighty Reggae Cuts (1993) Reissue 1997