Tags
Language
Tags

VA - Sounds Of The 80s: Volume 2 (2005) {3CD Box Set}

Posted By: popsakov
VA - Sounds Of The 80s: Volume 2 (2005) {3CD Box Set}

VA - Sounds Of The 80s: Volume 2 (2005) {3CD Box Set}
EAC Rip | FLAC (Img) + Cue + Log ~ 963 Mb | MP3 CBR320 ~ 335 Mb
Full Scans ~ 416 Mb | RAR 5% Recovery
Collectables Records #COL-CD-0336 (A-32925, 72438-19812-2-1, MSD-37151)
Rock / Pop / New Wav / Synht-Pop / Electronic

Box set includes 3 albums: Big '80s, Essential '80s, '80s Hits, originally released in 1998 on the label Time Life Music, as part of the series "Sounds Of The Eighties". Contains 36 songs (all original recordings by the original artists, and digitally remastered) on three Audio CDs, packaged in a beautiful storage box with a rich leather-like finish and a wood frame.
***************

VA - Sounds Of The 80s: Volume 2 (2005) {3CD Box Set}

VA - Sounds Of The 80s: Volume 2 (2005) {3CD Box Set}

VA - Sounds Of The 80s: Volume 2 (2005) {3CD Box Set}

Track List CD1 - Big '80s:

01. The Romantics - What I Like About You [02:59]
02. Men At Work - Who Can It Be Now? [03:24]
03. REO Speedwagon - Keep On Loving You [03:24]
04. Toto - Rosanna [04:04]
05. Scandal feat. Patty Smyth - The Warrior [04:00]
06. Bangles - Walk Like An Egyptian [03:26]
07. Nena - 99 Luftballons [03:55]
08. Naked Eyes - Always Something There To Remind Me [03:41]
09. Tommy Tutone - 867-5309 (Jenny) [03:48]
10. Robert Palmer - Addicted To Love [04:05]
11. Billy Ocean - Caribbean Queen (No More Love On The Run) [03:44]
12. Paul Young - Everytime You Go Away [04:27]

Exact Audio Copy V1.0 beta 3 from 29. August 2011

EAC extraction logfile from 25. July 2016, 0:17

Various / Sounds Of The Eighties: Big '80s

Used drive : PIONEER BD-RW BDR-TD03 Adapter: 0 ID: 1

Read mode : Secure
Utilize accurate stream : Yes
Defeat audio cache : Yes
Make use of C2 pointers : No

Read offset correction : 667
Overread into Lead-In and Lead-Out : No
Fill up missing offset samples with silence : Yes
Delete leading and trailing silent blocks : No
Null samples used in CRC calculations : Yes
Used interface : Native Win32 interface for Win NT & 2000

Used output format : User Defined Encoder
Selected bitrate : 768 kBit/s
Quality : High
Add ID3 tag : No
Command line compressor : C:\Program Files (x86)\Exact Audio Copy\FLAC\FLAC.EXE
Additional command line options : -6 -V -T "ARTIST=%artist%" -T "TITLE=%title%" -T "ALBUM=%albumtitle%" -T "DATE=%year%" -T "TRACKNUMBER=%tracknr%" -T "GENRE=%genre%" -T "COMMENT=%comment%" -T "BAND=%albuminterpret%" -T "ALBUMARTIST=%albuminterpret%" -T "COMPOSER=%composer%" %haslyrics%–tag-from-file=LYRICS="%lyricsfile%"%haslyrics% -T "DISCNUMBER=%cdnumber%" -T "TOTALDISCS=%totalcds%" -T "TOTALTRACKS=%numtracks%" %hascover%–picture="%coverfile%"%hascover% %source% -o %dest%


TOC of the extracted CD

Track | Start | Length | Start sector | End sector
––––––––––––––––––––––––––––-
1 | 0:00.00 | 2:58.30 | 0 | 13379
2 | 2:58.30 | 3:23.52 | 13380 | 28656
3 | 6:22.07 | 3:23.23 | 28657 | 43904
4 | 9:45.30 | 4:03.70 | 43905 | 62199
5 | 13:49.25 | 3:59.25 | 62200 | 80149
6 | 17:48.50 | 3:25.52 | 80150 | 95576
7 | 21:14.27 | 3:54.35 | 95577 | 113161
8 | 25:08.62 | 3:40.50 | 113162 | 129711
9 | 28:49.37 | 3:48.00 | 129712 | 146811
10 | 32:37.37 | 4:04.65 | 146812 | 165176
11 | 36:42.27 | 3:43.10 | 165177 | 181911
12 | 40:25.37 | 4:26.70 | 181912 | 201931


Range status and errors

Selected range

Filename C:\Users\Deris\Desktop\Soun80(2)\CD1\Various - Sounds Of The Eighties- Big '80s.wav

Peak level 100.0 %
Extraction speed 4.5 X
Range quality 100.0 %
Test CRC 309D8E13
Copy CRC 309D8E13
Copy OK

No errors occurred


AccurateRip summary

Track 1 accurately ripped (confidence 9) [C815D23E] (AR v2)
Track 2 accurately ripped (confidence 9) [DEEB67FA] (AR v2)
Track 3 accurately ripped (confidence 9) [4565384F] (AR v2)
Track 4 accurately ripped (confidence 9) [9F1B4448] (AR v2)
Track 5 accurately ripped (confidence 9) [CD104226] (AR v2)
Track 6 accurately ripped (confidence 8) [10391CC0] (AR v2)
Track 7 accurately ripped (confidence 9) [36A48F73] (AR v2)
Track 8 accurately ripped (confidence 9) [BB86CD74] (AR v2)
Track 9 accurately ripped (confidence 9) [21D7AB52] (AR v2)
Track 10 accurately ripped (confidence 8) [AA3E84C2] (AR v2)
Track 11 accurately ripped (confidence 9) [3EE27C5C] (AR v2)
Track 12 accurately ripped (confidence 8) [EA64A572] (AR v2)

All tracks accurately ripped

End of status report

–– CUETools DB Plugin V2.1.3

[CTDB TOCID: OIiIoBv.KKLNYI9UKYpePkH50oQ-] found, Submit result: OIiIoBv.KKLNYI9UKYpePkH50oQ- has been confirmed
[cd8c62e5] (8/8) Accurately ripped


==== Log checksum 0F747F581F751D50B604AA502A68F3B8CB8EC4FEBA461C207E98D8A9B8147C68 ====

[CUETools log; Date: 27.07.2016 11:26:16; Version: 2.1.5]
[CTDB TOCID: OIiIoBv.KKLNYI9UKYpePkH50oQ-] found.
Track | CTDB Status
1 | (9/9) Accurately ripped
2 | (9/9) Accurately ripped
3 | (9/9) Accurately ripped
4 | (9/9) Accurately ripped
5 | (9/9) Accurately ripped
6 | (9/9) Accurately ripped
7 | (9/9) Accurately ripped
8 | (9/9) Accurately ripped
9 | (9/9) Accurately ripped
10 | (9/9) Accurately ripped
11 | (9/9) Accurately ripped
12 | (9/9) Accurately ripped
[AccurateRip ID: 001343f0-00b5cf72-940a840c] found.
Track [ CRC | V2 ] Status
01 [77d6ff1e|c815d23e] (12+09/31) Accurately ripped
02 [368cddef|deeb67fa] (12+09/29) Accurately ripped
03 [7f3651c4|4565384f] (11+09/30) Accurately ripped
04 [b19d0111|9f1b4448] (11+09/30) Accurately ripped
05 [cc8dfca8|cd104226] (12+09/31) Accurately ripped
06 [05427e92|10391cc0] (11+08/29) Accurately ripped
07 [f4dd718b|36a48f73] (12+09/31) Accurately ripped
08 [fbccc1cf|bb86cd74] (12+09/30) Accurately ripped
09 [04e16938|21d7ab52] (11+09/29) Accurately ripped
10 [6df6f911|aa3e84c2] (11+08/27) Accurately ripped
11 [a8696735|3ee27c5c] (11+09/27) Accurately ripped
12 [077bd8bf|ea64a572] (11+08/28) Accurately ripped
Offsetted by 1:
01 [7b5b53ba] (05/31) Accurately ripped
02 [43882464] (05/29) Accurately ripped
03 [b3f25c60] (05/30) Accurately ripped
04 [188c5eb4] (05/30) Accurately ripped
05 [9dadc519] (05/31) Accurately ripped
06 [a71dddd1] (05/29) Accurately ripped
07 [87882943] (05/31) Accurately ripped
08 [0f46f3d0] (04/30) Accurately ripped
09 [a67d8760] (04/29) Accurately ripped
10 [9790f01d] (05/27) Accurately ripped
11 [f571aac7] (04/27) Accurately ripped
12 [16f50480] (04/28) Accurately ripped
Offsetted by 284:
01 [5ea4dc2e] (00/31) No match (V2 was not tested)
02 [9d4f07bb] (00/29) No match (V2 was not tested)
03 [ffd216d4] (00/30) No match (V2 was not tested)
04 [e328e1e5] (00/30) No match (V2 was not tested)
05 [cbd05a04] (00/31) No match (V2 was not tested)
06 [94a02876] (00/29) No match (V2 was not tested)
07 [aa4141ab] (00/31) No match (V2 was not tested)
08 [975c3aeb] (00/30) No match (V2 was not tested)
09 [4e12dd98] (00/29) No match (V2 was not tested)
10 [94c50a61] (00/27) No match (V2 was not tested)
11 [1d945d2d] (00/27) No match (V2 was not tested)
12 [5a2062ff] (00/28) No match (V2 was not tested)

Track Peak [ CRC32 ] [W/O NULL] [ LOG ]
– 100,0 [309D8E13] [3D9E3B39] CRC32
01 100,0 [7C88918B] [5BD9648C]
02 93,0 [4B9E5B26] [BB6716DF]
03 72,1 [4C010C0B] [A7C76453]
04 84,1 [5BA0BC61] [02787743]
05 91,4 [FEBA3A45] [446602B6]
06 81,9 [9815C7D8] [4D8BC413]
07 91,4 [0A1D6B73] [AB735A1B]
08 99,9 [8E5AAFD0] [55434894]
09 94,6 [63F8CF02] [A519332A]
10 84,1 [8DCDF191] [84668827]
11 83,7 [4B334C0D] [FE578C15]
12 62,7 [F34776C0] [7C8815E9]

***************

VA - Sounds Of The 80s: Volume 2 (2005) {3CD Box Set}

VA - Sounds Of The 80s: Volume 2 (2005) {3CD Box Set}

VA - Sounds Of The 80s: Volume 2 (2005) {3CD Box Set}

Track List CD2 - Essential '80s:

01. Katrina And The Waves - Walking On Sunshine [04:01]
02. John Waite - Missing You [04:29]
03. Toni Basil - Mickey [03:29]
04. Ray Parker Jr. - Ghostbusters [04:07]
05. Tina Turner - What's Love Got To Do With It [03:50]
06. Blondie - Call Me [03:33]
07. Kim Carnes - Bette Davis Eyes [03:47]
08. Stray Cats - Rock This Town [03:26]
09. J. Geils Band - Centerfold [03:40]
10. Huey Lewis And The News - The Heart Of Rock And Roll [04:07]
11. Cutting Crew - (I Just) Died In Your Arms [04:35]
12. Bobby McFerrin - Don't Worry Be Happy [03:54]

Exact Audio Copy V1.0 beta 3 from 29. August 2011

EAC extraction logfile from 25. July 2016, 2:51

Various / Sounds Of The Eighties - Essential '80s (CD2)

Used drive : PIONEER BD-RW BDR-TD03 Adapter: 0 ID: 1

Read mode : Secure
Utilize accurate stream : Yes
Defeat audio cache : Yes
Make use of C2 pointers : No

Read offset correction : 667
Overread into Lead-In and Lead-Out : No
Fill up missing offset samples with silence : Yes
Delete leading and trailing silent blocks : No
Null samples used in CRC calculations : Yes
Used interface : Native Win32 interface for Win NT & 2000

Used output format : User Defined Encoder
Selected bitrate : 768 kBit/s
Quality : High
Add ID3 tag : No
Command line compressor : C:\Program Files (x86)\Exact Audio Copy\FLAC\FLAC.EXE
Additional command line options : -6 -V -T "ARTIST=%artist%" -T "TITLE=%title%" -T "ALBUM=%albumtitle%" -T "DATE=%year%" -T "TRACKNUMBER=%tracknr%" -T "GENRE=%genre%" -T "COMMENT=%comment%" -T "BAND=%albuminterpret%" -T "ALBUMARTIST=%albuminterpret%" -T "COMPOSER=%composer%" %haslyrics%–tag-from-file=LYRICS="%lyricsfile%"%haslyrics% -T "DISCNUMBER=%cdnumber%" -T "TOTALDISCS=%totalcds%" -T "TOTALTRACKS=%numtracks%" %hascover%–picture="%coverfile%"%hascover% %source% -o %dest%


TOC of the extracted CD

Track | Start | Length | Start sector | End sector
––––––––––––––––––––––––––––-
1 | 0:00.00 | 4:00.05 | 0 | 18004
2 | 4:00.05 | 4:28.20 | 18005 | 38124
3 | 8:28.25 | 3:28.62 | 38125 | 53786
4 | 11:57.12 | 4:06.38 | 53787 | 72274
5 | 16:03.50 | 3:49.62 | 72275 | 89511
6 | 19:53.37 | 3:32.63 | 89512 | 105474
7 | 23:26.25 | 3:47.00 | 105475 | 122499
8 | 27:13.25 | 3:25.52 | 122500 | 137926
9 | 30:39.02 | 3:39.55 | 137927 | 154406
10 | 34:18.57 | 4:06.43 | 154407 | 172899
11 | 38:25.25 | 4:34.32 | 172900 | 193481
12 | 42:59.57 | 3:53.45 | 193482 | 211001


Range status and errors

Selected range

Filename C:\Users\Deris\Desktop\Soun80(2)\Cd2\Various - Sounds Of The Eighties - Essential '80s (CD2).wav

Peak level 100.0 %
Extraction speed 4.6 X
Range quality 99.9 %
Test CRC 55EF570A
Copy CRC 55EF570A
Copy OK

No errors occurred


AccurateRip summary

Track 1 accurately ripped (confidence 10) [81890497] (AR v2)
Track 2 accurately ripped (confidence 9) [5E5814F8] (AR v2)
Track 3 accurately ripped (confidence 10) [E71116D2] (AR v2)
Track 4 accurately ripped (confidence 10) [90661DFD] (AR v2)
Track 5 accurately ripped (confidence 9) [437FBFE9] (AR v2)
Track 6 accurately ripped (confidence 11) [9192DC4F] (AR v2)
Track 7 accurately ripped (confidence 9) [150862A8] (AR v2)
Track 8 accurately ripped (confidence 10) [03EB46A1] (AR v2)
Track 9 accurately ripped (confidence 10) [5A99C17F] (AR v2)
Track 10 accurately ripped (confidence 10) [EAC62003] (AR v2)
Track 11 accurately ripped (confidence 9) [C2D91C97] (AR v2)
Track 12 accurately ripped (confidence 10) [CBACDACD] (AR v2)

All tracks accurately ripped

End of status report

–– CUETools DB Plugin V2.1.3

[CTDB TOCID: JyVD1o7MkGIIp.d1EiW_HbYLsY0-] found, Submit result: JyVD1o7MkGIIp.d1EiW_HbYLsY0- has been confirmed
[ab0ce14f] (01/11) No match
[96c612a3] (01/11) No match
[23f78794] (01/11) No match
[78ee2b50] (01/11) No match
[bd465c4f] (01/11) No match
[64c6f9c3] (01/11) Differs in 33 samples @03:11:31,03:13:49,32:42:20
[57553e03] (04/11) Accurately ripped
[38f4a2c4] (01/11) No match
You can use CUETools to repair this rip.


==== Log checksum AE6EE91C3DA473C3AE61BB260B02D19BE51134233A10204082A9686CBF4AA7E3 ====

[CUETools log; Date: 27.07.2016 11:27:33; Version: 2.1.5]
[CTDB TOCID: JyVD1o7MkGIIp.d1EiW_HbYLsY0-] found.
Track | CTDB Status
1 | ( 9/12) Accurately ripped, or (1/12) differs in 10 samples @03:11:31,03:13:49
2 | (11/12) Accurately ripped
3 | (11/12) Accurately ripped
4 | (11/12) Accurately ripped
5 | (11/12) Accurately ripped
6 | (10/12) Accurately ripped
7 | (11/12) Accurately ripped
8 | (11/12) Accurately ripped
9 | (10/12) Accurately ripped, or (1/12) differs in 23 samples @02:03:18
10 | (10/12) Accurately ripped
11 | ( 6/12) Accurately ripped
12 | ( 9/12) Accurately ripped
[AccurateRip ID: 0014e535-00c24fdd-930afd0c] found.
Track [ CRC | V2 ] Status
01 [fe53169a|81890497] (11+10/21) Accurately ripped
02 [ef49b582|5e5814f8] (11+09/20) Accurately ripped
03 [94f7b4b4|e71116d2] (11+10/21) Accurately ripped
04 [d063a88f|90661dfd] (12+10/22) Accurately ripped
05 [d1e0dfcd|437fbfe9] (10+09/19) Accurately ripped
06 [ff6b6ebf|9192dc4f] (11+11/22) Accurately ripped
07 [499078e9|150862a8] (10+09/19) Accurately ripped
08 [491f75ac|03eb46a1] (13+10/23) Accurately ripped
09 [100c459b|5a99c17f] (10+10/20) Accurately ripped
10 [616af850|eac62003] (13+10/23) Accurately ripped
11 [87c65d74|c2d91c97] (12+09/21) Accurately ripped
12 [666b446d|cbacdacd] (12+10/22) Accurately ripped

Track Peak [ CRC32 ] [W/O NULL] [ LOG ]
– 100,0 [55EF570A] [9B3698CD] CRC32
01 88,0 [C6808276] [04609BB1]
02 84,2 [8CD636EE] [D083C931]
03 89,1 [5D37553C] [B0297F0E]
04 100,0 [1E67B3CD] [06517C9B]
05 98,8 [E0CC172A] [612AB6A7]
06 96,8 [C09FD1E2] [8A51DEBC]
07 94,0 [34423315] [DB625C8B]
08 98,8 [551182E6] [7381EABA]
09 93,3 [BBC59D1E] [CA55B88F]
10 100,0 [97F5C23F] [89497A85]
11 74,6 [E45627B1] [56624359]
12 98,8 [B2A28DA2] [B996A928]

***************

VA - Sounds Of The 80s: Volume 2 (2005) {3CD Box Set}

VA - Sounds Of The 80s: Volume 2 (2005) {3CD Box Set}

VA - Sounds Of The 80s: Volume 2 (2005) {3CD Box Set}

Track List CD3 - '80s Hits:

01. Kool and the Gang - Celebration [03:45]
02. Glenn Frey - The Heat Is On [03:48]
03. Jan Hammer - Miami Vice Theme [02:29]
04. Wang Chung - Everybody Have Fun Tonight [04:15]
05. Starship - We Built This City [04:56]
06. Night Ranger - Sister Christian [04:18]
07. Boston - Amanda [04:17]
08. The Fixx - One Thing Leads To Another [03:19]
09. Daryll Hall and John Oates - Kiss On My List [03:51]
10. Tiffany - I Think We're Alone Now [03:49]
11. Kim Wilde - You Keep Me Hangin' On [04:18]
12. Belinda Carlisle - Heaven Is A Place On Earth [04:11]

Exact Audio Copy V1.0 beta 3 from 29. August 2011

EAC extraction logfile from 25. July 2016, 4:21

Various / Sounds Of The Eighties - '80s Hits (CD3)

Used drive : PIONEER BD-RW BDR-TD03 Adapter: 0 ID: 1

Read mode : Secure
Utilize accurate stream : Yes
Defeat audio cache : Yes
Make use of C2 pointers : No

Read offset correction : 667
Overread into Lead-In and Lead-Out : No
Fill up missing offset samples with silence : Yes
Delete leading and trailing silent blocks : No
Null samples used in CRC calculations : Yes
Used interface : Native Win32 interface for Win NT & 2000

Used output format : User Defined Encoder
Selected bitrate : 768 kBit/s
Quality : High
Add ID3 tag : No
Command line compressor : C:\Program Files (x86)\Exact Audio Copy\FLAC\FLAC.EXE
Additional command line options : -6 -V -T "ARTIST=%artist%" -T "TITLE=%title%" -T "ALBUM=%albumtitle%" -T "DATE=%year%" -T "TRACKNUMBER=%tracknr%" -T "GENRE=%genre%" -T "COMMENT=%comment%" -T "BAND=%albuminterpret%" -T "ALBUMARTIST=%albuminterpret%" -T "COMPOSER=%composer%" %haslyrics%–tag-from-file=LYRICS="%lyricsfile%"%haslyrics% -T "DISCNUMBER=%cdnumber%" -T "TOTALDISCS=%totalcds%" -T "TOTALTRACKS=%numtracks%" %hascover%–picture="%coverfile%"%hascover% %source% -o %dest%


TOC of the extracted CD

Track | Start | Length | Start sector | End sector
––––––––––––––––––––––––––––-
1 | 0:00.00 | 3:44.50 | 0 | 16849
2 | 3:44.50 | 3:48.00 | 16850 | 33949
3 | 7:32.50 | 2:29.00 | 33950 | 45124
4 | 10:01.50 | 4:14.37 | 45125 | 64211
5 | 14:16.12 | 4:55.25 | 64212 | 86361
6 | 19:11.37 | 4:17.23 | 86362 | 105659
7 | 23:28.60 | 4:17.00 | 105660 | 124934
8 | 27:45.60 | 3:18.07 | 124935 | 139791
9 | 31:03.67 | 3:50.38 | 139792 | 157079
10 | 34:54.30 | 3:48.65 | 157080 | 174244
11 | 38:43.20 | 4:17.17 | 174245 | 193536
12 | 43:00.37 | 4:10.38 | 193537 | 212324


Range status and errors

Selected range

Filename C:\Users\Deris\Desktop\Soun80(2)\cd3\Various - Sounds Of The Eighties - '80s Hits (CD3).wav

Peak level 93.1 %
Extraction speed 4.5 X
Range quality 99.9 %
Test CRC 4DEF756B
Copy CRC 4DEF756B
Copy OK

No errors occurred


AccurateRip summary

Track 1 accurately ripped (confidence 12) [F8B08843] (AR v2)
Track 2 accurately ripped (confidence 11) [5A9AB534] (AR v2)
Track 3 accurately ripped (confidence 12) [C582CF2D] (AR v2)
Track 4 accurately ripped (confidence 11) [CC646CFF] (AR v2)
Track 5 accurately ripped (confidence 11) [4156D9D8] (AR v2)
Track 6 accurately ripped (confidence 12) [9B702A10] (AR v2)
Track 7 accurately ripped (confidence 11) [CA5A2E2D] (AR v2)
Track 8 accurately ripped (confidence 11) [5C6FED1B] (AR v2)
Track 9 accurately ripped (confidence 12) [79ABAD07] (AR v2)
Track 10 accurately ripped (confidence 12) [006ED623] (AR v2)
Track 11 accurately ripped (confidence 11) [EADDF632] (AR v2)
Track 12 accurately ripped (confidence 12) [0EE590F9] (AR v2)

All tracks accurately ripped

End of status report

–– CUETools DB Plugin V2.1.3

[CTDB TOCID: gPz5QCdf62jW1qc3AlyurgrDG8U-] found, Submit result: gPz5QCdf62jW1qc3AlyurgrDG8U- has been confirmed
[c1b45775] (01/10) No match
[fb566612] (08/10) Accurately ripped
[ed4c54ed] (01/10) No match


==== Log checksum 019B157E8C867995E8A523B90BF3B1AD98FF9BBAC4E0DBB1DBE54463A1FBAE2E ====

[CUETools log; Date: 27.07.2016 11:28:08; Version: 2.1.5]
[CTDB TOCID: gPz5QCdf62jW1qc3AlyurgrDG8U-] found.
Track | CTDB Status
1 | (10/11) Accurately ripped
2 | (10/11) Accurately ripped
3 | (10/11) Accurately ripped
4 | (10/11) Accurately ripped
5 | (10/11) Accurately ripped
6 | (10/11) Accurately ripped
7 | (10/11) Accurately ripped
8 | (10/11) Accurately ripped
9 | (10/11) Accurately ripped
10 | (10/11) Accurately ripped
11 | ( 9/11) Accurately ripped
12 | (10/11) Accurately ripped
[AccurateRip ID: 0014a959-00c221f3-9d0b0f0c] found.
Track [ CRC | V2 ] Status
01 [061cb04f|f8b08843] (11+12/23) Accurately ripped
02 [f0bbf5ad|5a9ab534] (11+11/22) Accurately ripped
03 [dd9e6e81|c582cf2d] (12+12/24) Accurately ripped
04 [44acf04f|cc646cff] (12+11/23) Accurately ripped
05 [99a00e2f|4156d9d8] (12+11/23) Accurately ripped
06 [8dedfd7a|9b702a10] (11+12/23) Accurately ripped
07 [47085df1|ca5a2e2d] (10+11/21) Accurately ripped
08 [b4ece9d4|5c6fed1b] (12+11/23) Accurately ripped
09 [a0fc0d8c|79abad07] (11+12/23) Accurately ripped
10 [71a45ae3|006ed623] (12+12/24) Accurately ripped
11 [8da008d2|eaddf632] (11+11/22) Accurately ripped
12 [e346bd39|0ee590f9] (12+12/24) Accurately ripped

Track Peak [ CRC32 ] [W/O NULL] [ LOG ]
– 93,1 [4DEF756B] [0950D3F3] CRC32
01 83,1 [D8DC2565] [5E9B6F33]
02 73,4 [13B0A4A7] [8AE2D7BB]
03 73,8 [87ABE076] [CCE28467]
04 85,1 [3204613F] [417FF74C]
05 79,5 [5B75783F] [5830C4A8]
06 93,1 [AFF81DAE] [8154B271]
07 64,8 [94B36FC0] [4C50B023]
08 87,0 [EEA3346A] [D12119D9]
09 87,5 [7BF33D77] [60EDD589]
10 66,0 [3B08643F] [A965EB49]
11 70,0 [D651F65F] [AE5BC625]
12 66,0 [3AD54AE5] [4D842786]

VA - Sounds Of The 80s: Volume 2 (2005) {3CD Box Set}

All thanks go to Boris1

>>> My Blog <<<

Download from icerbox.com: