Subcategories
Tags
Language
Tags

VA - The Hits Album - The 80s Album (2019)

Posted By: ciklon5
VA - The Hits Album - The 80s Album (2019)

VA - The Hits Album - The 80s Album (2019)
FLAC (tracks+cue+log+scans) | 05:09:01 | 2 Gb
Genre: Dance, Disco, Reggae, RnB, Pop, Rock / Label: Sony Music

Curiosity Killed the Cat was a British pop band that achieved success in the UK, with hit singles such as Down To Earth, Misfit, from their No. 1 debut album, Keep Your Distance. Come On Eileen is a song by English group Dexys Midnight Runners credited to Dexys Midnight Runners and the Emerald Express. Rhythm of the Night is a single by DeBarge, written by Diane Warren. It was a single from their album, Rhythm of the Night on the Motown label. The song jump-started the career of the prolific Warren. Dr. Beat is the first international single released by the American band Miami Sound Machine, led by Gloria Estefan, on their first English language. Cant Wait Another Minute is a 1986 hit single by British pop group Five Star, peaking at number 7 on the UK Singles Chart.

Track List:
CD1
01. Soft Cell - Tainted Love 2:37
02. The Human League - Don't You Want Me 3:58
03. Visage - Fade To Grey 3:49
04. Heaven 17 - Temptation 3:33
05. Dead Or Alive - You Spin Me Round (Like A Record) 3:14
06. Tears For Fears - Everybody Wants To Rule The World 4:12
07. The Jam - Going Underground 2:54
08. Adam & The Ants - Prince Charming 3:18
09. Culture Club - Karma Chameleon 4:12
10. Kevin Rowland & Dexys Midnight Runners - Come On Eileen 3:30
11. Kenny Loggins - Foot Loose 3:46
12. Cyndi Lauper - Girls Just Want To Have Fun 3:53
13. Kim Carnes - Bette Davis Eyes 3:45
14. Sade - Your Love Is King 3:39
15. Swing Out Sister - Breakout 3:48
16. Curiosity Killed The Cat - Down To Earth 3:49
17. Haircut 100 - Love Plus One 3:38
18. Abc - The Look Of Love Pt. 1 3:29
19. Whitney Houston - I Wanna Dance With Somebody 4:50
20. Rick Astley - Never Gonna Give You Up 3:32
21. Tiffany - I Think We're Alone Now 3:44

CD2
22. Abba - The Winner Takes It All 4:56
23. Joe Cocker & Jennifer Warnes - Up Where We Belong 3:52
24. Roxy Music - Jealous Guy 4:51
25. Toto - Africa 4:55
26. T'pau - China In Your Hand 4:05
27. Bonnie Tyler - Total Eclipse Of The Heart 4:25
28. Heart - Alone 3:36
29. Cher - If I Could Turn Back Time 4:01
30. Pat Benatar - Love Is A Battlefield 4:09
31. Billy Idol - White Wedding Pt. 1 3:31
32. Huey Lewis & The News - The Power Of Love 3:53
33. Robert Palmer - Addicted To Love 4:20
34. Simple Minds - Waterfront 4:49
35. Jane Wiedlin - Rush Hour 4:00
36. The Bangles - Manic Monday 3:04
37. Matthew Wilder - Break My Stride 3:00
38. Owen Paul - My Favourite Waste Of Time 3:26
39. Bros - I Owe You Nothing 3:39
40. Bucks Fizz - My Camera Never Lies 3:33

CD3
41. Ub40 - Red Red Wine 3:02
42. Blondie - The Tide Is High 3:51
43. Paul Simon - You Can Call Me Al 4:41
44. Dolly Parton & Kenny Rogers - Islands In The Stream 4:10
45. Mike Oldfield - Moonlight Shadow 3:38
46. Nick Heyward - Whistle Down The Wind 3:41
47. Daryl Hall & John Oates - I Can't Go For That (No Can Do) 3:45
48. Joe Jackson - Steppin' Out 4:13
49. Nik Kershaw - The Riddle 3:51
50. Philip Oakey & Giorgio Moroder - Together In Electric Dreams 3:50
51. Japan - Quite Life 3:35
52. The Cure - The Lovecats 3:41
53. Public Image Limited - This Is Not A Love Song 3:32
54. Altered Images - Happy Birthday 2:59
55. Thompson Twins - Doctor! Doctor! 4:39
56. Sam Brown - Stop 3:59
57. Boy Meets Girl - Waiting For A Star To Fall 4:31
58. Will To Power - Baby I Love Your Way - Freebird (Free Baby) 4:08
59. Crowded House - Don't Dream It's Over 3:54
60. Paul Young - Wherever I Lay My Hat (That's My Home) 4:11

CD4
61. S'express - Theme From S-Express 3:52
62. Yazz & The Plastic Population - The Only Way Is Up 4:00
63. The Pointer Sisters - Jump (For My Love) 3:59
64. Donna Summer - She Works Hard For The Money 4:11
65. Michael Sembello - Manic 4:18
66. Maria Vidal - Body Rock 3:41
67. Rock Steady Crew - (Hey You) The Rock Steady Crew 3:47
68. Rockwell - Somebody's Watching Me 3:57
69. Sly Fox - Let's Go All The Way 3:47
70. Falco - Rock Me Amadeus 3:14
71. Animotion - Obsession 3:54
72. Baltimora - Tarzan Boy 3:52
73. Sabrina - Boys (Summertime Love) 3:55
74. Sinitta - So Macho 3:25
75. Miami Sound Machine - Dr. Beat 4:21
76. Debarge - Rhythm Of The Night 3:48
77. Five Star - Can't Wait Another Minute 4:38
78. Ashford & Simpson - Solid 3:45
79. Womack & Womack - Teardrops 3:52
80. Soul Ii Soul - Back To Life 3:46

Exact Audio Copy V1.3 from 2. September 2016

EAC extraction logfile from 17. April 2019, 16:09

Various / The Hits Album - The 80s Album - CD1

Used drive : ATAPI iHAS124 Y Adapter: 1 ID: 0

Read mode : Secure
Utilize accurate stream : Yes
Defeat audio cache : No
Make use of C2 pointers : Yes

Read offset correction : 48
Overread into Lead-In and Lead-Out : No
Fill up missing offset samples with silence : Yes
Delete leading and trailing silent blocks : No
Null samples used in CRC calculations : Yes
Used interface : Native Win32 interface for Win NT & 2000
Gap handling : Not detected, thus appended to previous track

Used output format : User Defined Encoder
Selected bitrate : 896 kBit/s
Quality : High
Add ID3 tag : No
Command line compressor : C:\Program Files (x86)\Exact Audio Copy\FLAC\FLAC.EXE
Additional command line options : -6 -V -T "ARTIST=%artist%" -T "TITLE=%title%" -T "ALBUM=%albumtitle%" -T "DATE=%year%" -T "TRACKNUMBER=%tracknr%" -T "GENRE=%genre%" -T "COMMENT=%comment%" -T "BAND=%albuminterpret%" -T "ALBUMARTIST=%albuminterpret%" -T "COMPOSER=%composer%" %haslyrics%–tag-from-file=LYRICS="%lyricsfile%"%haslyrics% -T "DISCNUMBER=%cdnumber%" -T "TOTALDISCS=%totalcds%" -T "TOTALTRACKS=%numtracks%" %hascover%–picture="%coverfile%"%hascover% %source% -o %dest%


TOC of the extracted CD

Track | Start | Length | Start sector | End sector
––––––––––––––––––––––––––––-
1 | 0:00.00 | 2:37.27 | 0 | 11801
2 | 2:37.27 | 3:57.55 | 11802 | 29631
3 | 6:35.07 | 3:48.61 | 29632 | 46792
4 | 10:23.68 | 3:32.48 | 46793 | 62740
5 | 13:56.41 | 3:14.15 | 62741 | 77305
6 | 17:10.56 | 4:11.36 | 77306 | 96166
7 | 21:22.17 | 2:53.33 | 96167 | 109174
8 | 24:15.50 | 3:17.49 | 109175 | 123998
9 | 27:33.24 | 4:11.38 | 123999 | 142861
10 | 31:44.62 | 3:29.35 | 142862 | 158571
11 | 35:14.22 | 3:46.14 | 158572 | 175535
12 | 39:00.36 | 3:52.66 | 175536 | 193001
13 | 42:53.27 | 3:45.06 | 193002 | 209882
14 | 46:38.33 | 3:39.11 | 209883 | 226318
15 | 50:17.44 | 3:47.40 | 226319 | 243383
16 | 54:05.09 | 3:49.09 | 243384 | 260567
17 | 57:54.18 | 3:37.35 | 260568 | 276877
18 | 61:31.53 | 3:28.37 | 276878 | 292514
19 | 65:00.15 | 4:49.35 | 292515 | 314224
20 | 69:49.50 | 3:32.22 | 314225 | 330146
21 | 73:21.72 | 3:43.46 | 330147 | 346917


Track 1

Filename A:\PsPBuRnOuT's MUSIC\SORTED BY YEAR\1980s\THE HITS ALBUM - THE 80s ALBUM\THE HITS ALBUM - THE 80s ALBUM - CD1\01.Soft Cell - Tainted Love.wav

Peak level 100.0 %
Extraction speed 13.2 X
Track quality 100.0 %
Copy CRC 1A17C86B
Track not present in AccurateRip database
Copy OK

Track 2

Filename A:\PsPBuRnOuT's MUSIC\SORTED BY YEAR\1980s\THE HITS ALBUM - THE 80s ALBUM\THE HITS ALBUM - THE 80s ALBUM - CD1\02.The Human League - Don't You Want Me.wav

Peak level 98.0 %
Extraction speed 17.6 X
Track quality 99.9 %
Copy CRC 892A045C
Track not present in AccurateRip database
Copy OK

Track 3

Filename A:\PsPBuRnOuT's MUSIC\SORTED BY YEAR\1980s\THE HITS ALBUM - THE 80s ALBUM\THE HITS ALBUM - THE 80s ALBUM - CD1\03.Visage - Fade To Grey.wav

Peak level 100.0 %
Extraction speed 15.4 X
Track quality 99.9 %
Copy CRC E2D1F8AE
Track not present in AccurateRip database
Copy OK

Track 4

Filename A:\PsPBuRnOuT's MUSIC\SORTED BY YEAR\1980s\THE HITS ALBUM - THE 80s ALBUM\THE HITS ALBUM - THE 80s ALBUM - CD1\04.Heaven 17 - Temptation.wav

Peak level 100.0 %
Extraction speed 19.9 X
Track quality 100.0 %
Copy CRC DC16AB1D
Track not present in AccurateRip database
Copy OK

Track 5

Filename A:\PsPBuRnOuT's MUSIC\SORTED BY YEAR\1980s\THE HITS ALBUM - THE 80s ALBUM\THE HITS ALBUM - THE 80s ALBUM - CD1\05.Dead Or Alive - You Spin Me Round (Like A Record).wav

Peak level 87.1 %
Extraction speed 25.1 X
Track quality 100.0 %
Copy CRC 2CB24C81
Track not present in AccurateRip database
Copy OK

Track 6

Filename A:\PsPBuRnOuT's MUSIC\SORTED BY YEAR\1980s\THE HITS ALBUM - THE 80s ALBUM\THE HITS ALBUM - THE 80s ALBUM - CD1\06.Tears For Fears - Everybody Wants To Rule The World.wav

Peak level 83.2 %
Extraction speed 26.5 X
Track quality 100.0 %
Copy CRC ECD427BE
Track not present in AccurateRip database
Copy OK

Track 7

Filename A:\PsPBuRnOuT's MUSIC\SORTED BY YEAR\1980s\THE HITS ALBUM - THE 80s ALBUM\THE HITS ALBUM - THE 80s ALBUM - CD1\07.The Jam - Going Underground.wav

Peak level 100.0 %
Extraction speed 28.0 X
Track quality 100.0 %
Copy CRC D3DC7059
Track not present in AccurateRip database
Copy OK

Track 8

Filename A:\PsPBuRnOuT's MUSIC\SORTED BY YEAR\1980s\THE HITS ALBUM - THE 80s ALBUM\THE HITS ALBUM - THE 80s ALBUM - CD1\08.Adam & The Ants - Prince Charming.wav

Peak level 100.0 %
Extraction speed 28.5 X
Track quality 100.0 %
Copy CRC 57E72467
Track not present in AccurateRip database
Copy OK

Track 9

Filename A:\PsPBuRnOuT's MUSIC\SORTED BY YEAR\1980s\THE HITS ALBUM - THE 80s ALBUM\THE HITS ALBUM - THE 80s ALBUM - CD1\09.Culture Club - Karma Chameleon.wav

Peak level 92.1 %
Extraction speed 29.6 X
Track quality 100.0 %
Copy CRC 3D7133A0
Track not present in AccurateRip database
Copy OK

Track 10

Filename A:\PsPBuRnOuT's MUSIC\SORTED BY YEAR\1980s\THE HITS ALBUM - THE 80s ALBUM\THE HITS ALBUM - THE 80s ALBUM - CD1\10.Kevin Rowland & Dexys Midnight Runners - Come On Eileen.wav

Peak level 94.5 %
Extraction speed 31.1 X
Track quality 100.0 %
Copy CRC 44C20F85
Track not present in AccurateRip database
Copy OK

Track 11

Filename A:\PsPBuRnOuT's MUSIC\SORTED BY YEAR\1980s\THE HITS ALBUM - THE 80s ALBUM\THE HITS ALBUM - THE 80s ALBUM - CD1\11.Kenny Loggins - Foot Loose.wav

Peak level 100.0 %
Extraction speed 20.3 X
Track quality 99.9 %
Copy CRC 1666C8D5
Track not present in AccurateRip database
Copy OK

Track 12

Filename A:\PsPBuRnOuT's MUSIC\SORTED BY YEAR\1980s\THE HITS ALBUM - THE 80s ALBUM\THE HITS ALBUM - THE 80s ALBUM - CD1\12.Cyndi Lauper - Girls Just Want To Have Fun.wav

Peak level 100.0 %
Extraction speed 31.6 X
Track quality 100.0 %
Copy CRC A51C8113
Track not present in AccurateRip database
Copy OK

Track 13

Filename A:\PsPBuRnOuT's MUSIC\SORTED BY YEAR\1980s\THE HITS ALBUM - THE 80s ALBUM\THE HITS ALBUM - THE 80s ALBUM - CD1\13.Kim Carnes - Bette Davis Eyes.wav

Peak level 89.1 %
Extraction speed 33.8 X
Track quality 100.0 %
Copy CRC 20E8868B
Track not present in AccurateRip database
Copy OK

Track 14

Filename A:\PsPBuRnOuT's MUSIC\SORTED BY YEAR\1980s\THE HITS ALBUM - THE 80s ALBUM\THE HITS ALBUM - THE 80s ALBUM - CD1\14.Sade - Your Love Is King.wav

Peak level 99.8 %
Extraction speed 33.4 X
Track quality 100.0 %
Copy CRC 216AE33C
Track not present in AccurateRip database
Copy OK

Track 15

Filename A:\PsPBuRnOuT's MUSIC\SORTED BY YEAR\1980s\THE HITS ALBUM - THE 80s ALBUM\THE HITS ALBUM - THE 80s ALBUM - CD1\15.Swing Out Sister - Breakout.wav

Peak level 100.0 %
Extraction speed 28.7 X
Track quality 99.9 %
Copy CRC F393B009
Track not present in AccurateRip database
Copy OK

Track 16

Filename A:\PsPBuRnOuT's MUSIC\SORTED BY YEAR\1980s\THE HITS ALBUM - THE 80s ALBUM\THE HITS ALBUM - THE 80s ALBUM - CD1\16.Curiosity Killed The Cat - Down To Earth.wav

Peak level 100.0 %
Extraction speed 23.2 X
Track quality 99.9 %
Copy CRC 83A0AB87
Track not present in AccurateRip database
Copy OK

Track 17

Filename A:\PsPBuRnOuT's MUSIC\SORTED BY YEAR\1980s\THE HITS ALBUM - THE 80s ALBUM\THE HITS ALBUM - THE 80s ALBUM - CD1\17.Haircut 100 - Love Plus One.wav

Peak level 100.0 %
Extraction speed 28.7 X
Track quality 100.0 %
Copy CRC 28F95100
Track not present in AccurateRip database
Copy OK

Track 18

Filename A:\PsPBuRnOuT's MUSIC\SORTED BY YEAR\1980s\THE HITS ALBUM - THE 80s ALBUM\THE HITS ALBUM - THE 80s ALBUM - CD1\18.ABC - The Look Of Love Pt. 1.wav

Peak level 87.8 %
Extraction speed 38.2 X
Track quality 100.0 %
Copy CRC 34D8E320
Track not present in AccurateRip database
Copy OK

Track 19

Filename A:\PsPBuRnOuT's MUSIC\SORTED BY YEAR\1980s\THE HITS ALBUM - THE 80s ALBUM\THE HITS ALBUM - THE 80s ALBUM - CD1\19.Whitney Houston - I Wanna Dance With Somebody.wav

Peak level 98.8 %
Extraction speed 25.4 X
Track quality 99.9 %
Copy CRC DF424CFF
Track not present in AccurateRip database
Copy OK

Track 20

Filename A:\PsPBuRnOuT's MUSIC\SORTED BY YEAR\1980s\THE HITS ALBUM - THE 80s ALBUM\THE HITS ALBUM - THE 80s ALBUM - CD1\20.Rick Astley - Never Gonna Give You Up.wav

Peak level 100.0 %
Extraction speed 39.9 X
Track quality 100.0 %
Copy CRC CB91700B
Track not present in AccurateRip database
Copy OK

Track 21

Filename A:\PsPBuRnOuT's MUSIC\SORTED BY YEAR\1980s\THE HITS ALBUM - THE 80s ALBUM\THE HITS ALBUM - THE 80s ALBUM - CD1\21.Tiffany - I Think We're Alone Now.wav

Peak level 100.0 %
Extraction speed 13.5 X
Track quality 99.8 %
Copy CRC 51708F0B
Track not present in AccurateRip database
Copy OK


None of the tracks are present in the AccurateRip database

No errors occurred

End of status report

–– CUETools DB Plugin V2.1.6

[CTDB TOCID: OxxB.34K.9D8YHnS.qi54714cEI-] found
Submit result: OxxB.34K.9D8YHnS.qi54714cEI- has been uploaded
Track | CTDB Status
1 | (1/1) Accurately ripped
2 | (1/1) Accurately ripped
3 | (1/1) Accurately ripped
4 | (1/1) Accurately ripped
5 | (1/1) Accurately ripped
6 | (1/1) Accurately ripped
7 | (1/1) Accurately ripped
8 | (1/1) Accurately ripped
9 | (1/1) Accurately ripped
10 | (1/1) Accurately ripped
11 | (1/1) Accurately ripped
12 | (1/1) Accurately ripped
13 | (1/1) Accurately ripped
14 | (1/1) Accurately ripped
15 | (1/1) Accurately ripped
16 | (1/1) Accurately ripped
17 | (1/1) Accurately ripped
18 | (1/1) Accurately ripped
19 | (1/1) Accurately ripped
20 | (1/1) Accurately ripped
21 | (0/1) No match

Exact Audio Copy V1.3 from 2. September 2016

EAC extraction logfile from 17. April 2019, 16:42

Various / The Hits Album - The 80s Album - CD2

Used drive : ATAPI iHAS124 Y Adapter: 1 ID: 0

Read mode : Secure
Utilize accurate stream : Yes
Defeat audio cache : No
Make use of C2 pointers : Yes

Read offset correction : 48
Overread into Lead-In and Lead-Out : No
Fill up missing offset samples with silence : Yes
Delete leading and trailing silent blocks : No
Null samples used in CRC calculations : Yes
Used interface : Native Win32 interface for Win NT & 2000
Gap handling : Not detected, thus appended to previous track

Used output format : User Defined Encoder
Selected bitrate : 896 kBit/s
Quality : High
Add ID3 tag : No
Command line compressor : C:\Program Files (x86)\Exact Audio Copy\FLAC\FLAC.EXE
Additional command line options : -6 -V -T "ARTIST=%artist%" -T "TITLE=%title%" -T "ALBUM=%albumtitle%" -T "DATE=%year%" -T "TRACKNUMBER=%tracknr%" -T "GENRE=%genre%" -T "COMMENT=%comment%" -T "BAND=%albuminterpret%" -T "ALBUMARTIST=%albuminterpret%" -T "COMPOSER=%composer%" %haslyrics%–tag-from-file=LYRICS="%lyricsfile%"%haslyrics% -T "DISCNUMBER=%cdnumber%" -T "TOTALDISCS=%totalcds%" -T "TOTALTRACKS=%numtracks%" %hascover%–picture="%coverfile%"%hascover% %source% -o %dest%


TOC of the extracted CD

Track | Start | Length | Start sector | End sector
––––––––––––––––––––––––––––-
1 | 0:00.00 | 4:55.42 | 0 | 22166
2 | 4:55.42 | 3:51.64 | 22167 | 39555
3 | 8:47.31 | 4:50.39 | 39556 | 61344
4 | 13:37.70 | 4:54.32 | 61345 | 83426
5 | 18:32.27 | 4:04.38 | 83427 | 101764
6 | 22:36.65 | 4:24.63 | 101765 | 121627
7 | 27:01.53 | 3:35.54 | 121628 | 137806
8 | 30:37.32 | 4:00.50 | 137807 | 155856
9 | 34:38.07 | 4:08.40 | 155857 | 174496
10 | 38:46.47 | 3:31.02 | 174497 | 190323
11 | 42:17.49 | 3:52.53 | 190324 | 207776
12 | 46:10.27 | 4:19.56 | 207777 | 227257
13 | 50:30.08 | 4:49.03 | 227258 | 248935
14 | 55:19.11 | 4:00.20 | 248936 | 266955
15 | 59:19.31 | 3:03.61 | 266956 | 280741
16 | 62:23.17 | 2:59.72 | 280742 | 294238
17 | 65:23.14 | 3:26.11 | 294239 | 309699
18 | 68:49.25 | 3:38.74 | 309700 | 326123
19 | 72:28.24 | 3:32.59 | 326124 | 342082


Track 1

Filename A:\PsPBuRnOuT's MUSIC\SORTED BY YEAR\1980s\THE HITS ALBUM - THE 80s ALBUM\THE HITS ALBUM - THE 80s ALBUM - CD2\01.Abba - The Winner Takes It All.wav

Peak level 94.4 %
Extraction speed 8.8 X
Track quality 99.7 %
Copy CRC 5279DE99
Track not present in AccurateRip database
Copy OK

Track 2

Filename A:\PsPBuRnOuT's MUSIC\SORTED BY YEAR\1980s\THE HITS ALBUM - THE 80s ALBUM\THE HITS ALBUM - THE 80s ALBUM - CD2\02.Joe Cocker & Jennifer Warnes - Up Where We Belong.wav

Peak level 84.1 %
Extraction speed 7.5 X
Track quality 99.8 %
Copy CRC 99381B9B
Track not present in AccurateRip database
Copy OK

Track 3

Filename A:\PsPBuRnOuT's MUSIC\SORTED BY YEAR\1980s\THE HITS ALBUM - THE 80s ALBUM\THE HITS ALBUM - THE 80s ALBUM - CD2\03.Roxy Music - Jealous Guy.wav

Peak level 89.1 %
Extraction speed 22.4 X
Track quality 100.0 %
Copy CRC 2918E2A4
Track not present in AccurateRip database
Copy OK

Track 4

Filename A:\PsPBuRnOuT's MUSIC\SORTED BY YEAR\1980s\THE HITS ALBUM - THE 80s ALBUM\THE HITS ALBUM - THE 80s ALBUM - CD2\04.Toto - Africa.wav

Peak level 100.0 %
Extraction speed 21.7 X
Track quality 99.9 %
Copy CRC 21AF5F5A
Track not present in AccurateRip database
Copy OK

Track 5

Filename A:\PsPBuRnOuT's MUSIC\SORTED BY YEAR\1980s\THE HITS ALBUM - THE 80s ALBUM\THE HITS ALBUM - THE 80s ALBUM - CD2\05.T'Pau - China In Your Hand.wav

Peak level 86.4 %
Extraction speed 21.6 X
Track quality 100.0 %
Copy CRC 59365100
Track not present in AccurateRip database
Copy OK

Track 6

Filename A:\PsPBuRnOuT's MUSIC\SORTED BY YEAR\1980s\THE HITS ALBUM - THE 80s ALBUM\THE HITS ALBUM - THE 80s ALBUM - CD2\06.Bonnie Tyler - Total Eclipse Of The Heart.wav

Peak level 93.2 %
Extraction speed 28.2 X
Track quality 100.0 %
Copy CRC DAF7C5AA
Track not present in AccurateRip database
Copy OK

Track 7

Filename A:\PsPBuRnOuT's MUSIC\SORTED BY YEAR\1980s\THE HITS ALBUM - THE 80s ALBUM\THE HITS ALBUM - THE 80s ALBUM - CD2\07.Heart - Alone.wav

Peak level 93.5 %
Extraction speed 24.1 X
Track quality 99.9 %
Copy CRC F4C65049
Track not present in AccurateRip database
Copy OK

Track 8

Filename A:\PsPBuRnOuT's MUSIC\SORTED BY YEAR\1980s\THE HITS ALBUM - THE 80s ALBUM\THE HITS ALBUM - THE 80s ALBUM - CD2\08.Cher - If I Could Turn Back Time.wav

Peak level 98.8 %
Extraction speed 24.5 X
Track quality 100.0 %
Copy CRC CA28FAC6
Track not present in AccurateRip database
Copy OK

Track 9

Filename A:\PsPBuRnOuT's MUSIC\SORTED BY YEAR\1980s\THE HITS ALBUM - THE 80s ALBUM\THE HITS ALBUM - THE 80s ALBUM - CD2\09.Pat Benatar - Love Is A Battlefield.wav

Peak level 97.5 %
Extraction speed 30.5 X
Track quality 100.0 %
Copy CRC 572549C5
Track not present in AccurateRip database
Copy OK

Track 10

Filename A:\PsPBuRnOuT's MUSIC\SORTED BY YEAR\1980s\THE HITS ALBUM - THE 80s ALBUM\THE HITS ALBUM - THE 80s ALBUM - CD2\10.Billy Idol - White Wedding Pt. 1.wav

Peak level 93.3 %
Extraction speed 33.3 X
Track quality 100.0 %
Copy CRC 904F7262
Track not present in AccurateRip database
Copy OK

Track 11

Filename A:\PsPBuRnOuT's MUSIC\SORTED BY YEAR\1980s\THE HITS ALBUM - THE 80s ALBUM\THE HITS ALBUM - THE 80s ALBUM - CD2\11.Huey Lewis & The News - The Power Of Love.wav

Peak level 84.8 %
Extraction speed 34.3 X
Track quality 100.0 %
Copy CRC 34B61F43
Track not present in AccurateRip database
Copy OK

Track 12

Filename A:\PsPBuRnOuT's MUSIC\SORTED BY YEAR\1980s\THE HITS ALBUM - THE 80s ALBUM\THE HITS ALBUM - THE 80s ALBUM - CD2\12.Robert Palmer - Addicted To Love.wav

Peak level 92.7 %
Extraction speed 35.3 X
Track quality 100.0 %
Copy CRC FE50A008
Track not present in AccurateRip database
Copy OK

Track 13

Filename A:\PsPBuRnOuT's MUSIC\SORTED BY YEAR\1980s\THE HITS ALBUM - THE 80s ALBUM\THE HITS ALBUM - THE 80s ALBUM - CD2\13.Simple Minds - Waterfront.wav

Peak level 93.3 %
Extraction speed 29.0 X
Track quality 99.9 %
Copy CRC 86A720F7
Track not present in AccurateRip database
Copy OK

Track 14

Filename A:\PsPBuRnOuT's MUSIC\SORTED BY YEAR\1980s\THE HITS ALBUM - THE 80s ALBUM\THE HITS ALBUM - THE 80s ALBUM - CD2\14.Jane Wiedlin - Rush Hour.wav

Peak level 84.1 %
Extraction speed 24.3 X
Track quality 99.9 %
Copy CRC 5AB1C953
Track not present in AccurateRip database
Copy OK

Track 15

Filename A:\PsPBuRnOuT's MUSIC\SORTED BY YEAR\1980s\THE HITS ALBUM - THE 80s ALBUM\THE HITS ALBUM - THE 80s ALBUM - CD2\15.The Bangles - Manic Monday.wav

Peak level 100.0 %
Extraction speed 26.1 X
Track quality 100.0 %
Copy CRC 37B731B1
Track not present in AccurateRip database
Copy OK

Track 16

Filename A:\PsPBuRnOuT's MUSIC\SORTED BY YEAR\1980s\THE HITS ALBUM - THE 80s ALBUM\THE HITS ALBUM - THE 80s ALBUM - CD2\16.Matthew Wilder - Break My Stride.wav

Peak level 100.0 %
Extraction speed 36.8 X
Track quality 100.0 %
Copy CRC 2BF19622
Track not present in AccurateRip database
Copy OK

Track 17

Filename A:\PsPBuRnOuT's MUSIC\SORTED BY YEAR\1980s\THE HITS ALBUM - THE 80s ALBUM\THE HITS ALBUM - THE 80s ALBUM - CD2\17.Owen Paul - My Favourite Waste Of Time.wav

Peak level 100.0 %
Extraction speed 30.2 X
Track quality 99.8 %
Copy CRC DCB4662A
Track not present in AccurateRip database
Copy OK

Track 18

Filename A:\PsPBuRnOuT's MUSIC\SORTED BY YEAR\1980s\THE HITS ALBUM - THE 80s ALBUM\THE HITS ALBUM - THE 80s ALBUM - CD2\18.Bros - I Owe You Nothing.wav

Peak level 100.0 %
Extraction speed 29.6 X
Track quality 100.0 %
Copy CRC 52CE5723
Track not present in AccurateRip database
Copy OK

Track 19

Filename A:\PsPBuRnOuT's MUSIC\SORTED BY YEAR\1980s\THE HITS ALBUM - THE 80s ALBUM\THE HITS ALBUM - THE 80s ALBUM - CD2\19.Bucks Fizz - My Camera Never Lies.wav

Peak level 76.7 %
Extraction speed 14.1 X
Track quality 99.8 %
Copy CRC 9050A1DF
Track not present in AccurateRip database
Copy OK


None of the tracks are present in the AccurateRip database

No errors occurred

End of status report

–– CUETools DB Plugin V2.1.6

[CTDB TOCID: 8nQhRbHYnNcmU1uf4SOjmE5zSnI-] found
Submit result: 8nQhRbHYnNcmU1uf4SOjmE5zSnI- has been confirmed
Track | CTDB Status
1 | (1/1) Accurately ripped
2 | (1/1) Accurately ripped
3 | (1/1) Accurately ripped
4 | (1/1) Accurately ripped
5 | (1/1) Accurately ripped
6 | (1/1) Accurately ripped
7 | (1/1) Accurately ripped
8 | (1/1) Accurately ripped
9 | (1/1) Accurately ripped
10 | (1/1) Accurately ripped
11 | (1/1) Accurately ripped
12 | (1/1) Accurately ripped
13 | (1/1) Accurately ripped
14 | (1/1) Accurately ripped
15 | (1/1) Accurately ripped
16 | (1/1) Accurately ripped
17 | (1/1) Accurately ripped
18 | (1/1) Accurately ripped
19 | (1/1) Accurately ripped

Exact Audio Copy V1.3 from 2. September 2016

EAC extraction logfile from 17. April 2019, 18:56

Various / The Hits Album - The 80s Album - CD3

Used drive : ATAPI iHAS124 Y Adapter: 1 ID: 0

Read mode : Secure
Utilize accurate stream : Yes
Defeat audio cache : No
Make use of C2 pointers : Yes

Read offset correction : 48
Overread into Lead-In and Lead-Out : No
Fill up missing offset samples with silence : Yes
Delete leading and trailing silent blocks : No
Null samples used in CRC calculations : Yes
Used interface : Native Win32 interface for Win NT & 2000
Gap handling : Not detected, thus appended to previous track

Used output format : User Defined Encoder
Selected bitrate : 896 kBit/s
Quality : High
Add ID3 tag : No
Command line compressor : C:\Program Files (x86)\Exact Audio Copy\FLAC\FLAC.EXE
Additional command line options : -6 -V -T "ARTIST=%artist%" -T "TITLE=%title%" -T "ALBUM=%albumtitle%" -T "DATE=%year%" -T "TRACKNUMBER=%tracknr%" -T "GENRE=%genre%" -T "COMMENT=%comment%" -T "BAND=%albuminterpret%" -T "ALBUMARTIST=%albuminterpret%" -T "COMPOSER=%composer%" %haslyrics%–tag-from-file=LYRICS="%lyricsfile%"%haslyrics% -T "DISCNUMBER=%cdnumber%" -T "TOTALDISCS=%totalcds%" -T "TOTALTRACKS=%numtracks%" %hascover%–picture="%coverfile%"%hascover% %source% -o %dest%


TOC of the extracted CD

Track | Start | Length | Start sector | End sector
––––––––––––––––––––––––––––-
1 | 0:00.00 | 3:02.31 | 0 | 13680
2 | 3:02.31 | 3:50.34 | 13681 | 30964
3 | 6:52.65 | 4:40.66 | 30965 | 52030
4 | 11:33.56 | 4:09.39 | 52031 | 70744
5 | 15:43.20 | 3:37.66 | 70745 | 87085
6 | 19:21.11 | 3:40.65 | 87086 | 103650
7 | 23:02.01 | 3:44.64 | 103651 | 120514
8 | 26:46.65 | 4:13.18 | 120515 | 139507
9 | 31:00.08 | 3:51.11 | 139508 | 156843
10 | 34:51.19 | 3:50.12 | 156844 | 174105
11 | 38:41.31 | 3:34.46 | 174106 | 190201
12 | 42:16.02 | 3:40.35 | 190202 | 206736
13 | 45:56.37 | 3:32.15 | 206737 | 222651
14 | 49:28.52 | 2:59.24 | 222652 | 236100
15 | 52:28.01 | 4:38.36 | 236101 | 256986
16 | 57:06.37 | 3:58.46 | 256987 | 274882
17 | 61:05.08 | 4:31.29 | 274883 | 295236
18 | 65:36.37 | 4:07.65 | 295237 | 313826
19 | 69:44.27 | 3:53.63 | 313827 | 331364
20 | 73:38.15 | 4:10.34 | 331365 | 350148


Track 1

Filename A:\PsPBuRnOuT's MUSIC\SORTED BY YEAR\1980s\THE HITS ALBUM - THE 80s ALBUM\THE HITS ALBUM - THE 80s ALBUM - CD3\01.UB40 - Red Red Wine.wav

Peak level 100.0 %
Extraction speed 13.0 X
Track quality 100.0 %
Copy CRC B295DEEB
Track not present in AccurateRip database
Copy OK

Track 2

Filename A:\PsPBuRnOuT's MUSIC\SORTED BY YEAR\1980s\THE HITS ALBUM - THE 80s ALBUM\THE HITS ALBUM - THE 80s ALBUM - CD3\02.Blondie - The Tide Is High.wav

Peak level 94.6 %
Extraction speed 20.5 X
Track quality 100.0 %
Copy CRC B253C8FA
Track not present in AccurateRip database
Copy OK

Track 3

Filename A:\PsPBuRnOuT's MUSIC\SORTED BY YEAR\1980s\THE HITS ALBUM - THE 80s ALBUM\THE HITS ALBUM - THE 80s ALBUM - CD3\03.Paul Simon - You Can Call Me Al.wav

Peak level 96.6 %
Extraction speed 22.5 X
Track quality 100.0 %
Copy CRC 9D4B97BD
Track not present in AccurateRip database
Copy OK

Track 4

Filename A:\PsPBuRnOuT's MUSIC\SORTED BY YEAR\1980s\THE HITS ALBUM - THE 80s ALBUM\THE HITS ALBUM - THE 80s ALBUM - CD3\04.Dolly Parton & Kenny Rogers - Islands In The Stream.wav

Peak level 88.2 %
Extraction speed 20.5 X
Track quality 99.9 %
Copy CRC 91F0E2F6
Track not present in AccurateRip database
Copy OK

Track 5

Filename A:\PsPBuRnOuT's MUSIC\SORTED BY YEAR\1980s\THE HITS ALBUM - THE 80s ALBUM\THE HITS ALBUM - THE 80s ALBUM - CD3\05.Mike Oldfield - Moonlight Shadow.wav

Peak level 76.8 %
Extraction speed 19.1 X
Track quality 100.0 %
Copy CRC C1126A3B
Track not present in AccurateRip database
Copy OK

Track 6

Filename A:\PsPBuRnOuT's MUSIC\SORTED BY YEAR\1980s\THE HITS ALBUM - THE 80s ALBUM\THE HITS ALBUM - THE 80s ALBUM - CD3\06.Nick Heyward - Whistle Down The Wind.wav

Peak level 97.7 %
Extraction speed 27.1 X
Track quality 100.0 %
Copy CRC 798365E3
Track not present in AccurateRip database
Copy OK

Track 7

Filename A:\PsPBuRnOuT's MUSIC\SORTED BY YEAR\1980s\THE HITS ALBUM - THE 80s ALBUM\THE HITS ALBUM - THE 80s ALBUM - CD3\07.Daryl Hall & John Oates - I Can't Go For That (No Can Do).wav

Peak level 100.0 %
Extraction speed 27.1 X
Track quality 100.0 %
Copy CRC 5E3FB955
Track not present in AccurateRip database
Copy OK

Track 8

Filename A:\PsPBuRnOuT's MUSIC\SORTED BY YEAR\1980s\THE HITS ALBUM - THE 80s ALBUM\THE HITS ALBUM - THE 80s ALBUM - CD3\08.Joe Jackson - Steppin' Out.wav

Peak level 100.0 %
Extraction speed 28.3 X
Track quality 100.0 %
Copy CRC 79FBF241
Track not present in AccurateRip database
Copy OK

Track 9

Filename A:\PsPBuRnOuT's MUSIC\SORTED BY YEAR\1980s\THE HITS ALBUM - THE 80s ALBUM\THE HITS ALBUM - THE 80s ALBUM - CD3\09.Nik Kershaw - The Riddle.wav

Peak level 79.4 %
Extraction speed 30.8 X
Track quality 100.0 %
Copy CRC 81E97D9E
Track not present in AccurateRip database
Copy OK

Track 10

Filename A:\PsPBuRnOuT's MUSIC\SORTED BY YEAR\1980s\THE HITS ALBUM - THE 80s ALBUM\THE HITS ALBUM - THE 80s ALBUM - CD3\10.Philip Oakey & Giorgio Moroder - Together In Electric Dreams.wav

Peak level 79.3 %
Extraction speed 31.3 X
Track quality 100.0 %
Copy CRC 998F8B25
Track not present in AccurateRip database
Copy OK

Track 11

Filename A:\PsPBuRnOuT's MUSIC\SORTED BY YEAR\1980s\THE HITS ALBUM - THE 80s ALBUM\THE HITS ALBUM - THE 80s ALBUM - CD3\11.Japan - Quite Life.wav

Peak level 100.0 %
Extraction speed 33.0 X
Track quality 100.0 %
Copy CRC C2FD2325
Track not present in AccurateRip database
Copy OK

Track 12

Filename A:\PsPBuRnOuT's MUSIC\SORTED BY YEAR\1980s\THE HITS ALBUM - THE 80s ALBUM\THE HITS ALBUM - THE 80s ALBUM - CD3\12.The Cure - The Lovecats.wav

Peak level 76.3 %
Extraction speed 32.2 X
Track quality 100.0 %
Copy CRC 3D783166
Track not present in AccurateRip database
Copy OK

Track 13

Filename A:\PsPBuRnOuT's MUSIC\SORTED BY YEAR\1980s\THE HITS ALBUM - THE 80s ALBUM\THE HITS ALBUM - THE 80s ALBUM - CD3\13.Public Image Limited - This Is Not A Love Song.wav

Peak level 94.2 %
Extraction speed 26.5 X
Track quality 99.8 %
Copy CRC 2125B9CE
Track not present in AccurateRip database
Copy OK

Track 14

Filename A:\PsPBuRnOuT's MUSIC\SORTED BY YEAR\1980s\THE HITS ALBUM - THE 80s ALBUM\THE HITS ALBUM - THE 80s ALBUM - CD3\14.Altered Images - Happy Birthday.wav

Peak level 100.0 %
Extraction speed 24.7 X
Track quality 100.0 %
Copy CRC AE413622
Track not present in AccurateRip database
Copy OK

Track 15

Filename A:\PsPBuRnOuT's MUSIC\SORTED BY YEAR\1980s\THE HITS ALBUM - THE 80s ALBUM\THE HITS ALBUM - THE 80s ALBUM - CD3\15.Thompson Twins - Doctor! Doctor!.wav

Peak level 95.5 %
Extraction speed 34.8 X
Track quality 100.0 %
Copy CRC 7158850C
Track not present in AccurateRip database
Copy OK

Track 16

Filename A:\PsPBuRnOuT's MUSIC\SORTED BY YEAR\1980s\THE HITS ALBUM - THE 80s ALBUM\THE HITS ALBUM - THE 80s ALBUM - CD3\16.Sam Brown - Stop.wav

Peak level 74.0 %
Extraction speed 21.4 X
Track quality 99.9 %
Copy CRC 551E8EF6
Track not present in AccurateRip database
Copy OK

Track 17

Filename A:\PsPBuRnOuT's MUSIC\SORTED BY YEAR\1980s\THE HITS ALBUM - THE 80s ALBUM\THE HITS ALBUM - THE 80s ALBUM - CD3\17.Boy Meets Girl - Waiting For A Star To Fall.wav

Peak level 84.1 %
Extraction speed 37.0 X
Track quality 100.0 %
Copy CRC 268B0F1B
Track not present in AccurateRip database
Copy OK

Track 18

Filename A:\PsPBuRnOuT's MUSIC\SORTED BY YEAR\1980s\THE HITS ALBUM - THE 80s ALBUM\THE HITS ALBUM - THE 80s ALBUM - CD3\18.Will To Power - Baby I Love Your Way - Freebird (Free Baby).wav

Peak level 82.2 %
Extraction speed 37.7 X
Track quality 100.0 %
Copy CRC DA4C818E
Track not present in AccurateRip database
Copy OK

Track 19

Filename A:\PsPBuRnOuT's MUSIC\SORTED BY YEAR\1980s\THE HITS ALBUM - THE 80s ALBUM\THE HITS ALBUM - THE 80s ALBUM - CD3\19.Crowded House - Don't Dream It's Over.wav

Peak level 74.9 %
Extraction speed 16.6 X
Track quality 99.8 %
Copy CRC 037B2FB8
Track not present in AccurateRip database
Copy OK

Track 20

Filename A:\PsPBuRnOuT's MUSIC\SORTED BY YEAR\1980s\THE HITS ALBUM - THE 80s ALBUM\THE HITS ALBUM - THE 80s ALBUM - CD3\20.Paul Young - Wherever I Lay My Hat (That's My Home).wav

Peak level 100.0 %
Extraction speed 6.0 X
Track quality 99.6 %
Copy CRC 4D7F7C56
Track not present in AccurateRip database
Copy OK


None of the tracks are present in the AccurateRip database

No errors occurred

End of status report

–– CUETools DB Plugin V2.1.6

[CTDB TOCID: c7II8Zn1N0ZAMPytD9H9nrj4sUw-] found
Submit result: c7II8Zn1N0ZAMPytD9H9nrj4sUw- has been confirmed
Track | CTDB Status
1 | (1/1) Accurately ripped
2 | (1/1) Accurately ripped
3 | (1/1) Accurately ripped
4 | (1/1) Accurately ripped
5 | (1/1) Accurately ripped
6 | (1/1) Accurately ripped
7 | (1/1) Accurately ripped
8 | (1/1) Accurately ripped
9 | (1/1) Accurately ripped
10 | (1/1) Accurately ripped
11 | (1/1) Accurately ripped
12 | (1/1) Accurately ripped
13 | (1/1) Accurately ripped
14 | (1/1) Accurately ripped
15 | (1/1) Accurately ripped
16 | (1/1) Accurately ripped
17 | (1/1) Accurately ripped
18 | (1/1) Accurately ripped
19 | (1/1) Accurately ripped
20 | (1/1) Accurately ripped

Exact Audio Copy V1.3 from 2. September 2016

EAC extraction logfile from 17. April 2019, 20:15

Various / The Hits Album - The 80s Album - CD4

Used drive : ATAPI iHAS124 Y Adapter: 1 ID: 0

Read mode : Secure
Utilize accurate stream : Yes
Defeat audio cache : No
Make use of C2 pointers : Yes

Read offset correction : 48
Overread into Lead-In and Lead-Out : No
Fill up missing offset samples with silence : Yes
Delete leading and trailing silent blocks : No
Null samples used in CRC calculations : Yes
Used interface : Native Win32 interface for Win NT & 2000
Gap handling : Not detected, thus appended to previous track

Used output format : User Defined Encoder
Selected bitrate : 896 kBit/s
Quality : High
Add ID3 tag : No
Command line compressor : C:\Program Files (x86)\Exact Audio Copy\FLAC\FLAC.EXE
Additional command line options : -6 -V -T "ARTIST=%artist%" -T "TITLE=%title%" -T "ALBUM=%albumtitle%" -T "DATE=%year%" -T "TRACKNUMBER=%tracknr%" -T "GENRE=%genre%" -T "COMMENT=%comment%" -T "BAND=%albuminterpret%" -T "ALBUMARTIST=%albuminterpret%" -T "COMPOSER=%composer%" %haslyrics%–tag-from-file=LYRICS="%lyricsfile%"%haslyrics% -T "DISCNUMBER=%cdnumber%" -T "TOTALDISCS=%totalcds%" -T "TOTALTRACKS=%numtracks%" %hascover%–picture="%coverfile%"%hascover% %source% -o %dest%


TOC of the extracted CD

Track | Start | Length | Start sector | End sector
––––––––––––––––––––––––––––-
1 | 0:00.00 | 3:52.12 | 0 | 17411
2 | 3:52.12 | 4:00.16 | 17412 | 35427
3 | 7:52.28 | 3:59.04 | 35428 | 53356
4 | 11:51.32 | 4:10.63 | 53357 | 72169
5 | 16:02.20 | 4:17.66 | 72170 | 91510
6 | 20:20.11 | 3:40.68 | 91511 | 108078
7 | 24:01.04 | 3:47.05 | 108079 | 125108
8 | 27:48.09 | 3:56.50 | 125109 | 142858
9 | 31:44.59 | 3:47.23 | 142859 | 159906
10 | 35:32.07 | 3:13.45 | 159907 | 174426
11 | 38:45.52 | 3:53.70 | 174427 | 191971
12 | 42:39.47 | 3:52.08 | 191972 | 209379
13 | 46:31.55 | 3:54.50 | 209380 | 226979
14 | 50:26.30 | 3:24.47 | 226980 | 242326
15 | 53:51.02 | 4:21.12 | 242327 | 261913
16 | 58:12.14 | 3:47.68 | 261914 | 279006
17 | 62:00.07 | 4:38.06 | 279007 | 299862
18 | 66:38.13 | 3:44.44 | 299863 | 316706
19 | 70:22.57 | 3:51.56 | 316707 | 334087
20 | 74:14.38 | 3:45.48 | 334088 | 351010


Track 1

Filename A:\PsPBuRnOuT's MUSIC\SORTED BY YEAR\1980s\THE HITS ALBUM - THE 80s ALBUM\THE HITS ALBUM - THE 80s ALBUM - CD4\01.S'Express - Theme From S-Express.wav

Peak level 96.6 %
Extraction speed 8.5 X
Track quality 99.9 %
Copy CRC C6324BD4
Track not present in AccurateRip database
Copy OK

Track 2

Filename A:\PsPBuRnOuT's MUSIC\SORTED BY YEAR\1980s\THE HITS ALBUM - THE 80s ALBUM\THE HITS ALBUM - THE 80s ALBUM - CD4\02.Yazz & The Plastic Population - The Only Way Is Up.wav

Peak level 100.0 %
Extraction speed 10.5 X
Track quality 100.0 %
Copy CRC E87F0DD3
Track not present in AccurateRip database
Copy OK

Track 3

Filename A:\PsPBuRnOuT's MUSIC\SORTED BY YEAR\1980s\THE HITS ALBUM - THE 80s ALBUM\THE HITS ALBUM - THE 80s ALBUM - CD4\03.The Pointer Sisters - Jump (For My Love).wav

Peak level 100.0 %
Extraction speed 11.8 X
Track quality 100.0 %
Copy CRC 1441D38B
Track not present in AccurateRip database
Copy OK

Track 4

Filename A:\PsPBuRnOuT's MUSIC\SORTED BY YEAR\1980s\THE HITS ALBUM - THE 80s ALBUM\THE HITS ALBUM - THE 80s ALBUM - CD4\04.Donna Summer - She Works Hard For The Money.wav

Peak level 82.6 %
Extraction speed 12.6 X
Track quality 100.0 %
Copy CRC F85457D3
Track not present in AccurateRip database
Copy OK

Track 5

Filename A:\PsPBuRnOuT's MUSIC\SORTED BY YEAR\1980s\THE HITS ALBUM - THE 80s ALBUM\THE HITS ALBUM - THE 80s ALBUM - CD4\05.Michael Sembello - Manic.wav

Peak level 84.1 %
Extraction speed 13.4 X
Track quality 100.0 %
Copy CRC 8D366FF2
Track not present in AccurateRip database
Copy OK

Track 6

Filename A:\PsPBuRnOuT's MUSIC\SORTED BY YEAR\1980s\THE HITS ALBUM - THE 80s ALBUM\THE HITS ALBUM - THE 80s ALBUM - CD4\06.Maria Vidal - Body Rock.wav

Peak level 98.9 %
Extraction speed 14.1 X
Track quality 100.0 %
Copy CRC 9FA52FE5
Track not present in AccurateRip database
Copy OK

Track 7

Filename A:\PsPBuRnOuT's MUSIC\SORTED BY YEAR\1980s\THE HITS ALBUM - THE 80s ALBUM\THE HITS ALBUM - THE 80s ALBUM - CD4\07.Rock Steady Crew - (Hey You) The Rock Steady Crew.wav

Peak level 98.7 %
Extraction speed 14.1 X
Track quality 100.0 %
Copy CRC 7A9582B2
Track not present in AccurateRip database
Copy OK

Track 8

Filename A:\PsPBuRnOuT's MUSIC\SORTED BY YEAR\1980s\THE HITS ALBUM - THE 80s ALBUM\THE HITS ALBUM - THE 80s ALBUM - CD4\08.Rockwell - Somebody's Watching Me.wav

Peak level 84.1 %
Extraction speed 14.8 X
Track quality 100.0 %
Copy CRC E41BF5D5
Track not present in AccurateRip database
Copy OK

Track 9

Filename A:\PsPBuRnOuT's MUSIC\SORTED BY YEAR\1980s\THE HITS ALBUM - THE 80s ALBUM\THE HITS ALBUM - THE 80s ALBUM - CD4\09.Sly Fox - Let's Go All The Way.wav

Peak level 89.1 %
Extraction speed 16.0 X
Track quality 100.0 %
Copy CRC 928F7DAD
Track not present in AccurateRip database
Copy OK

Track 10

Filename A:\PsPBuRnOuT's MUSIC\SORTED BY YEAR\1980s\THE HITS ALBUM - THE 80s ALBUM\THE HITS ALBUM - THE 80s ALBUM - CD4\10.Falco - Rock Me Amadeus.wav

Peak level 79.4 %
Extraction speed 15.8 X
Track quality 100.0 %
Copy CRC 949A96BC
Track not present in AccurateRip database
Copy OK

Track 11

Filename A:\PsPBuRnOuT's MUSIC\SORTED BY YEAR\1980s\THE HITS ALBUM - THE 80s ALBUM\THE HITS ALBUM - THE 80s ALBUM - CD4\11.Animotion - Obsession.wav

Peak level 88.5 %
Extraction speed 17.0 X
Track quality 100.0 %
Copy CRC E7B0B8D1
Track not present in AccurateRip database
Copy OK

Track 12

Filename A:\PsPBuRnOuT's MUSIC\SORTED BY YEAR\1980s\THE HITS ALBUM - THE 80s ALBUM\THE HITS ALBUM - THE 80s ALBUM - CD4\12.Baltimora - Tarzan Boy.wav

Peak level 94.4 %
Extraction speed 17.6 X
Track quality 100.0 %
Copy CRC 4548B336
Track not present in AccurateRip database
Copy OK

Track 13

Filename A:\PsPBuRnOuT's MUSIC\SORTED BY YEAR\1980s\THE HITS ALBUM - THE 80s ALBUM\THE HITS ALBUM - THE 80s ALBUM - CD4\13.Sabrina - Boys (Summertime Love).wav

Peak level 86.9 %
Extraction speed 18.1 X
Track quality 100.0 %
Copy CRC E8323FDC
Track not present in AccurateRip database
Copy OK

Track 14

Filename A:\PsPBuRnOuT's MUSIC\SORTED BY YEAR\1980s\THE HITS ALBUM - THE 80s ALBUM\THE HITS ALBUM - THE 80s ALBUM - CD4\14.Sinitta - So Macho.wav

Peak level 100.0 %
Extraction speed 18.7 X
Track quality 100.0 %
Copy CRC 5A6A7E2A
Track not present in AccurateRip database
Copy OK

Track 15

Filename A:\PsPBuRnOuT's MUSIC\SORTED BY YEAR\1980s\THE HITS ALBUM - THE 80s ALBUM\THE HITS ALBUM - THE 80s ALBUM - CD4\15.Miami Sound Machine - Dr. Beat.wav

Peak level 89.1 %
Extraction speed 18.5 X
Track quality 100.0 %
Copy CRC 016F4932
Track not present in AccurateRip database
Copy OK

Track 16

Filename A:\PsPBuRnOuT's MUSIC\SORTED BY YEAR\1980s\THE HITS ALBUM - THE 80s ALBUM\THE HITS ALBUM - THE 80s ALBUM - CD4\16.Debarge - Rhythm Of The Night.wav

Peak level 84.1 %
Extraction speed 19.6 X
Track quality 100.0 %
Copy CRC 1AD7CC78
Track not present in AccurateRip database
Copy OK

Track 17

Filename A:\PsPBuRnOuT's MUSIC\SORTED BY YEAR\1980s\THE HITS ALBUM - THE 80s ALBUM\THE HITS ALBUM - THE 80s ALBUM - CD4\17.Five Star - Can't Wait Another Minute.wav

Peak level 100.0 %
Extraction speed 19.3 X
Track quality 100.0 %
Copy CRC 2794C498
Track not present in AccurateRip database
Copy OK

Track 18

Filename A:\PsPBuRnOuT's MUSIC\SORTED BY YEAR\1980s\THE HITS ALBUM - THE 80s ALBUM\THE HITS ALBUM - THE 80s ALBUM - CD4\18.Ashford & Simpson - Solid.wav

Peak level 89.1 %
Extraction speed 19.6 X
Track quality 100.0 %
Copy CRC 7A9E21CC
Track not present in AccurateRip database
Copy OK

Track 19

Filename A:\PsPBuRnOuT's MUSIC\SORTED BY YEAR\1980s\THE HITS ALBUM - THE 80s ALBUM\THE HITS ALBUM - THE 80s ALBUM - CD4\19.Womack & Womack - Teardrops.wav

Peak level 94.4 %
Extraction speed 21.1 X
Track quality 100.0 %
Copy CRC 48EA26D0
Track not present in AccurateRip database
Copy OK

Track 20

Filename A:\PsPBuRnOuT's MUSIC\SORTED BY YEAR\1980s\THE HITS ALBUM - THE 80s ALBUM\THE HITS ALBUM - THE 80s ALBUM - CD4\20.Soul II Soul - Back To Life.wav

Peak level 98.8 %
Extraction speed 20.1 X
Track quality 99.9 %
Copy CRC 6F11372C
Track not present in AccurateRip database
Copy OK


None of the tracks are present in the AccurateRip database

No errors occurred

End of status report

–– CUETools DB Plugin V2.1.6

[CTDB TOCID: A3YWJjH1FkIDTuGnLwQzFTrANWs-] found
Submit result: A3YWJjH1FkIDTuGnLwQzFTrANWs- has been confirmed
Track | CTDB Status
1 | (1/1) Accurately ripped
2 | (1/1) Accurately ripped
3 | (1/1) Accurately ripped
4 | (1/1) Accurately ripped
5 | (1/1) Accurately ripped
6 | (1/1) Accurately ripped
7 | (1/1) Accurately ripped
8 | (1/1) Accurately ripped
9 | (1/1) Accurately ripped
10 | (1/1) Accurately ripped
11 | (1/1) Accurately ripped
12 | (1/1) Accurately ripped
13 | (1/1) Accurately ripped
14 | (1/1) Accurately ripped
15 | (1/1) Accurately ripped
16 | (1/1) Accurately ripped
17 | (1/1) Accurately ripped
18 | (1/1) Accurately ripped
19 | (1/1) Accurately ripped
20 | (1/1) Accurately ripped