Tags
Language
Tags

V.A. - Cafe Del Mar - Terrace Mix 4 (2014)

Posted By: gribovar
V.A. - Cafe Del Mar - Terrace Mix 4 (2014)

V.A. - Café Del Mar - Terrace Mix 4 (2014)
EAC Rip | FLAC (tracks+.cue+log) - 421 MB | MP3 CBR 320 kbps (LAME 3.93) - 160 MB | Covers - 88 MB
Genre: Chillout, Downtempo, Lounge, House | RAR 3% Rec. | Label: Café Del Mar Music (1-2014-109)

Café del Mar Terrace Mix continues its successful story with another great selection of 13 titles, carefully compiled by Toni Simonen. An album that builds up gradually from mellow sounds to deep steady grooves and that delivers the finest Line Up since the first installment. So without any doubt this album belongs to the best realizations of Toni Simonen's mission to bridge the gap between chill and electro beats.
Tracklist:
01. Bah Samba - Moonlight (Julian Bendall's Lovers Reprise)
02. Phonique Feat. Ruben - Amy's Heart
03. FaltyDL - Ahead The Ship Sleeps
04. Fondue - Absolem
05. Bonobo - Duals
06. The Future Sound Of London - Point Of Departure
07. David Douglas - Higher
08. Man Without A Contry - Sweet Harmony (Ryan's Mix)
09. Dolle Jolle - Balearic Incarnation (Todd Terje's Extra Doll Mix)
10. Moby Feat. Damien Jurado - Almost Home (Moby's House Of Koi Mix)
11. Stephane Pompougnac - Stupid Boy
12. Joris Voorn - Ringo
13. Justin Martin - The Sad Piano (Charles Webster Mix)

Total time: 01:08:03

Exact Audio Copy V1.0 beta 4 from 7. December 2014

EAC extraction logfile from 18. January 2016, 20:13

Various Artist / Cafe Del Mar Terrace Mix 4

Used drive : ASUS DRW-24B3ST Adapter: 1 ID: 2

Read mode : Secure
Utilize accurate stream : Yes
Defeat audio cache : Yes
Make use of C2 pointers : No

Read offset correction : 6
Overread into Lead-In and Lead-Out : No
Fill up missing offset samples with silence : Yes
Delete leading and trailing silent blocks : No
Null samples used in CRC calculations : Yes
Used interface : Native Win32 interface for Win NT & 2000
Gap handling : Appended to previous track

Used output format : User Defined Encoder
Selected bitrate : 896 kBit/s
Quality : High
Add ID3 tag : No
Command line compressor : C:\Program Files (x86)\Exact Audio Copy\Flac\flac.exe
Additional command line options : -8 -V -T "ARTIST=%artist%" -T "TITLE=%title%" -T "ALBUM=%albumtitle%" -T "DATE=%year%" -T "TRACKNUMBER=%tracknr%" -T "GENRE=%genre%" -T "COMMENT=ripped by Oleandris" %source%


TOC of the extracted CD

Track | Start | Length | Start sector | End sector
––––––––––––––––––––––––––––-
1 | 0:00.00 | 8:25.03 | 0 | 37877
2 | 8:25.03 | 2:30.18 | 37878 | 49145
3 | 10:55.21 | 3:46.61 | 49146 | 66156
4 | 14:42.07 | 5:02.31 | 66157 | 88837
5 | 19:44.38 | 3:56.45 | 88838 | 106582
6 | 23:41.08 | 5:53.53 | 106583 | 133110
7 | 29:34.61 | 3:32.04 | 133111 | 149014
8 | 33:06.65 | 5:43.32 | 149015 | 174771
9 | 38:50.22 | 8:12.43 | 174772 | 211714
10 | 47:02.65 | 5:09.50 | 211715 | 234939
11 | 52:12.40 | 4:19.26 | 234940 | 254390
12 | 56:31.66 | 5:11.45 | 254391 | 277760
13 | 61:43.36 | 6:19.44 | 277761 | 306229


Track 1

Filename X:\AUDIO I\Ambient - Chill Out - Lounge - Easy Listening - Electronic\ Cafe Del Mar - TERRACE mix Compiled By Toni Simonen (2011-2014)\2014 - Cafe Del Mar - TERRACE Mix 4\01. Bah Samba - Moonlight (Julian Bendall's Lovers Reprise).wav

Pre-gap length 0:00:02.00

Peak level 80.2 %
Extraction speed 4.2 X
Track quality 100.0 %
Test CRC 42E6D7ED
Copy CRC 42E6D7ED
Accurately ripped (confidence 5) [B18C358A] (AR v2)
Copy OK

Track 2

Filename X:\AUDIO I\Ambient - Chill Out - Lounge - Easy Listening - Electronic\ Cafe Del Mar - TERRACE mix Compiled By Toni Simonen (2011-2014)\2014 - Cafe Del Mar - TERRACE Mix 4\02. Phonique Feat. Ruben - Amy's Heart.wav

Peak level 73.5 %
Extraction speed 4.0 X
Track quality 100.0 %
Test CRC 2065ACFF
Copy CRC 2065ACFF
Accurately ripped (confidence 5) [B6EB6FF1] (AR v2)
Copy OK

Track 3

Filename X:\AUDIO I\Ambient - Chill Out - Lounge - Easy Listening - Electronic\ Cafe Del Mar - TERRACE mix Compiled By Toni Simonen (2011-2014)\2014 - Cafe Del Mar - TERRACE Mix 4\03. FaltyDL - Ahead The Ship Sleeps.wav

Peak level 93.4 %
Extraction speed 4.6 X
Track quality 100.0 %
Test CRC 5C5543DD
Copy CRC 5C5543DD
Accurately ripped (confidence 5) [49E17BA1] (AR v2)
Copy OK

Track 4

Filename X:\AUDIO I\Ambient - Chill Out - Lounge - Easy Listening - Electronic\ Cafe Del Mar - TERRACE mix Compiled By Toni Simonen (2011-2014)\2014 - Cafe Del Mar - TERRACE Mix 4\04. Fondue - Absolem.wav

Peak level 89.1 %
Extraction speed 4.2 X
Track quality 99.9 %
Test CRC 96443E9D
Copy CRC 96443E9D
Accurately ripped (confidence 5) [60B4088A] (AR v2)
Copy OK

Track 5

Filename X:\AUDIO I\Ambient - Chill Out - Lounge - Easy Listening - Electronic\ Cafe Del Mar - TERRACE mix Compiled By Toni Simonen (2011-2014)\2014 - Cafe Del Mar - TERRACE Mix 4\05. Bonobo - Duals.wav

Peak level 61.4 %
Extraction speed 5.2 X
Track quality 100.0 %
Test CRC 0B2A3EEE
Copy CRC 0B2A3EEE
Accurately ripped (confidence 5) [746EF354] (AR v2)
Copy OK

Track 6

Filename X:\AUDIO I\Ambient - Chill Out - Lounge - Easy Listening - Electronic\ Cafe Del Mar - TERRACE mix Compiled By Toni Simonen (2011-2014)\2014 - Cafe Del Mar - TERRACE Mix 4\06. The Future Sound Of London - Point Of Departure.wav

Peak level 80.9 %
Extraction speed 5.7 X
Track quality 100.0 %
Test CRC 76422F35
Copy CRC 76422F35
Accurately ripped (confidence 5) [A31F37BE] (AR v2)
Copy OK

Track 7

Filename X:\AUDIO I\Ambient - Chill Out - Lounge - Easy Listening - Electronic\ Cafe Del Mar - TERRACE mix Compiled By Toni Simonen (2011-2014)\2014 - Cafe Del Mar - TERRACE Mix 4\07. David Douglas - Higher.wav

Peak level 60.7 %
Extraction speed 5.6 X
Track quality 100.0 %
Test CRC C0E658A4
Copy CRC C0E658A4
Accurately ripped (confidence 5) [3A24921B] (AR v2)
Copy OK

Track 8

Filename X:\AUDIO I\Ambient - Chill Out - Lounge - Easy Listening - Electronic\ Cafe Del Mar - TERRACE mix Compiled By Toni Simonen (2011-2014)\2014 - Cafe Del Mar - TERRACE Mix 4\08. Man Without A Contry - Sweet Harmony (Ryan's Mix).wav

Peak level 71.6 %
Extraction speed 6.3 X
Track quality 100.0 %
Test CRC 4C649D1D
Copy CRC 4C649D1D
Accurately ripped (confidence 5) [1839BA43] (AR v2)
Copy OK

Track 9

Filename X:\AUDIO I\Ambient - Chill Out - Lounge - Easy Listening - Electronic\ Cafe Del Mar - TERRACE mix Compiled By Toni Simonen (2011-2014)\2014 - Cafe Del Mar - TERRACE Mix 4\09. Dolle Jolle - Balearic Incarnation (Todd Terje's Extra Doll Mix).wav

Peak level 92.0 %
Extraction speed 6.9 X
Track quality 100.0 %
Test CRC 5A6EC506
Copy CRC 5A6EC506
Accurately ripped (confidence 5) [FCBFC2A6] (AR v2)
Copy OK

Track 10

Filename X:\AUDIO I\Ambient - Chill Out - Lounge - Easy Listening - Electronic\ Cafe Del Mar - TERRACE mix Compiled By Toni Simonen (2011-2014)\2014 - Cafe Del Mar - TERRACE Mix 4\10. Moby Feat. Damien Jurado - Almost Home (Moby's House Of Koi Mix).wav

Peak level 96.6 %
Extraction speed 6.9 X
Track quality 100.0 %
Test CRC EB0D75E0
Copy CRC EB0D75E0
Accurately ripped (confidence 5) [41E2CB69] (AR v2)
Copy OK

Track 11

Filename X:\AUDIO I\Ambient - Chill Out - Lounge - Easy Listening - Electronic\ Cafe Del Mar - TERRACE mix Compiled By Toni Simonen (2011-2014)\2014 - Cafe Del Mar - TERRACE Mix 4\11. Stephane Pompougnac - Stupid Boy.wav

Peak level 78.4 %
Extraction speed 6.9 X
Track quality 100.0 %
Test CRC 0E60A16D
Copy CRC 0E60A16D
Accurately ripped (confidence 5) [FBA2C9C2] (AR v2)
Copy OK

Track 12

Filename X:\AUDIO I\Ambient - Chill Out - Lounge - Easy Listening - Electronic\ Cafe Del Mar - TERRACE mix Compiled By Toni Simonen (2011-2014)\2014 - Cafe Del Mar - TERRACE Mix 4\12. Joris Voorn - Ringo.wav

Peak level 96.6 %
Extraction speed 7.3 X
Track quality 100.0 %
Test CRC D3DDE9A5
Copy CRC D3DDE9A5
Accurately ripped (confidence 5) [FABA700A] (AR v2)
Copy OK

Track 13

Filename X:\AUDIO I\Ambient - Chill Out - Lounge - Easy Listening - Electronic\ Cafe Del Mar - TERRACE mix Compiled By Toni Simonen (2011-2014)\2014 - Cafe Del Mar - TERRACE Mix 4\13. Justin Martin - The Sad Piano (Charles Webster Mix).wav

Peak level 96.6 %
Extraction speed 7.7 X
Track quality 100.0 %
Test CRC 3C9DD12A
Copy CRC 3C9DD12A
Accurately ripped (confidence 5) [31AFD345] (AR v2)
Copy OK


All tracks accurately ripped

No errors occurred

End of status report

–– CUETools DB Plugin V2.1.4

[CTDB TOCID: kG7RSe3f6ryASUnV5qu.V_ONmtg-] found
Submit result: kG7RSe3f6ryASUnV5qu.V_ONmtg- has been confirmed
Track | CTDB Status
1 | (13/13) Accurately ripped
2 | (13/13) Accurately ripped
3 | (13/13) Accurately ripped
4 | (13/13) Accurately ripped
5 | (13/13) Accurately ripped
6 | (13/13) Accurately ripped
7 | (13/13) Accurately ripped
8 | (13/13) Accurately ripped
9 | (13/13) Accurately ripped
10 | (13/13) Accurately ripped
11 | (13/13) Accurately ripped
12 | (13/13) Accurately ripped
13 | (13/13) Accurately ripped


==== Log checksum 6421E580BB7CA5450C3A4F0B480FB719C8BD3714CB7335ECA52E0B49E9AD83D0 ====

[CUETools log; Date: 31.12.2020 0:42:59; Version: 2.1.4]
[CTDB TOCID: kG7RSe3f6ryASUnV5qu.V_ONmtg-] found.
Track | CTDB Status
1 | (42/42) Accurately ripped
2 | (42/42) Accurately ripped
3 | (42/42) Accurately ripped
4 | (42/42) Accurately ripped
5 | (42/42) Accurately ripped
6 | (42/42) Accurately ripped
7 | (42/42) Accurately ripped
8 | (42/42) Accurately ripped
9 | (42/42) Accurately ripped
10 | (42/42) Accurately ripped
11 | (42/42) Accurately ripped
12 | (42/42) Accurately ripped
13 | (42/42) Accurately ripped
[AccurateRip ID: 001fe629-013f394b-c30ff30d] found.
Track [ CRC | V2 ] Status
01 [f9753b31|b18c358a] (00+14/14) Accurately ripped
02 [86b798b4|b6eb6ff1] (00+14/14) Accurately ripped
03 [d6b930a1|49e17ba1] (00+14/14) Accurately ripped
04 [627a92ff|60b4088a] (00+14/14) Accurately ripped
05 [b3262841|746ef354] (00+14/14) Accurately ripped
06 [540bc286|a31f37be] (00+14/14) Accurately ripped
07 [bf917ca2|3a24921b] (00+14/14) Accurately ripped
08 [dc87be86|1839ba43] (00+14/14) Accurately ripped
09 [e81e24dc|fcbfc2a6] (00+14/14) Accurately ripped
10 [dc0ab07b|41e2cb69] (00+14/14) Accurately ripped
11 [66e39240|fba2c9c2] (00+14/14) Accurately ripped
12 [81920a87|faba700a] (00+14/14) Accurately ripped
13 [19701960|31afd345] (00+14/14) Accurately ripped

Track Peak [ CRC32 ] [W/O NULL] [ LOG ]
– 96,6 [CB8A95FA] [9AE83565]
01 80,2 [42E6D7ED] [AAD7C290] CRC32
02 73,5 [2065ACFF] [B4ECF6D5] CRC32
03 93,4 [5C5543DD] [7729A0B2] CRC32
04 89,1 [96443E9D] [A84158F3] CRC32
05 61,4 [0B2A3EEE] [610FB859] CRC32
06 80,9 [76422F35] [E882BAA7] CRC32
07 60,7 [C0E658A4] [BE4888D9] CRC32
08 71,6 [4C649D1D] [FE324F08] CRC32
09 92,0 [5A6EC506] [3AB0FE3D] CRC32
10 96,6 [EB0D75E0] [0FAC22DE] CRC32
11 78,4 [0E60A16D] [B21D9FF2] CRC32
12 96,6 [D3DDE9A5] [E6CF93D4] CRC32
13 96,6 [3C9DD12A] [DA0565DD] CRC32

Thanks to Oleandris

See also: