Tags
Language
Tags

V.A. - Le Café Abstrait By Raphaël Marionneau Vol. 10 (2013)

Posted By: gribovar
V.A. - Le Café Abstrait By Raphaël Marionneau Vol. 10 (2013)

V.A. - Le Cafe Abstrait By Raphael Marionneau Vol. 10 (2013)
EAC Rip | FLAC (tracks+.cue+log) - 1,13 GB | MP3 CBR 320 kbps (LAME 3.93) - 510 MB | Covers - 116 MB
Genre: Chillout, Downtempo, Ambient | RAR 3% Rec. | Label: Abstrait Music

More than the compilation series, more than the lovingly organised events, more than the radio shows: "Le Café Abstrait" is a philosophy of lifestyle: relaxed and culturally open-minded.
It was "Le Café Abstrait" and its mastermind, Raphaël Marionneau, who pioneered chill-out culture at Hamburg's internationally renown Mojo club in 1996: "Le Café Abstrait" reinvented nightclubbing in a new relaxing way. Once a month, stylish sofa installations and light projections transformed Mojo's dancefloor into a gigantic living room. There, up to 400 laid-back nightlife connoisseurs indulged in relaxation and Raphaël Marionneau's very special downtempo music selections. A new lifestyle was born: the couch culture.
Its spirit still lives on today in various cultural and musical projects. Raphaël Marionneau took abstrait from the Mojo club to new places and spaces: concert halls, lounges, cinemas, beaches, beach clubs and festivals. Even Hamburg's planetarium hosts a regular abstrait event, where Raphaël and world renown guests hypnotize the audience with an intergalactic multimedia-show. The French soundpilot loves to transform places, bringing together seemingly opposed cultural scenes and disparate, musically interested people of all ages. While abstrait metamorphosed, its initial intend remained: Raphaël Marionneau wants to touch people with his musical choices and seeks to slow down hectic, stressful every day life. Thanks to radio sessions and various recordings, abstrait also helps you to relax at home. During the past ten years Raphaël Marionneau has released more than 30 compilations, including the successful compilation series "Le Café Abstrait".
CD 1 Tracklist:
01. Sambox - I' Ocean Cafe
02. Alex Picciafuochi - Undersea
03. Lgchu by Mis Beseos - About Ocean's Morning
04. Al Rea - Island Breath
05. Philippe Legrand - Silverrain
06. Carlos Cervilla - Es Cavallet
07. Soulcraft - The Change
08. Klangstein feat. Sine - Klangsine
09. Der Waldlaufer - Flores
10. Anthony Island - Goodbye
11. Gold Lounge - Night Wind
12. Julien Auclair - Emphasis
13. Polished Chrome - Desire
14. Stardelay - Earthlight
15. Daniel Mille - Place Sainte-Catherine
16. Bonobo - Black Sands

Total time: 01:16:23

CD 2 Tracklist:
01. Monolake - Plumbicon Versions
02. Eskadet - Immersion
03. Solee - Legends (Slow Motion Mix)
04. James Murray - Floods
05. A Reminiscent Drive - Life Is Beautiful (New Version)
06. Lenny Ibizarre feat. Federica - One World
07. Id3 - Galaxy Sandpaper
08. Asonat - Love In Times Of Receptition
09. Bob Holroyd - Parallels (The Album Leaf Remix)
10. Animat - Thermostellar
11. Digital Rain - I Miss You
12. Parisian - White Flash
13. Der Waldlaufer - Ciel Ouvert
14. Dim Line - Cyan (Original mix)
15. Pass Into Silence - Iceblink

Total time: 01:15:23

CD 3 Tracklist:
01. A Winged Victory For The Sullen - We Played Some Open Chords And Rejoiced, For The Earth Had Circled The Sun Yet Another Year
02. Fragments - Echoes
03. Olafur Arnalds - Near Light
04. Fabrizio Paterlini - Week#6
05. Lowland - Children (Original Version)
06. Sven Weiseman - Xine XVI Avedon
07. Malino - Herbstballade
08. Marcel Lichter - Sylt
09. Marcus Loeber - Hands (Solo Piano Version)
10. Didier Squiban - Eizh
11. Ann - Helena Schluter - Vem Du An Ar (Whoever You Are)
12. Nils Frahm - Dedication, Loyalty
13. Olafur Arnalds - Raein
14. Ralf Hildenbeutel - Lucy's Dream
15. Nils Frahm - Said And Done
16. Ralf Hildenbeutel - … Like Raindrops On A Lake
17. Bliss - A Chapter In History
18. Marcus Loeber - Tuesday

Total time: 01:04:49

Exact Audio Copy V1.0 beta 3 from 29. August 2011

EAC extraction logfile from 17. January 2014, 18:18

Various / Le Cafe Abstrait by Raphael Marionneau Vol.10 CD1

Used drive : ASUS DRW-24B3ST Adapter: 1 ID: 2

Read mode : Secure
Utilize accurate stream : Yes
Defeat audio cache : Yes
Make use of C2 pointers : No

Read offset correction : 6
Overread into Lead-In and Lead-Out : No
Fill up missing offset samples with silence : Yes
Delete leading and trailing silent blocks : No
Null samples used in CRC calculations : Yes
Used interface : Native Win32 interface for Win NT & 2000
Gap handling : Appended to previous track

Used output format : User Defined Encoder
Selected bitrate : 896 kBit/s
Quality : High
Add ID3 tag : No
Command line compressor : C:\Program Files (x86)\Exact Audio Copy\Flac\flac.exe
Additional command line options : -8 -V -T "ARTIST=%artist%" -T "TITLE=%title%" -T "ALBUM=%albumtitle%" -T "DATE=%year%" -T "TRACKNUMBER=%tracknr%" -T "GENRE=%genre%" -T "COMMENT=ripped by Oleandris" %source%


TOC of the extracted CD

Track | Start | Length | Start sector | End sector
––––––––––––––––––––––––––––-
1 | 0:00.00 | 5:12.01 | 0 | 23400
2 | 5:12.01 | 3:50.72 | 23401 | 40722
3 | 9:02.73 | 5:18.20 | 40723 | 64592
4 | 14:21.18 | 2:59.67 | 64593 | 78084
5 | 17:21.10 | 4:21.66 | 78085 | 97725
6 | 21:43.01 | 4:49.37 | 97726 | 119437
7 | 26:32.38 | 4:58.40 | 119438 | 141827
8 | 31:31.03 | 5:02.40 | 141828 | 164517
9 | 36:33.43 | 4:18.52 | 164518 | 183919
10 | 40:52.20 | 3:51.41 | 183920 | 201285
11 | 44:43.61 | 5:25.29 | 201286 | 225689
12 | 50:09.15 | 4:42.74 | 225690 | 246913
13 | 54:52.14 | 4:58.54 | 246914 | 269317
14 | 59:50.68 | 3:02.26 | 269318 | 282993
15 | 62:53.19 | 6:41.73 | 282994 | 313141
16 | 69:35.17 | 6:48.14 | 313142 | 343755


Track 1

Filename F:\ЗАГРУЗКИ\ Le Cafe Abstrait by Raphael Marionneau 3CD (2013)\CD1\01. Sambox - I' Ocean Cafe.wav

Pre-gap length 0:00:02.00

Peak level 98.8 %
Extraction speed 2.2 X
Track quality 100.0 %
Test CRC EDA2200E
Copy CRC EDA2200E
Accurately ripped (confidence 2) [15B19DE9] (AR v2)
Copy OK

Track 2

Filename F:\ЗАГРУЗКИ\ Le Cafe Abstrait by Raphael Marionneau 3CD (2013)\CD1\02. Alex Picciafuochi - Undersea.wav

Peak level 98.8 %
Extraction speed 2.3 X
Track quality 100.0 %
Test CRC A37DF7B6
Copy CRC A37DF7B6
Accurately ripped (confidence 2) [1D495524] (AR v2)
Copy OK

Track 3

Filename F:\ЗАГРУЗКИ\ Le Cafe Abstrait by Raphael Marionneau 3CD (2013)\CD1\03. Lgchu by Mis Beseos - About Ocean's Morning.wav

Peak level 92.3 %
Extraction speed 2.6 X
Track quality 100.0 %
Test CRC 6C59205C
Copy CRC 6C59205C
Accurately ripped (confidence 2) [0D642184] (AR v2)
Copy OK

Track 4

Filename F:\ЗАГРУЗКИ\ Le Cafe Abstrait by Raphael Marionneau 3CD (2013)\CD1\04. Al Rea - Island Breath.wav

Peak level 98.8 %
Extraction speed 1.7 X
Track quality 99.9 %
Test CRC A2921A66
Copy CRC A2921A66
Accurately ripped (confidence 2) [FC091AE5] (AR v2)
Copy OK

Track 5

Filename F:\ЗАГРУЗКИ\ Le Cafe Abstrait by Raphael Marionneau 3CD (2013)\CD1\05. Philippe Legrand - Silverrain.wav

Peak level 98.8 %
Extraction speed 2.8 X
Track quality 100.0 %
Test CRC 6A9C2840
Copy CRC 6A9C2840
Accurately ripped (confidence 2) [33B87E46] (AR v2)
Copy OK

Track 6

Filename F:\ЗАГРУЗКИ\ Le Cafe Abstrait by Raphael Marionneau 3CD (2013)\CD1\06. Carlos Cervilla - Es Cavallet.wav

Peak level 95.4 %
Extraction speed 2.3 X
Track quality 99.9 %
Test CRC 8631AA41
Copy CRC 8631AA41
Accurately ripped (confidence 2) [472E26E9] (AR v2)
Copy OK

Track 7

Filename F:\ЗАГРУЗКИ\ Le Cafe Abstrait by Raphael Marionneau 3CD (2013)\CD1\07. Soulcraft - The Change.wav

Peak level 98.8 %
Extraction speed 3.2 X
Track quality 100.0 %
Test CRC A4CB0D9B
Copy CRC A4CB0D9B
Accurately ripped (confidence 2) [A4C4051D] (AR v2)
Copy OK

Track 8

Filename F:\ЗАГРУЗКИ\ Le Cafe Abstrait by Raphael Marionneau 3CD (2013)\CD1\08. Klangstein feat. Sine - Klangsine.wav

Peak level 96.6 %
Extraction speed 3.4 X
Track quality 100.0 %
Test CRC 6DA29954
Copy CRC 6DA29954
Accurately ripped (confidence 2) [E22DB949] (AR v2)
Copy OK

Track 9

Filename F:\ЗАГРУЗКИ\ Le Cafe Abstrait by Raphael Marionneau 3CD (2013)\CD1\09. Der Waldlaufer - Flores.wav

Peak level 98.8 %
Extraction speed 3.5 X
Track quality 100.0 %
Test CRC BC992AE1
Copy CRC BC992AE1
Accurately ripped (confidence 2) [D7300F90] (AR v2)
Copy OK

Track 10

Filename F:\ЗАГРУЗКИ\ Le Cafe Abstrait by Raphael Marionneau 3CD (2013)\CD1\10. Anthony Island - Goodbye.wav

Peak level 96.6 %
Extraction speed 3.5 X
Track quality 100.0 %
Test CRC 0A30F0F3
Copy CRC 0A30F0F3
Accurately ripped (confidence 2) [ED68F296] (AR v2)
Copy OK

Track 11

Filename F:\ЗАГРУЗКИ\ Le Cafe Abstrait by Raphael Marionneau 3CD (2013)\CD1\11. Gold Lounge - Night Wind.wav

Peak level 96.6 %
Extraction speed 3.8 X
Track quality 100.0 %
Test CRC 9A0F1BBD
Copy CRC 9A0F1BBD
Accurately ripped (confidence 2) [90DAF0CC] (AR v2)
Copy OK

Track 12

Filename F:\ЗАГРУЗКИ\ Le Cafe Abstrait by Raphael Marionneau 3CD (2013)\CD1\12. Julien Auclair - Emphasis.wav

Peak level 98.8 %
Extraction speed 3.9 X
Track quality 100.0 %
Test CRC 902AF41A
Copy CRC 902AF41A
Accurately ripped (confidence 2) [E2995B83] (AR v2)
Copy OK

Track 13

Filename F:\ЗАГРУЗКИ\ Le Cafe Abstrait by Raphael Marionneau 3CD (2013)\CD1\13. Polished Chrome - Desire.wav

Peak level 96.6 %
Extraction speed 4.0 X
Track quality 100.0 %
Test CRC 4180484A
Copy CRC 4180484A
Accurately ripped (confidence 2) [D924E00F] (AR v2)
Copy OK

Track 14

Filename F:\ЗАГРУЗКИ\ Le Cafe Abstrait by Raphael Marionneau 3CD (2013)\CD1\14. Stardelay - Earthlight.wav

Peak level 98.8 %
Extraction speed 3.8 X
Track quality 100.0 %
Test CRC 43C1B378
Copy CRC 43C1B378
Accurately ripped (confidence 2) [4E5B6C99] (AR v2)
Copy OK

Track 15

Filename F:\ЗАГРУЗКИ\ Le Cafe Abstrait by Raphael Marionneau 3CD (2013)\CD1\15. Daniel Mille - Place Sainte-Catherine.wav

Peak level 73.0 %
Extraction speed 4.3 X
Track quality 100.0 %
Test CRC FCE690BE
Copy CRC FCE690BE
Accurately ripped (confidence 2) [B3F8EE09] (AR v2)
Copy OK

Track 16

Filename F:\ЗАГРУЗКИ\ Le Cafe Abstrait by Raphael Marionneau 3CD (2013)\CD1\16. Bonobo - Black Sands.wav

Peak level 96.8 %
Extraction speed 4.5 X
Track quality 100.0 %
Test CRC E481BC8C
Copy CRC E481BC8C
Accurately ripped (confidence 2) [6D2591AF] (AR v2)
Copy OK


All tracks accurately ripped

No errors occurred

End of status report

–– CUETools DB Plugin V2.1.3

[CTDB TOCID: wcjUTzxhiFpMGNVDvmoORA0YGi8-] found, Submit result: wcjUTzxhiFpMGNVDvmoORA0YGi8- has been confirmed
[d07411e0] (4/4) Accurately ripped


==== Log checksum 9EE17EE17E515794A94C00886E5D9FCB81437CD63509AA24684A8C13E5495E4C ====

[CUETools log; Date: 16.10.2018 21:27:14; Version: 2.1.4]
[CTDB TOCID: wcjUTzxhiFpMGNVDvmoORA0YGi8-] found.
Track | CTDB Status
1 | (18/18) Accurately ripped
2 | (18/18) Accurately ripped
3 | (18/18) Accurately ripped
4 | (18/18) Accurately ripped
5 | (18/18) Accurately ripped
6 | (18/18) Accurately ripped
7 | (18/18) Accurately ripped
8 | (18/18) Accurately ripped
9 | (18/18) Accurately ripped
10 | (18/18) Accurately ripped
11 | (18/18) Accurately ripped
12 | (18/18) Accurately ripped
13 | (18/18) Accurately ripped
14 | (18/18) Accurately ripped
15 | (18/18) Accurately ripped
16 | (18/18) Accurately ripped
[AccurateRip ID: 002aaf14-02022ad7-e911e710] found.
Track [ CRC | V2 ] Status
01 [a01583ec|15b19de9] (0+8/8) Accurately ripped
02 [2f9f83a8|1d495524] (0+8/8) Accurately ripped
03 [cf644217|0d642184] (0+8/8) Accurately ripped
04 [72102803|fc091ae5] (0+8/8) Accurately ripped
05 [69ef0e78|33b87e46] (0+8/8) Accurately ripped
06 [e0dfa8d3|472e26e9] (0+8/8) Accurately ripped
07 [2ac2bc2c|a4c4051d] (0+8/8) Accurately ripped
08 [4b3ac44b|e22db949] (0+8/8) Accurately ripped
09 [8e8db038|d7300f90] (0+8/8) Accurately ripped
10 [569e4aaf|ed68f296] (0+8/8) Accurately ripped
11 [2593d5c1|90daf0cc] (0+8/8) Accurately ripped
12 [88f7fbff|e2995b83] (0+8/8) Accurately ripped
13 [1beb32c5|d924e00f] (0+8/8) Accurately ripped
14 [ef6d6761|4e5b6c99] (0+8/8) Accurately ripped
15 [a57e7b8c|b3f8ee09] (0+8/8) Accurately ripped
16 [60f494ee|6d2591af] (0+8/8) Accurately ripped

Track Peak [ CRC32 ] [W/O NULL] [ LOG ]
– 98,8 [241C25AE] [96789A02]
01 98,8 [EDA2200E] [ED38C088] CRC32
02 98,8 [A37DF7B6] [1D89A779] CRC32
03 92,3 [6C59205C] [8CB8A4B2] CRC32
04 98,8 [A2921A66] [FE2D006F] CRC32
05 98,8 [6A9C2840] [EBDA57D3] CRC32
06 95,4 [8631AA41] [1692176D] CRC32
07 98,8 [A4CB0D9B] [9362A146] CRC32
08 96,6 [6DA29954] [74778F6B] CRC32
09 98,8 [BC992AE1] [C0CD4283] CRC32
10 96,6 [0A30F0F3] [73824B65] CRC32
11 96,6 [9A0F1BBD] [9E75C11F] CRC32
12 98,8 [902AF41A] [2390F3F0] CRC32
13 96,6 [4180484A] [5712139D] CRC32
14 98,8 [43C1B378] [495E27FD] CRC32
15 73,0 [FCE690BE] [A688FF0F] CRC32
16 96,8 [E481BC8C] [AF1EC917] CRC32

Exact Audio Copy V1.0 beta 3 from 29. August 2011

EAC extraction logfile from 17. January 2014, 17:56

Various Artists / Raphael Marionneau Vol.10 CD2

Used drive : PLEXTOR DVDR PX-L890SA Adapter: 1 ID: 4

Read mode : Secure
Utilize accurate stream : Yes
Defeat audio cache : Yes
Make use of C2 pointers : No

Read offset correction : 6
Overread into Lead-In and Lead-Out : No
Fill up missing offset samples with silence : Yes
Delete leading and trailing silent blocks : No
Null samples used in CRC calculations : Yes
Used interface : Native Win32 interface for Win NT & 2000
Gap handling : Appended to previous track

Used output format : User Defined Encoder
Selected bitrate : 896 kBit/s
Quality : High
Add ID3 tag : No
Command line compressor : C:\Program Files (x86)\Exact Audio Copy\Flac\flac.exe
Additional command line options : -8 -V -T "ARTIST=%artist%" -T "TITLE=%title%" -T "ALBUM=%albumtitle%" -T "DATE=%year%" -T "TRACKNUMBER=%tracknr%" -T "GENRE=%genre%" -T "COMMENT=ripped by Oleandris" %source%


TOC of the extracted CD

Track | Start | Length | Start sector | End sector
––––––––––––––––––––––––––––-
1 | 0:00.00 | 6:30.53 | 0 | 29302
2 | 6:30.53 | 7:05.17 | 29303 | 61194
3 | 13:35.70 | 6:55.20 | 61195 | 92339
4 | 20:31.15 | 5:44.18 | 92340 | 118157
5 | 26:15.33 | 4:36.00 | 118158 | 138857
6 | 30:51.33 | 3:12.46 | 138858 | 153303
7 | 34:04.04 | 3:32.38 | 153304 | 169241
8 | 37:36.42 | 5:08.60 | 169242 | 192401
9 | 42:45.27 | 4:12.70 | 192402 | 211371
10 | 46:58.22 | 3:16.60 | 211372 | 226131
11 | 50:15.07 | 7:27.13 | 226132 | 259669
12 | 57:42.20 | 3:36.28 | 259670 | 275897
13 | 61:18.48 | 5:21.73 | 275898 | 300045
14 | 66:40.46 | 3:41.13 | 300046 | 316633
15 | 70:21.59 | 5:01.65 | 316634 | 339273


Track 1

Filename F:\ЗАГРУЗКИ\ Le Cafe Abstrait by Raphael Marionneau 3CD (2013)\CD2\01. Monolake - Plumbicon Versions.wav

Pre-gap length 0:00:02.00

Peak level 96.5 %
Extraction speed 4.2 X
Track quality 100.0 %
Test CRC 0B027E15
Copy CRC 0B027E15
Accurately ripped (confidence 2) [363DED85] (AR v2)
Copy OK

Track 2

Filename F:\ЗАГРУЗКИ\ Le Cafe Abstrait by Raphael Marionneau 3CD (2013)\CD2\02. Eskadet - Immersion.wav

Peak level 96.6 %
Extraction speed 4.8 X
Track quality 100.0 %
Test CRC EC7E8B56
Copy CRC EC7E8B56
Accurately ripped (confidence 2) [D308EDC8] (AR v2)
Copy OK

Track 3

Filename F:\ЗАГРУЗКИ\ Le Cafe Abstrait by Raphael Marionneau 3CD (2013)\CD2\03. Solee - Legends (Slow Motion Mix).wav

Peak level 88.4 %
Extraction speed 5.4 X
Track quality 100.0 %
Test CRC E165F2BF
Copy CRC E165F2BF
Accurately ripped (confidence 2) [00532355] (AR v2)
Copy OK

Track 4

Filename F:\ЗАГРУЗКИ\ Le Cafe Abstrait by Raphael Marionneau 3CD (2013)\CD2\04. James Murray - Floods.wav

Peak level 96.5 %
Extraction speed 5.7 X
Track quality 100.0 %
Test CRC 2F7747CF
Copy CRC 2F7747CF
Accurately ripped (confidence 2) [B7E4B234] (AR v2)
Copy OK

Track 5

Filename F:\ЗАГРУЗКИ\ Le Cafe Abstrait by Raphael Marionneau 3CD (2013)\CD2\05. A Reminiscent Drive - Life Is Beautiful (New Version).wav

Peak level 83.1 %
Extraction speed 5.9 X
Track quality 100.0 %
Test CRC 33E89ED7
Copy CRC 33E89ED7
Accurately ripped (confidence 2) [1C69C33B] (AR v2)
Copy OK

Track 6

Filename F:\ЗАГРУЗКИ\ Le Cafe Abstrait by Raphael Marionneau 3CD (2013)\CD2\06. Lenny Ibizarre feat. Federica - One World.wav

Peak level 89.5 %
Extraction speed 5.8 X
Track quality 100.0 %
Test CRC 3F2B2C97
Copy CRC 3F2B2C97
Accurately ripped (confidence 2) [A0E968FF] (AR v2)
Copy OK

Track 7

Filename F:\ЗАГРУЗКИ\ Le Cafe Abstrait by Raphael Marionneau 3CD (2013)\CD2\07. Id3 - Galaxy Sandpaper.wav

Peak level 98.8 %
Extraction speed 6.1 X
Track quality 100.0 %
Test CRC F7124F80
Copy CRC F7124F80
Accurately ripped (confidence 2) [9BB61966] (AR v2)
Copy OK

Track 8

Filename F:\ЗАГРУЗКИ\ Le Cafe Abstrait by Raphael Marionneau 3CD (2013)\CD2\08. Asonat - Love In Times Of Receptition.wav

Peak level 97.7 %
Extraction speed 6.5 X
Track quality 100.0 %
Test CRC DAE4F15E
Copy CRC DAE4F15E
Accurately ripped (confidence 2) [6036A8D8] (AR v2)
Copy OK

Track 9

Filename F:\ЗАГРУЗКИ\ Le Cafe Abstrait by Raphael Marionneau 3CD (2013)\CD2\09. Bob Holroyd - Parallels (The Album Leaf Remix).wav

Peak level 98.8 %
Extraction speed 5.3 X
Track quality 99.9 %
Test CRC A3845903
Copy CRC A3845903
Accurately ripped (confidence 2) [F09FE58F] (AR v2)
Copy OK

Track 10

Filename F:\ЗАГРУЗКИ\ Le Cafe Abstrait by Raphael Marionneau 3CD (2013)\CD2\10. Animat - Thermostellar.wav

Peak level 96.5 %
Extraction speed 6.6 X
Track quality 100.0 %
Test CRC EA71D525
Copy CRC EA71D525
Accurately ripped (confidence 2) [F24777B0] (AR v2)
Copy OK

Track 11

Filename F:\ЗАГРУЗКИ\ Le Cafe Abstrait by Raphael Marionneau 3CD (2013)\CD2\11. Digital Rain - I Miss You.wav

Peak level 98.8 %
Extraction speed 6.4 X
Track quality 99.9 %
Test CRC DAD31AB0
Copy CRC DAD31AB0
Accurately ripped (confidence 2) [EBAA6552] (AR v2)
Copy OK

Track 12

Filename F:\ЗАГРУЗКИ\ Le Cafe Abstrait by Raphael Marionneau 3CD (2013)\CD2\12. Parisian - White Flash.wav

Peak level 98.8 %
Extraction speed 7.2 X
Track quality 100.0 %
Test CRC D27A22D7
Copy CRC D27A22D7
Accurately ripped (confidence 2) [2355BC3E] (AR v2)
Copy OK

Track 13

Filename F:\ЗАГРУЗКИ\ Le Cafe Abstrait by Raphael Marionneau 3CD (2013)\CD2\13. Der Waldlaufer - Ciel Ouvert.wav

Peak level 97.6 %
Extraction speed 7.7 X
Track quality 100.0 %
Test CRC F4C4CFA3
Copy CRC F4C4CFA3
Accurately ripped (confidence 2) [8C633F09] (AR v2)
Copy OK

Track 14

Filename F:\ЗАГРУЗКИ\ Le Cafe Abstrait by Raphael Marionneau 3CD (2013)\CD2\14. Dim Line - Cyan (Original mix).wav

Peak level 96.7 %
Extraction speed 7.5 X
Track quality 100.0 %
Test CRC 7109A4CD
Copy CRC 7109A4CD
Accurately ripped (confidence 2) [66A45388] (AR v2)
Copy OK

Track 15

Filename F:\ЗАГРУЗКИ\ Le Cafe Abstrait by Raphael Marionneau 3CD (2013)\CD2\15. Pass Into Silence - Iceblink.wav

Peak level 96.5 %
Extraction speed 8.1 X
Track quality 100.0 %
Test CRC 349AB9C2
Copy CRC 349AB9C2
Accurately ripped (confidence 2) [8D53BB3C] (AR v2)
Copy OK


All tracks accurately ripped

No errors occurred

End of status report

–– CUETools DB Plugin V2.1.3

[CTDB TOCID: 0Hwk6D8Cr7d9XL.2o_Ed4cGzHwI-] found, Submit result: 0Hwk6D8Cr7d9XL.2o_Ed4cGzHwI- has been confirmed
[93ebe620] (4/4) Accurately ripped


==== Log checksum 27D81FCD8255F1431006CA54F7C5392B36B70BB65643589F9F75F7CB41893A9E ====

[CUETools log; Date: 16.10.2018 21:27:55; Version: 2.1.4]
[CTDB TOCID: 0Hwk6D8Cr7d9XL.2o_Ed4cGzHwI-] found.
Track | CTDB Status
1 | (18/18) Accurately ripped
2 | (18/18) Accurately ripped
3 | (18/18) Accurately ripped
4 | (18/18) Accurately ripped
5 | (18/18) Accurately ripped
6 | (18/18) Accurately ripped
7 | (18/18) Accurately ripped
8 | (18/18) Accurately ripped
9 | (18/18) Accurately ripped
10 | (18/18) Accurately ripped
11 | (18/18) Accurately ripped
12 | (18/18) Accurately ripped
13 | (18/18) Accurately ripped
14 | (18/18) Accurately ripped
15 | (18/18) Accurately ripped
[AccurateRip ID: 002c00f4-01e665f4-c911ab0f] found.
Track [ CRC | V2 ] Status
01 [94dbac0b|363ded85] (0+8/8) Accurately ripped
02 [566a50cc|d308edc8] (0+8/8) Accurately ripped
03 [152c4636|00532355] (0+8/8) Accurately ripped
04 [7ad8d06f|b7e4b234] (0+8/8) Accurately ripped
05 [a94db218|1c69c33b] (0+8/8) Accurately ripped
06 [44bbe578|a0e968ff] (0+8/8) Accurately ripped
07 [317f8bc9|9bb61966] (0+8/8) Accurately ripped
08 [162b1480|6036a8d8] (0+8/8) Accurately ripped
09 [df8b0360|f09fe58f] (0+8/8) Accurately ripped
10 [4ab702b4|f24777b0] (0+8/8) Accurately ripped
11 [32feab10|ebaa6552] (0+8/8) Accurately ripped
12 [3d423d08|2355bc3e] (0+8/8) Accurately ripped
13 [28b9ac3c|8c633f09] (0+8/8) Accurately ripped
14 [f02cb69e|66a45388] (0+8/8) Accurately ripped
15 [ea6cc1b5|8d53bb3c] (0+8/8) Accurately ripped

Track Peak [ CRC32 ] [W/O NULL] [ LOG ]
– 98,8 [9C97D2D1] [339A93FB]
01 96,5 [0B027E15] [BAF1DA7B] CRC32
02 96,6 [EC7E8B56] [A8A60268] CRC32
03 88,4 [E165F2BF] [F924C8C6] CRC32
04 96,5 [2F7747CF] [9F63E370] CRC32
05 83,1 [33E89ED7] [B71EC999] CRC32
06 89,5 [3F2B2C97] [993BC4D2] CRC32
07 98,8 [F7124F80] [5DBEC2DB] CRC32
08 97,7 [DAE4F15E] [4A4F962A] CRC32
09 98,8 [A3845903] [38D1640A] CRC32
10 96,5 [EA71D525] [ABB8C573] CRC32
11 98,8 [DAD31AB0] [CE8F9992] CRC32
12 98,8 [D27A22D7] [1D1CC974] CRC32
13 97,6 [F4C4CFA3] [62BF3588] CRC32
14 96,7 [7109A4CD] [09BC0F36] CRC32
15 96,5 [349AB9C2] [7AC4D2BB] CRC32

Exact Audio Copy V1.0 beta 3 from 29. August 2011

EAC extraction logfile from 17. January 2014, 19:02

Various / Le Cafe Abstrait by Raphael Marionneau Vol.10 CD3

Used drive : PLEXTOR DVDR PX-891SA Adapter: 1 ID: 5

Read mode : Secure
Utilize accurate stream : Yes
Defeat audio cache : Yes
Make use of C2 pointers : No

Read offset correction : 6
Overread into Lead-In and Lead-Out : No
Fill up missing offset samples with silence : Yes
Delete leading and trailing silent blocks : No
Null samples used in CRC calculations : Yes
Used interface : Native Win32 interface for Win NT & 2000
Gap handling : Appended to previous track

Used output format : User Defined Encoder
Selected bitrate : 896 kBit/s
Quality : High
Add ID3 tag : No
Command line compressor : C:\Program Files (x86)\Exact Audio Copy\Flac\flac.exe
Additional command line options : -8 -V -T "ARTIST=%artist%" -T "TITLE=%title%" -T "ALBUM=%albumtitle%" -T "DATE=%year%" -T "TRACKNUMBER=%tracknr%" -T "GENRE=%genre%" -T "COMMENT=ripped by Oleandris" %source%


TOC of the extracted CD

Track | Start | Length | Start sector | End sector
––––––––––––––––––––––––––––-
1 | 0:00.00 | 6:07.56 | 0 | 27580
2 | 6:07.56 | 3:09.36 | 27581 | 41791
3 | 9:17.17 | 3:19.20 | 41792 | 56736
4 | 12:36.37 | 3:38.28 | 56737 | 73114
5 | 16:14.65 | 4:02.31 | 73115 | 91295
6 | 20:17.21 | 3:44.16 | 91296 | 108111
7 | 24:01.37 | 3:08.64 | 108112 | 122275
8 | 27:10.26 | 3:03.43 | 122276 | 136043
9 | 30:13.69 | 4:38.06 | 136044 | 156899
10 | 34:52.00 | 4:25.25 | 156900 | 176799
11 | 39:17.25 | 4:42.70 | 176800 | 198019
12 | 44:00.20 | 2:56.18 | 198020 | 211237
13 | 46:56.38 | 2:49.15 | 211238 | 223927
14 | 49:45.53 | 2:08.38 | 223928 | 233565
15 | 51:54.16 | 3:05.41 | 233566 | 247481
16 | 54:59.57 | 4:01.69 | 247482 | 265625
17 | 59:01.51 | 2:03.23 | 265626 | 274873
18 | 61:04.74 | 3:44.45 | 274874 | 291718


Track 1

Filename F:\ЗАГРУЗКИ\ Le Cafe Abstrait by Raphael Marionneau 3CD (2013)\CD3\01. A Winged Victory For The Sullen - We Played Some Open Chords And Rejoiced, For The Earth Had Circled The Sun Yet Another Year.wav

Pre-gap length 0:00:02.00

Peak level 92.6 %
Extraction speed 2.3 X
Track quality 100.0 %
Test CRC A406F123
Copy CRC A406F123
Accurately ripped (confidence 2) [BCC40155] (AR v2)
Copy OK

Track 2

Filename F:\ЗАГРУЗКИ\ Le Cafe Abstrait by Raphael Marionneau 3CD (2013)\CD3\02. Fragments - Echoes.wav

Peak level 98.8 %
Extraction speed 2.3 X
Track quality 100.0 %
Test CRC 631154F2
Copy CRC 631154F2
Accurately ripped (confidence 2) [B435E580] (AR v2)
Copy OK

Track 3

Filename F:\ЗАГРУЗКИ\ Le Cafe Abstrait by Raphael Marionneau 3CD (2013)\CD3\03. Olafur Arnalds - Near Light.wav

Peak level 97.8 %
Extraction speed 2.5 X
Track quality 100.0 %
Test CRC A2082F9C
Copy CRC A2082F9C
Accurately ripped (confidence 2) [2312AF03] (AR v2)
Copy OK

Track 4

Filename F:\ЗАГРУЗКИ\ Le Cafe Abstrait by Raphael Marionneau 3CD (2013)\CD3\04. Fabrizio Paterlini - Week#6.wav

Peak level 92.5 %
Extraction speed 2.7 X
Track quality 100.0 %
Test CRC 304B7635
Copy CRC 304B7635
Accurately ripped (confidence 2) [9A20BCC7] (AR v2)
Copy OK

Track 5

Filename F:\ЗАГРУЗКИ\ Le Cafe Abstrait by Raphael Marionneau 3CD (2013)\CD3\05. Lowland - Children (Original Version).wav

Peak level 95.2 %
Extraction speed 2.9 X
Track quality 100.0 %
Test CRC 8AD24C84
Copy CRC 8AD24C84
Accurately ripped (confidence 2) [81A9FF25] (AR v2)
Copy OK

Track 6

Filename F:\ЗАГРУЗКИ\ Le Cafe Abstrait by Raphael Marionneau 3CD (2013)\CD3\06. Sven Weiseman - Xine XVI Avedon.wav

Peak level 55.5 %
Extraction speed 3.0 X
Track quality 100.0 %
Test CRC 021CC61E
Copy CRC 021CC61E
Accurately ripped (confidence 2) [5174EC03] (AR v2)
Copy OK

Track 7

Filename F:\ЗАГРУЗКИ\ Le Cafe Abstrait by Raphael Marionneau 3CD (2013)\CD3\07. Malino - Herbstballade.wav

Peak level 98.8 %
Extraction speed 3.0 X
Track quality 100.0 %
Test CRC 881A9F6A
Copy CRC 881A9F6A
Accurately ripped (confidence 2) [75CD9B6A] (AR v2)
Copy OK

Track 8

Filename F:\ЗАГРУЗКИ\ Le Cafe Abstrait by Raphael Marionneau 3CD (2013)\CD3\08. Marcel Lichter - Sylt.wav

Peak level 66.7 %
Extraction speed 2.1 X
Track quality 99.9 %
Test CRC C0E58BBC
Copy CRC C0E58BBC
Accurately ripped (confidence 2) [4604F786] (AR v2)
Copy OK

Track 9

Filename F:\ЗАГРУЗКИ\ Le Cafe Abstrait by Raphael Marionneau 3CD (2013)\CD3\09. Marcus Loeber - Hands (Solo Piano Version).wav

Peak level 98.0 %
Extraction speed 3.5 X
Track quality 100.0 %
Test CRC 4E1572DC
Copy CRC 4E1572DC
Accurately ripped (confidence 2) [2C6DB4D4] (AR v2)
Copy OK

Track 10

Filename F:\ЗАГРУЗКИ\ Le Cafe Abstrait by Raphael Marionneau 3CD (2013)\CD3\10. Didier Squiban - Eizh.wav

Peak level 98.8 %
Extraction speed 3.6 X
Track quality 100.0 %
Test CRC 10AE8BCF
Copy CRC 10AE8BCF
Accurately ripped (confidence 2) [18F9ADE5] (AR v2)
Copy OK

Track 11

Filename F:\ЗАГРУЗКИ\ Le Cafe Abstrait by Raphael Marionneau 3CD (2013)\CD3\11. Ann - Helena Schluter - Vem Du An Ar (Whoever You Are).wav

Peak level 91.7 %
Extraction speed 3.8 X
Track quality 100.0 %
Test CRC 0F637C3F
Copy CRC 0F637C3F
Accurately ripped (confidence 2) [E1629DD7] (AR v2)
Copy OK

Track 12

Filename F:\ЗАГРУЗКИ\ Le Cafe Abstrait by Raphael Marionneau 3CD (2013)\CD3\12. Nils Frahm - Dedication, Loyalty.wav

Peak level 96.5 %
Extraction speed 3.6 X
Track quality 100.0 %
Test CRC BC41519B
Copy CRC BC41519B
Accurately ripped (confidence 2) [98B94321] (AR v2)
Copy OK

Track 13

Filename F:\ЗАГРУЗКИ\ Le Cafe Abstrait by Raphael Marionneau 3CD (2013)\CD3\13. Olafur Arnalds - Raein.wav

Peak level 98.8 %
Extraction speed 3.7 X
Track quality 100.0 %
Test CRC A8B9E62C
Copy CRC A8B9E62C
Accurately ripped (confidence 2) [DCD1043C] (AR v2)
Copy OK

Track 14

Filename F:\ЗАГРУЗКИ\ Le Cafe Abstrait by Raphael Marionneau 3CD (2013)\CD3\14. Ralf Hildenbeutel - Lucy's Dream.wav

Pre-gap length 0:00:00.01

Peak level 98.8 %
Extraction speed 3.5 X
Track quality 100.0 %
Test CRC B4A22181
Copy CRC B4A22181
Accurately ripped (confidence 2) [EE7AF8C6] (AR v2)
Copy OK

Track 15

Filename F:\ЗАГРУЗКИ\ Le Cafe Abstrait by Raphael Marionneau 3CD (2013)\CD3\15. Nils Frahm - Said And Done.wav

Peak level 72.1 %
Extraction speed 3.9 X
Track quality 100.0 %
Test CRC 7385DABF
Copy CRC 7385DABF
Accurately ripped (confidence 2) [F624C936] (AR v2)
Copy OK

Track 16

Filename F:\ЗАГРУЗКИ\ Le Cafe Abstrait by Raphael Marionneau 3CD (2013)\CD3\16. Ralf Hildenbeutel… - … Like Raindrops On A Lake.wav

Peak level 96.5 %
Extraction speed 4.2 X
Track quality 100.0 %
Test CRC 9A914A2A
Copy CRC 9A914A2A
Accurately ripped (confidence 2) [62A82055] (AR v2)
Copy OK

Track 17

Filename F:\ЗАГРУЗКИ\ Le Cafe Abstrait by Raphael Marionneau 3CD (2013)\CD3\17. Bliss - A Chapter In History.wav

Peak level 93.6 %
Extraction speed 3.7 X
Track quality 100.0 %
Test CRC 733D56FE
Copy CRC 733D56FE
Accurately ripped (confidence 2) [E674167D] (AR v2)
Copy OK

Track 18

Filename F:\ЗАГРУЗКИ\ Le Cafe Abstrait by Raphael Marionneau 3CD (2013)\CD3\18. Marcus Loeber - Tuesday.wav

Peak level 89.5 %
Extraction speed 4.2 X
Track quality 100.0 %
Test CRC 7C44A333
Copy CRC 7C44A333
Accurately ripped (confidence 2) [B5B99166] (AR v2)
Copy OK


All tracks accurately ripped

No errors occurred

End of status report

–– CUETools DB Plugin V2.1.3

[CTDB TOCID: PKSawnKMTXHmOUtsii3BoR7OGdY-] found, Submit result: PKSawnKMTXHmOUtsii3BoR7OGdY- has been confirmed
[691d0fbe] (4/4) Accurately ripped


==== Log checksum 7996FA2740CF354738E2DAF8F2726CEF9775E220480D9C0AD89DD3E92681BC86 ====

[CUETools log; Date: 16.10.2018 21:28:32; Version: 2.1.4]
[CTDB TOCID: PKSawnKMTXHmOUtsii3BoR7OGdY-] found.
Track | CTDB Status
1 | (19/19) Accurately ripped
2 | (19/19) Accurately ripped
3 | (19/19) Accurately ripped
4 | (19/19) Accurately ripped
5 | (19/19) Accurately ripped
6 | (19/19) Accurately ripped
7 | (19/19) Accurately ripped
8 | (19/19) Accurately ripped
9 | (19/19) Accurately ripped
10 | (19/19) Accurately ripped
11 | (19/19) Accurately ripped
12 | (19/19) Accurately ripped
13 | (19/19) Accurately ripped
14 | (19/19) Accurately ripped
15 | (19/19) Accurately ripped
16 | (19/19) Accurately ripped
17 | (19/19) Accurately ripped
18 | (19/19) Accurately ripped
[AccurateRip ID: 002cd112-024bc70d-190f3112] found.
Track [ CRC | V2 ] Status
01 [51de85c2|bcc40155] (0+8/8) Accurately ripped
02 [41a7811e|b435e580] (0+8/8) Accurately ripped
03 [0c68c8ca|2312af03] (0+8/8) Accurately ripped
04 [bb450e37|9a20bcc7] (0+8/8) Accurately ripped
05 [28dca2ae|81a9ff25] (0+8/8) Accurately ripped
06 [5667524c|5174ec03] (0+8/8) Accurately ripped
07 [ba3997ab|75cd9b6a] (0+8/8) Accurately ripped
08 [3149c45f|4604f786] (0+8/8) Accurately ripped
09 [222d9d2d|2c6db4d4] (0+8/8) Accurately ripped
10 [cd4a8cb6|18f9ade5] (0+8/8) Accurately ripped
11 [32e03788|e1629dd7] (0+8/8) Accurately ripped
12 [3ea5367a|98b94321] (0+8/8) Accurately ripped
13 [e7b2818e|dcd1043c] (0+8/8) Accurately ripped
14 [0c65f08e|ee7af8c6] (0+8/8) Accurately ripped
15 [ee3e2330|f624c936] (0+8/8) Accurately ripped
16 [3bd83bf3|62a82055] (0+8/8) Accurately ripped
17 [04072977|e674167d] (0+8/8) Accurately ripped
18 [3c72f967|b5b99166] (0+8/8) Accurately ripped

Track Peak [ CRC32 ] [W/O NULL] [ LOG ]
– 98,8 [272E769D] [1577F7F0]
01 92,6 [A406F123] [6B9CB203] CRC32
02 98,8 [631154F2] [2A6735C0] CRC32
03 97,8 [A2082F9C] [638EEEB4] CRC32
04 92,5 [304B7635] [E7C85EA0] CRC32
05 95,2 [8AD24C84] [F58E8222] CRC32
06 55,5 [021CC61E] [00FADAE0] CRC32
07 98,8 [881A9F6A] [9A920811] CRC32
08 66,7 [C0E58BBC] [A5C57F9B] CRC32
09 98,0 [4E1572DC] [F095DC78] CRC32
10 98,8 [10AE8BCF] [91CAF026] CRC32
11 91,7 [0F637C3F] [526D51F7] CRC32
12 96,5 [BC41519B] [595F7883] CRC32
13 98,8 [A8B9E62C] [2F337FDC] CRC32
14 98,8 [B4A22181] [3270B751] CRC32
15 72,1 [7385DABF] [A4A275FC] CRC32
16 96,5 [9A914A2A] [F7E7BD90] CRC32
17 93,6 [733D56FE] [0E7F7E1E] CRC32
18 89,5 [7C44A333] [289B785B] CRC32

Thanks to oleandris