V.A. - The Perfect Guitar Collection: 25 Original Albums (2012) [25 CD Box Set]

Posted By: Andi_Deris
V.A. - The Perfect Guitar Collection: 25 Original Albums (2012) [25 CD Box Set]

V.A. - The Perfect Guitar Collection: 25 Original Albums (2012) [25 CD Box Set]
EAC Rip | FLAC: Image+Cue+Log | 7.3 Gb | MP3 CBR 320 kbps | 3.2 Gb | Scans | 459 Mb | TTime: 20:45:04
Genre: Jazz, Blues, Rock, Fusion, Instrumental | Label: Columbia/Sony Music | Cat.: 88725413792

This guitar compilation provides you with a knock-out collection of full albums by guitar icons such as Lee Ritenour (Captain Fingers), George Benson, Al Di Meola, John McLaughlin, John Pizzarelli, G3 and many more. If you’re lucky, you can find this box set for less than € 50,00, so you get a lot of awesome music at a cheap price! The genres range from Jazz, Blues and Rock to Fusion. Great work by great guitarists.

V.A. - The Perfect Guitar Collection: 25 Original Albums (2012) [25 CD Box Set]




V.A. - The Perfect Guitar Collection: 25 Original Albums (2012) [25 CD Box Set]


CD01 - Mark Knopfler & Chet Atkins - Neck And Neck (1990)

01. Poor Boy Blues (4:03)
02. Sweet Dreams (3:25)
03. There'll Be Some Changes Made (6:28)
04. Just One Time (4:12)
05. So Soft, Your Goodbye (3:18)
06. Yakety Axe (3:24)
07. Tears (3:54)
08. Tahitian Skies (3:18)
09. I'll See You In My Dreams (2:58)
10. The Next Time I'm In Town (3:22)

V.A. - The Perfect Guitar Collection: 25 Original Albums (2012) [25 CD Box Set]


CD02 - Michael Bloomfield - Don't Say That I Ain't Your Man! Essential Blues 1964-1969 (1994)

01. I've Got You In The Palm Of My Hand (2:28)
02. Last Night (3:25)
03. Feel So Good (2:56)
04. Goin' Down Slow (3:41)
05. I Got My Mojo Working (2:41)
06. Born In Chicago (3:10)
07. Work Song (7:56)
08. Killing Floor (4:13)
09. Albert's Shuffle (6:56)
10. Stop (4:24)
11. Mary Ann (Live) (5:29)
12. Don't Throw Your Love On Me So Strong (Live) (11:05)
13. Don't Think About It Baby (Live) (3:36)
14. It Takes Time (Live) (4:09)
15. Carmeleta Skiffle (Live) (5:12)

V.A. - The Perfect Guitar Collection: 25 Original Albums (2012) [25 CD Box Set]


CD03 - Jorma Kaukonen - Blue Country Heart (2002)

01. Blue Railroad Train (3:44)
02. Just Because (4:15)
03. Blues Stay Away from Me (3:28)
04. Red River Blues (3:24)
05. Bread Line Blues (4:38)
06. Waiting for a Train (3:25)
07. Those Gambler's Blues (3:06)
08. Tom Cat Blues (3:05)
09. Big River Blues (3:00)
10. Prohibition Blues (4:13)
11. I'm Free from the Chain Gang Now (3:27)
12. You and My Old Guitar (2:45)
13. What Are They Doing in Heaven Today? (3:19)

V.A. - The Perfect Guitar Collection: 25 Original Albums (2012) [25 CD Box Set]


CD04 - Leo Kottke - Standing In My Shoes (1997)

01. Standing In My Shoes (3:59)
02. World Turning (3:59)
03. Dead End (4:16)
04. Vaseline Machine Gun (3:10)
05. Corrina, Corrina (4:20)
06. Realm (3:08)
07. Cripple Creek (3:07)
08. Twice (3:33)
09. Across The Street (3:16)
10. Don't Call Me Ray (3:17)
11. Itchy (2:51)

V.A. - The Perfect Guitar Collection: 25 Original Albums (2012) [25 CD Box Set]


CD05 - Johnny Winter - Johnny Winter (1969) (Remastered 2004)

01. I'm Yours And I'm Hers (4:31)
02. Be Careful With A Fool (5:16)
03. Dallas (2:49)
04. Mean Mistreater (3:55)
05. Leland Mississippi Blues (3:27)
06. Good Morning Little School Girl (2:46)
07. When You Got A Good Friend (3:42)
08. I'll Drown In My Own Tears (4:46)
09. Back Door Friend (2:58)
10. Country Girl (Previously Unissued Bonus Track) (3:08)
11. Dallas (Previously Unissued Alternate Take) (3:37)
12. Two Steps From The Blues (Previously Unissued Bonus Track) (2:35)

V.A. - The Perfect Guitar Collection: 25 Original Albums (2012) [25 CD Box Set]


CD06 - Stevie Ray Vaughan and Double Trouble - Texas Flood (1983) (Remastered 1999)

01. Love Struck Baby (2:23)
02. Pride And Joy (3:40)
03. Texas Flood (5:21)
04. Tell Me (2:48)
05. Testify (3:22)
06. Rude Mood (4:40)
07. Mary Had A Little Lamb (2:47)
08. Dirty Pool (5:02)
09. I'm Cryin' (3:47)
10. Lenny (5:03)
11. SRV Speaks (0:37)
12. Tin Pan Alley (aka Roughest Place In Town) (7:42)
13. Testify (Live) (3:54)
14. Mary Had A Little Lamb (Live) (3:31)
15. Wham! (Live) (4:20)

V.A. - The Perfect Guitar Collection: 25 Original Albums (2012) [25 CD Box Set]


CD07 - Kenny Burrell - God Bless The Child (1971) (Remastered 2001)

01. Be Yourself (5:56)
02. Love Is The Answer (4:54)
03. Do What You Gotta Do (9:35)
04. A Child Is Born (8:37)
05. God Bless The Child (8:55)
06. Ballad Of The Sad Young Men (New Digital Remix) (2:19)
07. Lost In The Stars (New Digital Remix) (2:27)
08. A Child Is Born (Alternate Take) (7:09)

V.A. - The Perfect Guitar Collection: 25 Original Albums (2012) [25 CD Box Set]


CD08 - Charlie Byrd - Brazilian Byrd (1965) (Remastered 1994)

01. Jazz 'n' Samba (2:23)
02. Corcovado (2:56)
03. That Look You Wear (2:32)
04. The Girl From Ipanema (2:48)
05. Samba Do Aviao (2:25)
06. Engano (2:25)
07. O Amor (3:12)
08. Dindi (3:57)
09. Sancao Do Amor Demais (2:23)
10. As Praias Desertas (4:05)
11. Samba Torto (2:18)
12. Someone To Light Up My Life (3:14)
13. Engano (2:21)

V.A. - The Perfect Guitar Collection: 25 Original Albums (2012) [25 CD Box Set]


CD09 - George Benson - The George Benson Cookbook (1966) (Remastered 2001)

01. The Cooker (4:19)
02. Benny's Back (4:12)
03. Bossa Rocka (4:25)
04. All Of Me (2:10)
05. Big Fat Lady (4:44)
06. Benson's Rider (5:37)
07. Ready And Able (3:34)
08. The Borgia Stick (3:09)
09. Return Of The Prodigal Son (2:38)
10. Jumpin' With Symphony Sid (6:36)
11. The Man From Toledo (2:10)
12. Slow Scene (3:14)
13. Let Them Talk (2:54)
14. Goodnight (2:21)

V.A. - The Perfect Guitar Collection: 25 Original Albums (2012) [25 CD Box Set]


CD10 - Charlie Christian - The Genius Of The Electric Guitar (1972) (Remastered 1987)
Compilation of sides recorded October 1939 to March 1941

01. Rose Room (2:48)
02. Seven Come Eleven (2:47)
03. Till Tom Special (3:02)
04. Gone With 'What' Wind (3:15)
05. Grand Slam (2:52)
06. Six Appeal (3:20)
07. Wholly Cats (3:01)
08. Royal Garden Blues (3:03)
09. As Long As I Live (3:24)
10. Benny's Bugle (3:07)
11. Breakfast Feud (3:07)
12. I Found A New Baby (2:57)
13. Solo Flight (2:48)
14. Blues In B (1:46)
15. Waiting For Benny (5:07)
16. Air Mail Special (3:20)

V.A. - The Perfect Guitar Collection: 25 Original Albums (2012) [25 CD Box Set]


CD11 - Al Di Meola - Scenario (1983)

01. Mata Hari (6:06)
02. Afrikan Night (4:52)
03. Island Dreamer (4:07)
04. Scenario (4:00)
05. Sequencer (4:08)
06. Cachaca (5:36)
07. Hipnotic Conviction (3:52)
08. Calliope (4:19)
09. Scoundrel (3:45)

V.A. - The Perfect Guitar Collection: 25 Original Albums (2012) [25 CD Box Set]


CD12 - Jim Hall - Concierto (1975) (Remastered 1987)

01. You'd Be So Nice To Come Home To (7:07)
02. Two's Blues (3:51)
03. The Answer Is Yes (7:39)
04. Concierto de Aranjuez (19:18)
05. Rock Skippin' (6:12)
06. Unfinished Business (2:38)
07. You'd Be So Nice To Come Home To (alt.take) (7:29)
08. The Answer Is Yes (alt. take) (5:36)
09. Rock Skippin' (alt. take) (6:03)

V.A. - The Perfect Guitar Collection: 25 Original Albums (2012) [25 CD Box Set]


CD13 - John McLaughlin - Electric Guitarist (1978) (Remastered)

01. New York on My Mind (5:46)
02. Friendship (7:02)
03. Every Tear From Every Eye (6:53)
04. Do You Hear the Voices You Left Behind? (7:41)
05. Are You the One? Are You the One? (4:43)
06. Phenomenon: Compulsion (3:23)
07. My Foolish Heart (3:24)

V.A. - The Perfect Guitar Collection: 25 Original Albums (2012) [25 CD Box Set]


CD14 - Django Reinhardt - Djangology (2002)

01. I Saw Stars (3:30)
02. After You've Gone (3:00)
03. Heavy Artillery (3:40)
04. Beyond The Sea (4:16)
05. Minor Swing (2:37)
06. Menilmontant (3:03)
07. Brick Top (3:44)
08. Swing Guitars (2:54)
09. All The Things You Are (2:54)
10. Daphne (2:26)
11. (It's Only A) Paper Moon (2:51)
12. Improvisation on Tchaikovsky's Pathetique (3:44)
13. The World Is Waiting For the Sunrise (2:52)
14. Djangology (2:46)
15. Ou es - tu, mon amour? (Where Are You, My Love?) (3:22)
16. Marie (2:54)
17. I Surrender, Dear (3:45)
18. Hallelujah (3:09)
19. Swing 42 (2:26)
20. I'll Never Be The Same (4:02)
21. Honeysuckle Rose (3:59)
22. Lover Man (Oh, Where Can You Be?) (3:11)
23. I Got Rhythm (2:44)

V.A. - The Perfect Guitar Collection: 25 Original Albums (2012) [25 CD Box Set]


CD15 - Lee Ritenour - Captain Fingers (1977)

01. Captain Fingers (7:06)
02. Dolphin Dreams (7:05)
03. Fly By Night (5:03)
04. Margarita (5:11)
05. Isn't She Lovely (4:34)
06. Space Glide (5:10)
07. Sun Song (6:44)

V.A. - The Perfect Guitar Collection: 25 Original Albums (2012) [25 CD Box Set]


CD16 - Martin Taylor - Kiss And Tell (1999)

01. Kiss And Tell (5:11)
02. You've Changed (4:48)
03. The Odd Couple (7:53)
04. Garden Of Dreams (6:07)
05. What A Friend We Have In Jesus (0:58)
06. Midnight At The Oasis (3:56)
07. Mona Lisa (4:51)
08. Five-O (6:11)
09. Sun Step (4:14)
10. Ginger (6:38)
11. Midnight Voyage (4:16)
12. The Nearness Of You (4:05)
13. I Should Care (6:25)

V.A. - The Perfect Guitar Collection: 25 Original Albums (2012) [25 CD Box Set]


CD17 - Peter White - Caravan of Dreams (1996)

01. Caravan of Dreams (6:00)
02. Together Again (5:05)
03. Venice Beach (4:51)
04. Soul Embrace (4:52)
05. Long Ride Home (5:41)
06. Just Another Day (4:40)
07. City of Lights (5:36)
08. Cafe Mystique (3:21)
09. Bittersweet (4:29)
10. Lullaby (2:18)

V.A. - The Perfect Guitar Collection: 25 Original Albums (2012) [25 CD Box Set]


CD18 - Carlos Santana & Mahavishnu John McLaughlin - Love Devotion Surrender (1973)

01. A Love Supreme (7:51)
02. Naima (3:12)
03. The Life Divine (9:29)
04. Let Us Go Into The House Of The Lord (15:45)
05. Meditation (2:51)

V.A. - The Perfect Guitar Collection: 25 Original Albums (2012) [25 CD Box Set]


CD19 - John Pizzarelli - Our Love Is Here To Stay (1997)

01. Dream (2:49)
02. Our Love Is Here To Stay (5:09)
03. Avalon (4:51)
04. Honey Pie (4:29)
05. The Day I Found You ('The Pollywog Song') (2:58)
06. Kalamazoo (3:32)
07. Have Another One, Not Me (4:04)
08. Little Girl (4:34)
09. Nina Never Knew (3:02)
10. Rhythm Is Our Business (3:24)
11. It's Sunday (3:01)
12. Say Hey Kid (4:16)

V.A. - The Perfect Guitar Collection: 25 Original Albums (2012) [25 CD Box Set]


CD20 - G3: Joe Satriani, Steve Vai & John Petrucci - Live In Tokyo - 1 (2005)

01. Glasgow Kiss (John Petrucci) (9:18)
02. Damage Control (John Petrucci) (10:31)
03. The Audience Is Listening (Steve Vai) (8:59)
04. Building The Church (Steve Vai) (6:09)
05. K'm-Pee-Du-Wee (Steve Vai) (6:44)

V.A. - The Perfect Guitar Collection: 25 Original Albums (2012) [25 CD Box Set]


CD21 - G3: Joe Satriani, Steve Vai & John Petrucci - Live In Tokyo - 2 (2005)

01. Up In Flames (Joe Satriani) (8:56)
02. Searching (Joe Satriani) (8:44)
03. War (Joe Satriani) (6:37)
04. Foxey Lady [Jimi Hendrix cover] (G3 Jam) (10:43)
05. La Grange [ZZ Top cover] (G3 Jam) (9:18)
06. Smoke On The Water [Deep Purple cover] (G3 Jam) (10:01)

V.A. - The Perfect Guitar Collection: 25 Original Albums (2012) [25 CD Box Set]


CD22 - Chet Atkins & Les Paul - Chester & Lester (1976) (Expanded Edition 2007)

01. It's Been A Long, Long Time (3:33)
02. Medley: Moonglow/Picnic (Theme from 'Picnic') (4:45)
03. Caravan (3:19)
04. It Had To Be You (3:34)
05. Out Of Nowhere (3:14)
06. Avalon (6:32)
07. Birth Of The Blues (3:06)
08. Someday Sweetheart (3:22)
09. Deed I Do (2:31)
10. Lover Come Back To Me (2:43)
11. The World Is Waiting For The Sunrise (Bonus track) (2:21)
12. You Brought A New Kind Of Love To Me (Bonus track) (2:49)
13. Caravan (alternate version) (Bonus track) (3:16)
14. Medley: Moonglow/Picnic (Theme from 'Picnic') (rehearsal version) (Bonus track) (5:16)

V.A. - The Perfect Guitar Collection: 25 Original Albums (2012) [25 CD Box Set]


CD23 - Andy Summers - Peggy's Blue Skylight (2000)

01. Boogie Stop Shuffle (6:56)
02. Tonight At Noon (5:05)
03. Reincarnation Of A Lovebird (6:26)
04. Opus 3 (5:07)
05. Cumbia Jazz Fusion (0:40)
06. Remember Rockefeller at. Attica (4:09)
07. Peggy's Blue Skylight (5:11)
08. Weird Nightmare (5:35)
09. Goodbye Pork Pie Hat / Where Can A Man Find Peace (5:54)
10. Free Cell Block F (6:04)
11. Self Portrait In Three Colors (3:55)
12. Myself When I Am Real (9:07)

V.A. - The Perfect Guitar Collection: 25 Original Albums (2012) [25 CD Box Set]


CD24 - Vicente Amigo - Vivencias Imaginadas (1995)

01. Limon De Nata (4:24)
02. El Mandaito (7:01)
03. Ventanas Al Alma (5:34)
04. Mensaje (5:06)
05. Querido Metheny (9:29)
06. De Blanco y Oro (4:39)
07. Vivencias Imaginadas (5:44)
08. Sierra Del Agua (4:49)

V.A. - The Perfect Guitar Collection: 25 Original Albums (2012) [25 CD Box Set]


CD25 - Michael Hedges - Oracle (1996)

01. The 2nd Law (3:07)
02. Ignition (3:30)
03. Baal T'shuvah (2:12)
04. Dirge (3:31)
05. Jitterboogie (2:40)
06. Oracle (4:10)
07. Gospel (2:22)
08. Tomorrow Never Knows (4:04)
09. Theme from Hatari! (3:21)
10. Aura Muunta (3:00)
11. Jitterboogie (Family version) (2:11)
12. Sofa No. 1 (2:45)
13. When I Was 4 (4:19)
14. What Child Is This (3:08)

V.A. - The Perfect Guitar Collection: 25 Original Albums (2012) [25 CD Box Set]

V.A. - The Perfect Guitar Collection: 25 Original Albums (2012) [25 CD Box Set]


Exact Audio Copy V1.0 beta 3 from 29. August 2011

EAC extraction logfile from 12. April 2013, 20:35

Mark Knopfler & Chet Atkins / Neck And Neck

Used drive : ATAPI iHAS124 B Adapter: 2 ID: 0

Read mode : Secure
Utilize accurate stream : Yes
Defeat audio cache : Yes
Make use of C2 pointers : No

Read offset correction : 6
Overread into Lead-In and Lead-Out : No
Fill up missing offset samples with silence : Yes
Delete leading and trailing silent blocks : No
Null samples used in CRC calculations : Yes
Used interface : Native Win32 interface for Win NT & 2000

Used output format : User Defined Encoder
Selected bitrate : 1024 kBit/s
Quality : High
Add ID3 tag : No
Command line compressor : C:\Program Files (x86)\Exact Audio Copy\FLAC\FLAC.EXE
Additional command line options : -8 -V -T "ARTIST=%artist%" -T "TITLE=%title%" -T "ALBUM=%albumtitle%" -T "DATE=%year%" -T "TRACKNUMBER=%tracknr%" -T "GENRE=%genre%" -T "PERFORMER=%albuminterpret%" -T "COMPOSER=%composer%" %haslyrics%–tag-from-file=LYRICS="%lyricsfile%"%haslyrics% -T "ALBUMARTIST=%albumartist%" -T "DISCNUMBER=%cdnumber%" -T "TOTALDISCS=%totalcds%" -T "TOTALTRACKS=%numtracks%" -T "COMMENT=%comment%" %source% -o %dest%


TOC of the extracted CD

Track | Start | Length | Start sector | End sector
––––––––––––––––––––––––––––-
1 | 0:00.00 | 4:03.27 | 0 | 18251
2 | 4:03.27 | 3:25.68 | 18252 | 33694
3 | 7:29.20 | 6:28.25 | 33695 | 62819
4 | 13:57.45 | 4:12.52 | 62820 | 81771
5 | 18:10.22 | 3:18.13 | 81772 | 96634
6 | 21:28.35 | 3:24.37 | 96635 | 111971
7 | 24:52.72 | 3:54.18 | 111972 | 129539
8 | 28:47.15 | 3:18.47 | 129540 | 144436
9 | 32:05.62 | 2:58.48 | 144437 | 157834
10 | 35:04.35 | 3:22.30 | 157835 | 173014


Range status and errors

Selected range

Filename G:\CD\Mark Knopfler & Chet Atkins - Neck And Neck.wav

Peak level 100.0 %
Extraction speed 5.3 X
Range quality 100.0 %
Test CRC B81D613C
Copy CRC B81D613C
Copy OK

No errors occurred


AccurateRip summary

Track 1 cannot be verified as accurate (confidence 200) [7797DC75], AccurateRip returned [AA483795] (AR v2)
Track 2 cannot be verified as accurate (confidence 200) [211DA127], AccurateRip returned [CC7695C2] (AR v2)
Track 3 cannot be verified as accurate (confidence 200) [8399A4F5], AccurateRip returned [E99427FB] (AR v2)
Track 4 cannot be verified as accurate (confidence 200) [38C9EC98], AccurateRip returned [C6B689EB] (AR v2)
Track 5 cannot be verified as accurate (confidence 200) [A0B6E507], AccurateRip returned [87896F7B] (AR v2)
Track 6 cannot be verified as accurate (confidence 200) [E10E83DC], AccurateRip returned [F8C92DC9] (AR v2)
Track 7 cannot be verified as accurate (confidence 200) [80E5B513], AccurateRip returned [1011FAA2] (AR v2)
Track 8 cannot be verified as accurate (confidence 200) [C6F4A167], AccurateRip returned [3648A8BE] (AR v2)
Track 9 cannot be verified as accurate (confidence 200) [71CAF42C], AccurateRip returned [31C2EF2B] (AR v2)
Track 10 cannot be verified as accurate (confidence 200) [DD5F1258], AccurateRip returned [C0597FD1] (AR v2)

No tracks could be verified as accurate
You may have a different pressing from the one(s) in the database

End of status report

==== Log checksum AD79507B7DBD752AE4A46C757735B8210D26F878948EE307BBE5FC535B4272D4 ====

Exact Audio Copy V1.0 beta 3 from 29. August 2011

EAC extraction logfile from 12. April 2013, 21:06

Michael Bloomfield / Essential Blues 1964-1969

Used drive : ATAPI iHAS124 B Adapter: 2 ID: 0

Read mode : Secure
Utilize accurate stream : Yes
Defeat audio cache : Yes
Make use of C2 pointers : No

Read offset correction : 6
Overread into Lead-In and Lead-Out : No
Fill up missing offset samples with silence : Yes
Delete leading and trailing silent blocks : No
Null samples used in CRC calculations : Yes
Used interface : Native Win32 interface for Win NT & 2000

Used output format : User Defined Encoder
Selected bitrate : 1024 kBit/s
Quality : High
Add ID3 tag : No
Command line compressor : C:\Program Files (x86)\Exact Audio Copy\FLAC\FLAC.EXE
Additional command line options : -8 -V -T "ARTIST=%artist%" -T "TITLE=%title%" -T "ALBUM=%albumtitle%" -T "DATE=%year%" -T "TRACKNUMBER=%tracknr%" -T "GENRE=%genre%" -T "PERFORMER=%albuminterpret%" -T "COMPOSER=%composer%" %haslyrics%–tag-from-file=LYRICS="%lyricsfile%"%haslyrics% -T "ALBUMARTIST=%albumartist%" -T "DISCNUMBER=%cdnumber%" -T "TOTALDISCS=%totalcds%" -T "TOTALTRACKS=%numtracks%" -T "COMMENT=%comment%" %source% -o %dest%


TOC of the extracted CD

Track | Start | Length | Start sector | End sector
––––––––––––––––––––––––––––-
1 | 0:00.00 | 2:28.70 | 0 | 11169
2 | 2:28.70 | 3:25.25 | 11170 | 26569
3 | 5:54.20 | 2:56.42 | 26570 | 39811
4 | 8:50.62 | 3:41.45 | 39812 | 56431
5 | 12:32.32 | 2:41.05 | 56432 | 68511
6 | 15:13.37 | 3:10.18 | 68512 | 82779
7 | 18:23.55 | 7:56.20 | 82780 | 118499
8 | 26:20.00 | 4:13.40 | 118500 | 137514
9 | 30:33.40 | 6:56.10 | 137515 | 168724
10 | 37:29.50 | 4:24.40 | 168725 | 188564
11 | 41:54.15 | 5:29.60 | 188565 | 213299
12 | 47:24.00 | 11:05.02 | 213300 | 263176
13 | 58:29.02 | 3:36.00 | 263177 | 279376
14 | 62:05.02 | 4:09.60 | 279377 | 298111
15 | 66:14.62 | 5:12.68 | 298112 | 321579


Range status and errors

Selected range

Filename G:\CD\Michael Bloomfield - Essential Blues 1964-1969.wav

Peak level 100.0 %
Extraction speed 6.2 X
Range quality 100.0 %
Test CRC F4C30CA8
Copy CRC F4C30CA8
Copy OK

No errors occurred


AccurateRip summary

Track 1 not present in database
Track 2 not present in database
Track 3 not present in database
Track 4 not present in database
Track 5 not present in database
Track 6 not present in database
Track 7 not present in database
Track 8 not present in database
Track 9 not present in database
Track 10 not present in database
Track 11 not present in database
Track 12 not present in database
Track 13 not present in database
Track 14 not present in database
Track 15 not present in database

None of the tracks are present in the AccurateRip database

End of status report

==== Log checksum E01BBC1E7C050363B640D5B9B2964D81F930F6CBAEF6183D6D54B0A5FA70D2BD ====

Exact Audio Copy V1.0 beta 3 from 29. August 2011

EAC extraction logfile from 12. April 2013, 21:24

Jorma Kaukonen / Blue Country Heart

Used drive : ATAPI iHAS124 B Adapter: 2 ID: 0

Read mode : Secure
Utilize accurate stream : Yes
Defeat audio cache : Yes
Make use of C2 pointers : No

Read offset correction : 6
Overread into Lead-In and Lead-Out : No
Fill up missing offset samples with silence : Yes
Delete leading and trailing silent blocks : No
Null samples used in CRC calculations : Yes
Used interface : Native Win32 interface for Win NT & 2000

Used output format : User Defined Encoder
Selected bitrate : 1024 kBit/s
Quality : High
Add ID3 tag : No
Command line compressor : C:\Program Files (x86)\Exact Audio Copy\FLAC\FLAC.EXE
Additional command line options : -8 -V -T "ARTIST=%artist%" -T "TITLE=%title%" -T "ALBUM=%albumtitle%" -T "DATE=%year%" -T "TRACKNUMBER=%tracknr%" -T "GENRE=%genre%" -T "PERFORMER=%albuminterpret%" -T "COMPOSER=%composer%" %haslyrics%–tag-from-file=LYRICS="%lyricsfile%"%haslyrics% -T "ALBUMARTIST=%albumartist%" -T "DISCNUMBER=%cdnumber%" -T "TOTALDISCS=%totalcds%" -T "TOTALTRACKS=%numtracks%" -T "COMMENT=%comment%" %source% -o %dest%


TOC of the extracted CD

Track | Start | Length | Start sector | End sector
––––––––––––––––––––––––––––-
1 | 0:00.00 | 3:44.47 | 0 | 16846
2 | 3:44.47 | 4:15.58 | 16847 | 36029
3 | 8:00.30 | 3:28.17 | 36030 | 51646
4 | 11:28.47 | 3:24.33 | 51647 | 66979
5 | 14:53.05 | 4:38.57 | 66980 | 87886
6 | 19:31.62 | 3:25.38 | 87887 | 103299
7 | 22:57.25 | 3:06.52 | 103300 | 117301
8 | 26:04.02 | 3:05.50 | 117302 | 131226
9 | 29:09.52 | 3:00.58 | 131227 | 144784
10 | 32:10.35 | 4:13.22 | 144785 | 163781
11 | 36:23.57 | 3:27.23 | 163782 | 179329
12 | 39:51.05 | 2:45.22 | 179330 | 191726
13 | 42:36.27 | 3:19.65 | 191727 | 206716


Range status and errors

Selected range

Filename G:\CD\Jorma Kaukonen - Blue Country Heart.wav

Peak level 99.8 %
Extraction speed 5.4 X
Range quality 99.9 %
Test CRC B54EE266
Copy CRC B54EE266
Copy OK

No errors occurred


AccurateRip summary

Track 1 cannot be verified as accurate (confidence 24) [76E84D00], AccurateRip returned [9612F3F1] (AR v2)
Track 2 cannot be verified as accurate (confidence 24) [AD836ADF], AccurateRip returned [DADC7E72] (AR v2)
Track 3 cannot be verified as accurate (confidence 24) [DEB72E84], AccurateRip returned [6E392FD4] (AR v2)
Track 4 cannot be verified as accurate (confidence 24) [23CEA7EF], AccurateRip returned [7F328B63] (AR v2)
Track 5 cannot be verified as accurate (confidence 24) [F8EC6707], AccurateRip returned [77CC08C1] (AR v2)
Track 6 cannot be verified as accurate (confidence 24) [89F330F8], AccurateRip returned [9DE45880] (AR v2)
Track 7 cannot be verified as accurate (confidence 24) [0EDBA2D7], AccurateRip returned [9CF79944] (AR v2)
Track 8 cannot be verified as accurate (confidence 24) [2259B726], AccurateRip returned [31479F02] (AR v2)
Track 9 cannot be verified as accurate (confidence 24) [12AB8AA7], AccurateRip returned [8A5F8E35] (AR v2)
Track 10 cannot be verified as accurate (confidence 24) [C2EC9DF3], AccurateRip returned [6823748A] (AR v2)
Track 11 cannot be verified as accurate (confidence 24) [65F6DB71], AccurateRip returned [A1808EAC] (AR v2)
Track 12 cannot be verified as accurate (confidence 24) [DF962BCE], AccurateRip returned [F519413C] (AR v2)
Track 13 cannot be verified as accurate (confidence 23) [8EA826B9], AccurateRip returned [10D4760B] (AR v2)

No tracks could be verified as accurate
You may have a different pressing from the one(s) in the database

End of status report

==== Log checksum 7E5B6E4D02CD3ACF3670A9CF1E5FDFD6BBB76E927F06D0C1800CD360419834C7 ====

Exact Audio Copy V1.0 beta 3 from 29. August 2011

EAC extraction logfile from 12. April 2013, 21:39

Leo Kottke / Standing In My Shoes

Used drive : ATAPI iHAS124 B Adapter: 2 ID: 0

Read mode : Secure
Utilize accurate stream : Yes
Defeat audio cache : Yes
Make use of C2 pointers : No

Read offset correction : 6
Overread into Lead-In and Lead-Out : No
Fill up missing offset samples with silence : Yes
Delete leading and trailing silent blocks : No
Null samples used in CRC calculations : Yes
Used interface : Native Win32 interface for Win NT & 2000

Used output format : User Defined Encoder
Selected bitrate : 1024 kBit/s
Quality : High
Add ID3 tag : No
Command line compressor : C:\Program Files (x86)\Exact Audio Copy\FLAC\FLAC.EXE
Additional command line options : -8 -V -T "ARTIST=%artist%" -T "TITLE=%title%" -T "ALBUM=%albumtitle%" -T "DATE=%year%" -T "TRACKNUMBER=%tracknr%" -T "GENRE=%genre%" -T "PERFORMER=%albuminterpret%" -T "COMPOSER=%composer%" %haslyrics%–tag-from-file=LYRICS="%lyricsfile%"%haslyrics% -T "ALBUMARTIST=%albumartist%" -T "DISCNUMBER=%cdnumber%" -T "TOTALDISCS=%totalcds%" -T "TOTALTRACKS=%numtracks%" -T "COMMENT=%comment%" %source% -o %dest%


TOC of the extracted CD

Track | Start | Length | Start sector | End sector
––––––––––––––––––––––––––––-
1 | 0:00.00 | 3:59.02 | 0 | 17926
2 | 3:59.02 | 3:59.38 | 17927 | 35889
3 | 7:58.40 | 4:16.70 | 35890 | 55159
4 | 12:15.35 | 3:10.57 | 55160 | 69466
5 | 15:26.17 | 4:20.55 | 69467 | 89021
6 | 19:46.72 | 3:08.58 | 89022 | 103179
7 | 22:55.55 | 3:07.27 | 103180 | 117231
8 | 26:03.07 | 3:33.15 | 117232 | 133221
9 | 29:36.22 | 3:16.53 | 133222 | 147974
10 | 32:53.00 | 3:17.15 | 147975 | 162764
11 | 36:10.15 | 2:51.25 | 162765 | 175614


Range status and errors

Selected range

Filename G:\CD\Leo Kottke - Standing In My Shoes.wav

Peak level 100.0 %
Extraction speed 5.3 X
Range quality 100.0 %
Test CRC 223F1B24
Copy CRC 223F1B24
Copy OK

No errors occurred


AccurateRip summary

Track 1 cannot be verified as accurate (confidence 5) [390E6D50], AccurateRip returned [9239B8F2] (AR v2)
Track 2 cannot be verified as accurate (confidence 5) [842B379A], AccurateRip returned [2B88409E] (AR v2)
Track 3 cannot be verified as accurate (confidence 5) [2351186A], AccurateRip returned [08659229] (AR v2)
Track 4 cannot be verified as accurate (confidence 5) [A15D0813], AccurateRip returned [4527A35D] (AR v2)
Track 5 cannot be verified as accurate (confidence 5) [C77F6340], AccurateRip returned [11ED6474] (AR v2)
Track 6 cannot be verified as accurate (confidence 5) [1319B6F0], AccurateRip returned [E98A1862] (AR v2)
Track 7 cannot be verified as accurate (confidence 5) [DFC839AD], AccurateRip returned [86B3DCDB] (AR v2)
Track 8 cannot be verified as accurate (confidence 5) [E67A3DCA], AccurateRip returned [06E2AF28] (AR v2)
Track 9 cannot be verified as accurate (confidence 5) [F305B19A], AccurateRip returned [6C212190] (AR v2)
Track 10 cannot be verified as accurate (confidence 5) [10E310C8], AccurateRip returned [9B9EB190] (AR v2)
Track 11 cannot be verified as accurate (confidence 5) [A85E20D9], AccurateRip returned [F599009F] (AR v2)

No tracks could be verified as accurate
You may have a different pressing from the one(s) in the database

End of status report

==== Log checksum 2B2C00BD2C138241805000644DA242316ABEA6E34B2263E16B4D7A5620736FF9 ====

Exact Audio Copy V1.0 beta 3 from 29. August 2011

EAC extraction logfile from 12. April 2013, 21:58

Johnny Winter / Johnny Winter (2004 Remastered + Expanded)

Used drive : ATAPI iHAS124 B Adapter: 2 ID: 0

Read mode : Secure
Utilize accurate stream : Yes
Defeat audio cache : Yes
Make use of C2 pointers : No

Read offset correction : 6
Overread into Lead-In and Lead-Out : No
Fill up missing offset samples with silence : Yes
Delete leading and trailing silent blocks : No
Null samples used in CRC calculations : Yes
Used interface : Native Win32 interface for Win NT & 2000

Used output format : User Defined Encoder
Selected bitrate : 1024 kBit/s
Quality : High
Add ID3 tag : No
Command line compressor : C:\Program Files (x86)\Exact Audio Copy\FLAC\FLAC.EXE
Additional command line options : -8 -V -T "ARTIST=%artist%" -T "TITLE=%title%" -T "ALBUM=%albumtitle%" -T "DATE=%year%" -T "TRACKNUMBER=%tracknr%" -T "GENRE=%genre%" -T "PERFORMER=%albuminterpret%" -T "COMPOSER=%composer%" %haslyrics%–tag-from-file=LYRICS="%lyricsfile%"%haslyrics% -T "ALBUMARTIST=%albumartist%" -T "DISCNUMBER=%cdnumber%" -T "TOTALDISCS=%totalcds%" -T "TOTALTRACKS=%numtracks%" -T "COMMENT=%comment%" %source% -o %dest%


TOC of the extracted CD

Track | Start | Length | Start sector | End sector
––––––––––––––––––––––––––––-
1 | 0:00.00 | 4:31.59 | 0 | 20383
2 | 4:31.59 | 5:16.51 | 20384 | 44134
3 | 9:48.35 | 2:49.03 | 44135 | 56812
4 | 12:37.38 | 3:55.12 | 56813 | 74449
5 | 16:32.50 | 3:27.32 | 74450 | 90006
6 | 20:00.07 | 2:46.06 | 90007 | 102462
7 | 22:46.13 | 3:42.20 | 102463 | 119132
8 | 26:28.33 | 4:46.44 | 119133 | 140626
9 | 31:15.02 | 2:58.07 | 140627 | 153983
10 | 34:13.09 | 3:08.03 | 153984 | 168086
11 | 37:21.12 | 3:37.30 | 168087 | 184391
12 | 40:58.42 | 2:35.41 | 184392 | 196057


Range status and errors

Selected range

Filename G:\CD\Johnny Winter - Johnny Winter (2004 Remastered + Expanded).wav

Peak level 100.0 %
Extraction speed 5.5 X
Range quality 100.0 %
Test CRC D7B389D3
Copy CRC D7B389D3
Copy OK

No errors occurred


AccurateRip summary

Track 1 not present in database
Track 2 not present in database
Track 3 not present in database
Track 4 not present in database
Track 5 not present in database
Track 6 not present in database
Track 7 not present in database
Track 8 not present in database
Track 9 not present in database
Track 10 not present in database
Track 11 not present in database
Track 12 not present in database

None of the tracks are present in the AccurateRip database

End of status report

==== Log checksum 5FE445F36532D05B51086C28D6FFFAFE5B180375A43B32227B262A698099CF00 ====

Exact Audio Copy V1.0 beta 3 from 29. August 2011

EAC extraction logfile from 12. April 2013, 22:33

Stevie Ray Vaughan And Double Trouble / Texas Flood (1999 Remaster)

Used drive : ATAPI iHAS124 B Adapter: 2 ID: 0

Read mode : Secure
Utilize accurate stream : Yes
Defeat audio cache : Yes
Make use of C2 pointers : No

Read offset correction : 6
Overread into Lead-In and Lead-Out : No
Fill up missing offset samples with silence : Yes
Delete leading and trailing silent blocks : No
Null samples used in CRC calculations : Yes
Used interface : Native Win32 interface for Win NT & 2000

Used output format : User Defined Encoder
Selected bitrate : 1024 kBit/s
Quality : High
Add ID3 tag : No
Command line compressor : C:\Program Files (x86)\Exact Audio Copy\FLAC\FLAC.EXE
Additional command line options : -8 -V -T "ARTIST=%artist%" -T "TITLE=%title%" -T "ALBUM=%albumtitle%" -T "DATE=%year%" -T "TRACKNUMBER=%tracknr%" -T "GENRE=%genre%" -T "PERFORMER=%albuminterpret%" -T "COMPOSER=%composer%" %haslyrics%–tag-from-file=LYRICS="%lyricsfile%"%haslyrics% -T "ALBUMARTIST=%albumartist%" -T "DISCNUMBER=%cdnumber%" -T "TOTALDISCS=%totalcds%" -T "TOTALTRACKS=%numtracks%" -T "COMMENT=%comment%" %source% -o %dest%


TOC of the extracted CD

Track | Start | Length | Start sector | End sector
––––––––––––––––––––––––––––-
1 | 0:00.00 | 2:23.57 | 0 | 10781
2 | 2:23.57 | 3:40.15 | 10782 | 27296
3 | 6:03.72 | 5:21.33 | 27297 | 51404
4 | 11:25.30 | 2:48.67 | 51405 | 64071
5 | 14:14.22 | 3:22.23 | 64072 | 79244
6 | 17:36.45 | 4:40.12 | 79245 | 100256
7 | 22:16.57 | 2:47.20 | 100257 | 112801
8 | 25:04.02 | 5:02.33 | 112802 | 135484
9 | 30:06.35 | 3:47.12 | 135485 | 152521
10 | 33:53.47 | 5:03.02 | 152522 | 175248
11 | 38:56.49 | 0:37.28 | 175249 | 178051
12 | 39:34.02 | 7:42.26 | 178052 | 212727
13 | 47:16.28 | 3:54.04 | 212728 | 230281
14 | 51:10.32 | 3:31.56 | 230282 | 246162
15 | 54:42.13 | 4:20.11 | 246163 | 265673


Range status and errors

Selected range

Filename G:\CD\Stevie Ray Vaughan & Double Trouble - Texas Flood.wav

Peak level 100.0 %
Extraction speed 5.9 X
Range quality 100.0 %
Test CRC 42611405
Copy CRC 42611405
Copy OK

No errors occurred


AccurateRip summary

Track 1 not present in database
Track 2 not present in database
Track 3 not present in database
Track 4 not present in database
Track 5 not present in database
Track 6 not present in database
Track 7 not present in database
Track 8 not present in database
Track 9 not present in database
Track 10 not present in database
Track 11 not present in database
Track 12 not present in database
Track 13 not present in database
Track 14 not present in database
Track 15 not present in database

None of the tracks are present in the AccurateRip database

End of status report

==== Log checksum 6C06C1245310481CA6198D0B094E2A25CD366BFEA5793DE1533F479CB466947E ====

Exact Audio Copy V1.0 beta 3 from 29. August 2011

EAC extraction logfile from 12. April 2013, 22:54

Kenny Burrell / God Bless The Child (2001 Remaster)

Used drive : ATAPI iHAS124 B Adapter: 2 ID: 0

Read mode : Secure
Utilize accurate stream : Yes
Defeat audio cache : Yes
Make use of C2 pointers : No

Read offset correction : 6
Overread into Lead-In and Lead-Out : No
Fill up missing offset samples with silence : Yes
Delete leading and trailing silent blocks : No
Null samples used in CRC calculations : Yes
Used interface : Native Win32 interface for Win NT & 2000

Used output format : User Defined Encoder
Selected bitrate : 1024 kBit/s
Quality : High
Add ID3 tag : No
Command line compressor : C:\Program Files (x86)\Exact Audio Copy\FLAC\FLAC.EXE
Additional command line options : -8 -V -T "ARTIST=%artist%" -T "TITLE=%title%" -T "ALBUM=%albumtitle%" -T "DATE=%year%" -T "TRACKNUMBER=%tracknr%" -T "GENRE=%genre%" -T "PERFORMER=%albuminterpret%" -T "COMPOSER=%composer%" %haslyrics%–tag-from-file=LYRICS="%lyricsfile%"%haslyrics% -T "ALBUMARTIST=%albumartist%" -T "DISCNUMBER=%cdnumber%" -T "TOTALDISCS=%totalcds%" -T "TOTALTRACKS=%numtracks%" -T "COMMENT=%comment%" %source% -o %dest%


TOC of the extracted CD

Track | Start | Length | Start sector | End sector
––––––––––––––––––––––––––––-
1 | 0:00.00 | 5:56.32 | 0 | 26731
2 | 5:56.32 | 4:54.55 | 26732 | 48836
3 | 10:51.12 | 9:35.25 | 48837 | 91986
4 | 20:26.37 | 8:37.73 | 91987 | 130834
5 | 29:04.35 | 8:55.49 | 130835 | 171008
6 | 38:00.09 | 2:19.21 | 171009 | 181454
7 | 40:19.30 | 2:27.72 | 181455 | 192551
8 | 42:47.27 | 7:09.50 | 192552 | 224776


Range status and errors

Selected range

Filename G:\CD\Kenny Burrell - God Bless The Child.wav

Peak level 100.0 %
Extraction speed 5.6 X
Range quality 100.0 %
Test CRC 930BAFBF
Copy CRC 930BAFBF
Copy OK

No errors occurred


AccurateRip summary

Track 1 not present in database
Track 2 not present in database
Track 3 not present in database
Track 4 not present in database
Track 5 not present in database
Track 6 not present in database
Track 7 not present in database
Track 8 not present in database

None of the tracks are present in the AccurateRip database

End of status report

==== Log checksum AF9949A408DBB11B941E213F7F0B6A69966CE48A388E95D7B2A9F20A3E98DF6A ====

Exact Audio Copy V1.0 beta 3 from 29. August 2011

EAC extraction logfile from 12. April 2013, 23:12

Charlie Byrd / Brazilian Byrd (1994 Remaster)

Used drive : ATAPI iHAS124 B Adapter: 2 ID: 0

Read mode : Secure
Utilize accurate stream : Yes
Defeat audio cache : Yes
Make use of C2 pointers : No

Read offset correction : 6
Overread into Lead-In and Lead-Out : No
Fill up missing offset samples with silence : Yes
Delete leading and trailing silent blocks : No
Null samples used in CRC calculations : Yes
Used interface : Native Win32 interface for Win NT & 2000

Used output format : User Defined Encoder
Selected bitrate : 1024 kBit/s
Quality : High
Add ID3 tag : No
Command line compressor : C:\Program Files (x86)\Exact Audio Copy\FLAC\FLAC.EXE
Additional command line options : -8 -V -T "ARTIST=%artist%" -T "TITLE=%title%" -T "ALBUM=%albumtitle%" -T "DATE=%year%" -T "TRACKNUMBER=%tracknr%" -T "GENRE=%genre%" -T "PERFORMER=%albuminterpret%" -T "COMPOSER=%composer%" %haslyrics%–tag-from-file=LYRICS="%lyricsfile%"%haslyrics% -T "ALBUMARTIST=%albumartist%" -T "DISCNUMBER=%cdnumber%" -T "TOTALDISCS=%totalcds%" -T "TOTALTRACKS=%numtracks%" -T "COMMENT=%comment%" %source% -o %dest%


TOC of the extracted CD

Track | Start | Length | Start sector | End sector
––––––––––––––––––––––––––––-
1 | 0:00.00 | 2:23.30 | 0 | 10754
2 | 2:23.30 | 2:56.20 | 10755 | 23974
3 | 5:19.50 | 2:32.50 | 23975 | 35424
4 | 7:52.25 | 2:48.10 | 35425 | 48034
5 | 10:40.35 | 2:25.50 | 48035 | 58959
6 | 13:06.10 | 2:25.38 | 58960 | 69872
7 | 15:31.48 | 3:12.57 | 69873 | 84329
8 | 18:44.30 | 3:57.18 | 84330 | 102122
9 | 22:41.48 | 2:23.30 | 102123 | 112877
10 | 25:05.03 | 4:05.37 | 112878 | 131289
11 | 29:10.40 | 2:18.18 | 131290 | 141657
12 | 31:28.58 | 3:14.27 | 141658 | 156234
13 | 34:43.10 | 2:21.35 | 156235 | 166844


Range status and errors

Selected range

Filename G:\CD\Charlie Byrd - Brazilian Byrd.wav

Peak level 95.5 %
Extraction speed 5.2 X
Range quality 100.0 %
Test CRC 81457AAB
Copy CRC 81457AAB
Copy OK

No errors occurred


AccurateRip summary

Track 1 not present in database
Track 2 not present in database
Track 3 not present in database
Track 4 not present in database
Track 5 not present in database
Track 6 not present in database
Track 7 not present in database
Track 8 not present in database
Track 9 not present in database
Track 10 not present in database
Track 11 not present in database
Track 12 not present in database
Track 13 not present in database

None of the tracks are present in the AccurateRip database

End of status report

==== Log checksum 4645036CAA9AA2C22CDEE11C217CF7285EA5879CA9E978B6FDCC7A91DDBF9489 ====

Exact Audio Copy V1.0 beta 3 from 29. August 2011

EAC extraction logfile from 12. April 2013, 23:33

George Benson / The George Benson Cookbook (2001 Remaster)

Used drive : ATAPI iHAS124 B Adapter: 2 ID: 0

Read mode : Secure
Utilize accurate stream : Yes
Defeat audio cache : Yes
Make use of C2 pointers : No

Read offset correction : 6
Overread into Lead-In and Lead-Out : No
Fill up missing offset samples with silence : Yes
Delete leading and trailing silent blocks : No
Null samples used in CRC calculations : Yes
Used interface : Native Win32 interface for Win NT & 2000

Used output format : User Defined Encoder
Selected bitrate : 1024 kBit/s
Quality : High
Add ID3 tag : No
Command line compressor : C:\Program Files (x86)\Exact Audio Copy\FLAC\FLAC.EXE
Additional command line options : -8 -V -T "ARTIST=%artist%" -T "TITLE=%title%" -T "ALBUM=%albumtitle%" -T "DATE=%year%" -T "TRACKNUMBER=%tracknr%" -T "GENRE=%genre%" -T "PERFORMER=%albuminterpret%" -T "COMPOSER=%composer%" %haslyrics%–tag-from-file=LYRICS="%lyricsfile%"%haslyrics% -T "ALBUMARTIST=%albumartist%" -T "DISCNUMBER=%cdnumber%" -T "TOTALDISCS=%totalcds%" -T "TOTALTRACKS=%numtracks%" -T "COMMENT=%comment%" %source% -o %dest%


TOC of the extracted CD

Track | Start | Length | Start sector | End sector
––––––––––––––––––––––––––––-
1 | 0:00.00 | 4:19.15 | 0 | 19439
2 | 4:19.15 | 4:12.45 | 19440 | 38384
3 | 8:31.60 | 4:25.32 | 38385 | 58291
4 | 12:57.17 | 2:10.18 | 58292 | 68059
5 | 15:07.35 | 4:44.67 | 68060 | 89426
6 | 19:52.27 | 5:37.63 | 89427 | 114764
7 | 25:30.15 | 3:34.07 | 114765 | 130821
8 | 29:04.22 | 3:09.68 | 130822 | 145064
9 | 32:14.15 | 2:38.22 | 145065 | 156936
10 | 34:52.37 | 6:36.60 | 156937 | 186696
11 | 41:29.22 | 2:10.53 | 186697 | 196499
12 | 43:40.00 | 3:14.00 | 196500 | 211049
13 | 46:54.00 | 2:54.10 | 211050 | 224109
14 | 49:48.10 | 2:21.42 | 224110 | 234726


Range status and errors

Selected range

Filename G:\CD\George Benson - The George Benson Cookbook.wav

Peak level 100.0 %
Extraction speed 5.7 X
Range quality 100.0 %
Test CRC AF4985C5
Copy CRC AF4985C5
Copy OK

No errors occurred


AccurateRip summary

Track 1 cannot be verified as accurate (confidence 4) [6DD228CD], AccurateRip returned [F66EBD76] (AR v2)
Track 2 cannot be verified as accurate (confidence 4) [48F798F2], AccurateRip returned [E809C12A] (AR v2)
Track 3 cannot be verified as accurate (confidence 4) [0DAF9F02], AccurateRip returned [1AC8EEFB] (AR v2)
Track 4 cannot be verified as accurate (confidence 4) [9821D6E7], AccurateRip returned [96E3746F] (AR v2)
Track 5 cannot be verified as accurate (confidence 4) [C9AEA68D], AccurateRip returned [093B5C73] (AR v2)
Track 6 cannot be verified as accurate (confidence 4) [866710ED], AccurateRip returned [E77BD424] (AR v2)
Track 7 cannot be verified as accurate (confidence 4) [7E3FAF85], AccurateRip returned [8BD6473A] (AR v2)
Track 8 cannot be verified as accurate (confidence 4) [F2832027], AccurateRip returned [936A4C0E] (AR v2)
Track 9 cannot be verified as accurate (confidence 4) [D59FDB40], AccurateRip returned [9904CF36] (AR v2)
Track 10 cannot be verified as accurate (confidence 4) [6C5C0349], AccurateRip returned [57CA5E00] (AR v2)
Track 11 cannot be verified as accurate (confidence 4) [0058EB8B], AccurateRip returned [7CE23A96] (AR v2)
Track 12 cannot be verified as accurate (confidence 4) [4F6CBB5A], AccurateRip returned [C84ADFCD] (AR v2)
Track 13 cannot be verified as accurate (confidence 4) [736EFA64], AccurateRip returned [153B1288] (AR v2)
Track 14 cannot be verified as accurate (confidence 4) [8AB911F0], AccurateRip returned [E952ED25] (AR v2)

No tracks could be verified as accurate
You may have a different pressing from the one(s) in the database

End of status report

==== Log checksum 2AF32129DE20EC93F2D5731B075028D6024C85AF505F07AFD989BA972CCDC615 ====

Exact Audio Copy V1.0 beta 3 from 29. August 2011

EAC extraction logfile from 12. April 2013, 23:55

Charlie Christian / The Genius Of The Electric Guitar (1939-1941 recordings)

Used drive : ATAPI iHAS124 B Adapter: 2 ID: 0

Read mode : Secure
Utilize accurate stream : Yes
Defeat audio cache : Yes
Make use of C2 pointers : No

Read offset correction : 6
Overread into Lead-In and Lead-Out : No
Fill up missing offset samples with silence : Yes
Delete leading and trailing silent blocks : No
Null samples used in CRC calculations : Yes
Used interface : Native Win32 interface for Win NT & 2000

Used output format : User Defined Encoder
Selected bitrate : 1024 kBit/s
Quality : High
Add ID3 tag : No
Command line compressor : C:\Program Files (x86)\Exact Audio Copy\FLAC\FLAC.EXE
Additional command line options : -8 -V -T "ARTIST=%artist%" -T "TITLE=%title%" -T "ALBUM=%albumtitle%" -T "DATE=%year%" -T "TRACKNUMBER=%tracknr%" -T "GENRE=%genre%" -T "PERFORMER=%albuminterpret%" -T "COMPOSER=%composer%" %haslyrics%–tag-from-file=LYRICS="%lyricsfile%"%haslyrics% -T "ALBUMARTIST=%albumartist%" -T "DISCNUMBER=%cdnumber%" -T "TOTALDISCS=%totalcds%" -T "TOTALTRACKS=%numtracks%" -T "COMMENT=%comment%" %source% -o %dest%


TOC of the extracted CD

Track | Start | Length | Start sector | End sector
––––––––––––––––––––––––––––-
1 | 0:00.00 | 2:48.25 | 0 | 12624
2 | 2:48.25 | 2:47.05 | 12625 | 25154
3 | 5:35.30 | 3:02.45 | 25155 | 38849
4 | 8:38.00 | 3:15.72 | 38850 | 53546
5 | 11:53.72 | 2:52.00 | 53547 | 66446
6 | 14:45.72 | 3:20.38 | 66447 | 81484
7 | 18:06.35 | 3:01.60 | 81485 | 95119
8 | 21:08.20 | 3:03.22 | 95120 | 108866
9 | 24:11.42 | 3:24.33 | 108867 | 124199
10 | 27:36.00 | 3:07.40 | 124200 | 138264
11 | 30:43.40 | 3:07.15 | 138265 | 152304
12 | 33:50.55 | 2:57.72 | 152305 | 165651
13 | 36:48.52 | 2:48.23 | 165652 | 178274
14 | 39:37.00 | 1:46.02 | 178275 | 186226
15 | 41:23.02 | 5:07.68 | 186227 | 209319
16 | 46:30.70 | 3:20.22 | 209320 | 224341


Range status and errors

Selected range

Filename G:\CD\Charlie Christian - The Genius Of The Electric Guitar.wav

Peak level 92.5 %
Extraction speed 5.6 X
Range quality 100.0 %
Test CRC DE20A708
Copy CRC DE20A708
Copy OK

No errors occurred


AccurateRip summary

Track 1 cannot be verified as accurate (confidence 9) [19130ADA], AccurateRip returned [98A5BAC4] (AR v2)
Track 2 cannot be verified as accurate (confidence 9) [32CEB351], AccurateRip returned [37698A75] (AR v2)
Track 3 cannot be verified as accurate (confidence 9) [F73F454F], AccurateRip returned [BBEAB5C4] (AR v2)
Track 4 cannot be verified as accurate (confidence 9) [B8D61DF1], AccurateRip returned [956F7AD8] (AR v2)
Track 5 cannot be verified as accurate (confidence 9) [CA46CA00], AccurateRip returned [E8DACE1C] (AR v2)
Track 6 cannot be verified as accurate (confidence 9) [5737F70C], AccurateRip returned [BFBE16EE] (AR v2)
Track 7 cannot be verified as accurate (confidence 9) [EA47F26F], AccurateRip returned [9DF0DB6E] (AR v2)
Track 8 cannot be verified as accurate (confidence 9) [E2C5100D], AccurateRip returned [883B7F69] (AR v2)
Track 9 cannot be verified as accurate (confidence 9) [DAF1ADEB], AccurateRip returned [648BC24E] (AR v2)
Track 10 cannot be verified as accurate (confidence 9) [DE752158], AccurateRip returned [6D229156] (AR v2)
Track 11 cannot be verified as accurate (confidence 9) [E6F523E5], AccurateRip returned [3BB7290C] (AR v2)
Track 12 cannot be verified as accurate (confidence 9) [0DB25358], AccurateRip returned [0D5C1BE6] (AR v2)
Track 13 cannot be verified as accurate (confidence 9) [E173E49C], AccurateRip returned [16DF22A9] (AR v2)
Track 14 cannot be verified as accurate (confidence 9) [F6D81EE4], AccurateRip returned [69DB1FE0] (AR v2)
Track 15 cannot be verified as accurate (confidence 9) [EB109FAE], AccurateRip returned [A77625D8] (AR v2)
Track 16 cannot be verified as accurate (confidence 8) [2773A3D4], AccurateRip returned [8C125B3E] (AR v2)

No tracks could be verified as accurate
You may have a different pressing from the one(s) in the database

End of status report

==== Log checksum 6E8E4CC3A3FF286B79C25F774F46D673A2AAE8E33A29461E353DACFE582AB053 ====

Exact Audio Copy V1.0 beta 3 from 29. August 2011

EAC extraction logfile from 13. April 2013, 0:13

Al Di Meola / Scenario

Used drive : ATAPI iHAS124 B Adapter: 2 ID: 0

Read mode : Secure
Utilize accurate stream : Yes
Defeat audio cache : Yes
Make use of C2 pointers : No

Read offset correction : 6
Overread into Lead-In and Lead-Out : No
Fill up missing offset samples with silence : Yes
Delete leading and trailing silent blocks : No
Null samples used in CRC calculations : Yes
Used interface : Native Win32 interface for Win NT & 2000

Used output format : User Defined Encoder
Selected bitrate : 1024 kBit/s
Quality : High
Add ID3 tag : No
Command line compressor : C:\Program Files (x86)\Exact Audio Copy\FLAC\FLAC.EXE
Additional command line options : -8 -V -T "ARTIST=%artist%" -T "TITLE=%title%" -T "ALBUM=%albumtitle%" -T "DATE=%year%" -T "TRACKNUMBER=%tracknr%" -T "GENRE=%genre%" -T "PERFORMER=%albuminterpret%" -T "COMPOSER=%composer%" %haslyrics%–tag-from-file=LYRICS="%lyricsfile%"%haslyrics% -T "ALBUMARTIST=%albumartist%" -T "DISCNUMBER=%cdnumber%" -T "TOTALDISCS=%totalcds%" -T "TOTALTRACKS=%numtracks%" -T "COMMENT=%comment%" %source% -o %dest%


TOC of the extracted CD

Track | Start | Length | Start sector | End sector
––––––––––––––––––––––––––––-
1 | 0:00.00 | 6:06.72 | 0 | 27521
2 | 6:06.72 | 4:52.45 | 27522 | 49466
3 | 10:59.42 | 4:07.40 | 49467 | 68031
4 | 15:07.07 | 4:00.70 | 68032 | 86101
5 | 19:08.02 | 4:08.43 | 86102 | 104744
6 | 23:16.45 | 5:36.50 | 104745 | 129994
7 | 28:53.20 | 3:52.62 | 129995 | 147456
8 | 32:46.07 | 4:19.53 | 147457 | 166934
9 | 37:05.60 | 3:45.40 | 166935 | 183849


Range status and errors

Selected range

Filename G:\CD\Al Di Meola - Scenario.wav

Peak level 100.0 %
Extraction speed 5.4 X
Range quality 100.0 %
Test CRC ABBD99E5
Copy CRC ABBD99E5
Copy OK

No errors occurred


AccurateRip summary

Track 1 cannot be verified as accurate (confidence 4) [8F800E8C], AccurateRip returned [09A8DF38] (AR v2)
Track 2 cannot be verified as accurate (confidence 4) [B8D38BF4], AccurateRip returned [59897048] (AR v2)
Track 3 cannot be verified as accurate (confidence 4) [2CE594A6], AccurateRip returned [6BB90064] (AR v2)
Track 4 cannot be verified as accurate (confidence 4) [728A344F], AccurateRip returned [3FE01FB5] (AR v2)
Track 5 cannot be verified as accurate (confidence 4) [6C34BD7B], AccurateRip returned [C973C502] (AR v2)
Track 6 cannot be verified as accurate (confidence 4) [46605A22], AccurateRip returned [9E5E6EE1] (AR v2)
Track 7 cannot be verified as accurate (confidence 4) [B3C9EE28], AccurateRip returned [76D01D7D] (AR v2)
Track 8 cannot be verified as accurate (confidence 4) [FD1F5661], AccurateRip returned [080A453A] (AR v2)
Track 9 cannot be verified as accurate (confidence 4) [3552E6BC], AccurateRip returned [CA7D4545] (AR v2)

No tracks could be verified as accurate
You may have a different pressing from the one(s) in the database

End of status report

==== Log checksum 0223C11784252B3D3FAE73C3B9EC922E192A78017CBE505312A499724F679D3C ====

Exact Audio Copy V1.0 beta 3 from 29. August 2011

EAC extraction logfile from 13. April 2013, 7:08

Jim Hall / Concierto (1997)

Used drive : ATAPI iHAS124 B Adapter: 2 ID: 0

Read mode : Secure
Utilize accurate stream : Yes
Defeat audio cache : Yes
Make use of C2 pointers : No

Read offset correction : 6
Overread into Lead-In and Lead-Out : No
Fill up missing offset samples with silence : Yes
Delete leading and trailing silent blocks : No
Null samples used in CRC calculations : Yes
Used interface : Native Win32 interface for Win NT & 2000

Used output format : User Defined Encoder
Selected bitrate : 1024 kBit/s
Quality : High
Add ID3 tag : No
Command line compressor : C:\Program Files (x86)\Exact Audio Copy\FLAC\FLAC.EXE
Additional command line options : -8 -V -T "ARTIST=%artist%" -T "TITLE=%title%" -T "ALBUM=%albumtitle%" -T "DATE=%year%" -T "TRACKNUMBER=%tracknr%" -T "GENRE=%genre%" -T "PERFORMER=%albuminterpret%" -T "COMPOSER=%composer%" %haslyrics%–tag-from-file=LYRICS="%lyricsfile%"%haslyrics% -T "ALBUMARTIST=%albumartist%" -T "DISCNUMBER=%cdnumber%" -T "TOTALDISCS=%totalcds%" -T "TOTALTRACKS=%numtracks%" -T "COMMENT=%comment%" %source% -o %dest%


TOC of the extracted CD

Track | Start | Length | Start sector | End sector
––––––––––––––––––––––––––––-
1 | 0:00.00 | 7:07.05 | 0 | 32029
2 | 7:07.05 | 3:51.40 | 32030 | 49394
3 | 10:58.45 | 7:39.45 | 49395 | 83864
4 | 18:38.15 | 19:18.57 | 83865 | 170771
5 | 37:56.72 | 6:12.65 | 170772 | 198736
6 | 44:09.62 | 2:38.63 | 198737 | 210649
7 | 46:48.50 | 7:29.30 | 210650 | 244354
8 | 54:18.05 | 5:36.37 | 244355 | 269591
9 | 59:54.42 | 6:03.05 | 269592 | 296821


Range status and errors

Selected range

Filename G:\CD\Jim Hall - Concierto.wav

Peak level 100.0 %
Extraction speed 5.9 X
Range quality 100.0 %
Test CRC EA034148
Copy CRC EA034148
Copy OK

No errors occurred


AccurateRip summary

Track 1 not present in database
Track 2 not present in database
Track 3 not present in database
Track 4 not present in database
Track 5 not present in database
Track 6 not present in database
Track 7 not present in database
Track 8 not present in database
Track 9 not present in database

None of the tracks are present in the AccurateRip database

End of status report

==== Log checksum D2245E68087BB479619C0AD6E42E51EF1290AAE5F9E2DA242B8F36246B0F81E0 ====

Exact Audio Copy V1.0 beta 3 from 29. August 2011

EAC extraction logfile from 13. April 2013, 7:28

John McLaughlin / Electric Guitarist

Used drive : ATAPI iHAS124 B Adapter: 2 ID: 0

Read mode : Secure
Utilize accurate stream : Yes
Defeat audio cache : Yes
Make use of C2 pointers : No

Read offset correction : 6
Overread into Lead-In and Lead-Out : No
Fill up missing offset samples with silence : Yes
Delete leading and trailing silent blocks : No
Null samples used in CRC calculations : Yes
Used interface : Native Win32 interface for Win NT & 2000

Used output format : User Defined Encoder
Selected bitrate : 1024 kBit/s
Quality : High
Add ID3 tag : No
Command line compressor : C:\Program Files (x86)\Exact Audio Copy\FLAC\FLAC.EXE
Additional command line options : -8 -V -T "ARTIST=%artist%" -T "TITLE=%title%" -T "ALBUM=%albumtitle%" -T "DATE=%year%" -T "TRACKNUMBER=%tracknr%" -T "GENRE=%genre%" -T "PERFORMER=%albuminterpret%" -T "COMPOSER=%composer%" %haslyrics%–tag-from-file=LYRICS="%lyricsfile%"%haslyrics% -T "ALBUMARTIST=%albumartist%" -T "DISCNUMBER=%cdnumber%" -T "TOTALDISCS=%totalcds%" -T "TOTALTRACKS=%numtracks%" -T "COMMENT=%comment%" %source% -o %dest%


TOC of the extracted CD

Track | Start | Length | Start sector | End sector
––––––––––––––––––––––––––––-
1 | 0:00.00 | 5:46.57 | 0 | 26006
2 | 5:46.57 | 7:02.33 | 26007 | 57689
3 | 12:49.15 | 6:53.00 | 57690 | 88664
4 | 19:42.15 | 7:41.47 | 88665 | 123286
5 | 27:23.62 | 4:43.10 | 123287 | 144521
6 | 32:06.72 | 3:23.70 | 144522 | 159816
7 | 35:30.67 | 3:24.65 | 159817 | 175181


Range status and errors

Selected range

Filename G:\CD\John McLaughlin - Electric Guitarist.wav

Peak level 79.7 %
Extraction speed 5.3 X
Range quality 100.0 %
Test CRC 41B45B45
Copy CRC 41B45B45
Copy OK

No errors occurred


AccurateRip summary

Track 1 cannot be verified as accurate (confidence 24) [9B1E530F], AccurateRip returned [0733CC63] (AR v2)
Track 2 cannot be verified as accurate (confidence 24) [7DBF467F], AccurateRip returned [F014F85B] (AR v2)
Track 3 cannot be verified as accurate (confidence 24) [E2EB7974], AccurateRip returned [2109B45E] (AR v2)
Track 4 cannot be verified as accurate (confidence 24) [C4413F04], AccurateRip returned [18D8B178] (AR v2)
Track 5 cannot be verified as accurate (confidence 23) [F39435AC], AccurateRip returned [5D6E8344] (AR v2)
Track 6 cannot be verified as accurate (confidence 24) [E9EC446D], AccurateRip returned [11069EC0] (AR v2)
Track 7 cannot be verified as accurate (confidence 24) [FD541F7D], AccurateRip returned [11711A1C] (AR v2)

No tracks could be verified as accurate
You may have a different pressing from the one(s) in the database

End of status report

==== Log checksum 527790985D53E1C3C8FBC3DD779356CECE0123FA25C421A7138F839A779A85B8 ====

Exact Audio Copy V1.0 beta 3 from 29. August 2011

EAC extraction logfile from 13. April 2013, 7:55

Django Reinhardt And The Quintet Of The Hot Club Of France / Djangology

Used drive : ATAPI iHAS124 B Adapter: 2 ID: 0

Read mode : Secure
Utilize accurate stream : Yes
Defeat audio cache : Yes
Make use of C2 pointers : No

Read offset correction : 6
Overread into Lead-In and Lead-Out : No
Fill up missing offset samples with silence : Yes
Delete leading and trailing silent blocks : No
Null samples used in CRC calculations : Yes
Used interface : Native Win32 interface for Win NT & 2000

Used output format : User Defined Encoder
Selected bitrate : 1024 kBit/s
Quality : High
Add ID3 tag : No
Command line compressor : C:\Program Files (x86)\Exact Audio Copy\FLAC\FLAC.EXE
Additional command line options : -8 -V -T "ARTIST=%artist%" -T "TITLE=%title%" -T "ALBUM=%albumtitle%" -T "DATE=%year%" -T "TRACKNUMBER=%tracknr%" -T "GENRE=%genre%" -T "PERFORMER=%albuminterpret%" -T "COMPOSER=%composer%" %haslyrics%–tag-from-file=LYRICS="%lyricsfile%"%haslyrics% -T "ALBUMARTIST=%albumartist%" -T "DISCNUMBER=%cdnumber%" -T "TOTALDISCS=%totalcds%" -T "TOTALTRACKS=%numtracks%" -T "COMMENT=%comment%" %source% -o %dest%


TOC of the extracted CD

Track | Start | Length | Start sector | End sector
––––––––––––––––––––––––––––-
1 | 0:00.00 | 3:30.27 | 0 | 15776
2 | 3:30.27 | 3:00.20 | 15777 | 29296
3 | 6:30.47 | 3:40.30 | 29297 | 45826
4 | 10:11.02 | 4:16.05 | 45827 | 65031
5 | 14:27.07 | 2:37.28 | 65032 | 76834
6 | 17:04.35 | 3:03.12 | 76835 | 90571
7 | 20:07.47 | 3:44.45 | 90572 | 107416
8 | 23:52.17 | 2:54.38 | 107417 | 120504
9 | 26:46.55 | 2:54.45 | 120505 | 133599
10 | 29:41.25 | 2:26.35 | 133600 | 144584
11 | 32:07.60 | 2:51.72 | 144585 | 157481
12 | 34:59.57 | 3:44.55 | 157482 | 174336
13 | 38:44.37 | 2:52.43 | 174337 | 187279
14 | 41:37.05 | 2:46.05 | 187280 | 199734
15 | 44:23.10 | 3:22.10 | 199735 | 214894
16 | 47:45.20 | 2:54.47 | 214895 | 227991
17 | 50:39.67 | 3:45.65 | 227992 | 244931
18 | 54:25.57 | 3:09.13 | 244932 | 259119
19 | 57:34.70 | 2:26.65 | 259120 | 270134
20 | 60:01.60 | 4:02.30 | 270135 | 288314
21 | 64:04.15 | 3:59.70 | 288315 | 306309
22 | 68:04.10 | 3:11.07 | 306310 | 320641
23 | 71:15.17 | 2:44.53 | 320642 | 332994


Range status and errors

Selected range

Filename G:\CD\Django Reinhardt… - Djangology.wav

Peak level 100.0 %
Extraction speed 6.5 X
Range quality 100.0 %
Test CRC C7A8ABD2
Copy CRC C7A8ABD2
Copy OK

No errors occurred


AccurateRip summary

Track 1 cannot be verified as accurate (confidence 19) [77E21DD2], AccurateRip returned [11545479] (AR v2)
Track 2 cannot be verified as accurate (confidence 18) [6A2CA033], AccurateRip returned [6546D04E] (AR v2)
Track 3 cannot be verified as accurate (confidence 19) [0880096F], AccurateRip returned [42E90736] (AR v2)
Track 4 cannot be verified as accurate (confidence 19) [163B56C7], AccurateRip returned [021EF918] (AR v2)
Track 5 cannot be verified as accurate (confidence 19) [3E6C1E70], AccurateRip returned [76C09C67] (AR v2)
Track 6 cannot be verified as accurate (confidence 19) [59ECB814], AccurateRip returned [BC6FE7E0] (AR v2)
Track 7 cannot be verified as accurate (confidence 19) [63E1B353], AccurateRip returned [3763D093] (AR v2)
Track 8 cannot be verified as accurate (confidence 19) [40B780EF], AccurateRip returned [665C21F7] (AR v2)
Track 9 cannot be verified as accurate (confidence 19) [564BA840], AccurateRip returned [5EA871CD] (AR v2)
Track 10 cannot be verified as accurate (confidence 18) [1B9F7BE6], AccurateRip returned [23765DA9] (AR v2)
Track 11 cannot be verified as accurate (confidence 17) [E0CEEF8E], AccurateRip returned [618E2694] (AR v2)
Track 12 cannot be verified as accurate (confidence 18) [14F2A0CC], AccurateRip returned [96DA0B86] (AR v2)
Track 13 cannot be verified as accurate (confidence 18) [A8E207DB], AccurateRip returned [CC01AEF3] (AR v2)
Track 14 cannot be verified as accurate (confidence 18) [04D55DC6], AccurateRip returned [D937163C] (AR v2)
Track 15 cannot be verified as accurate (confidence 17) [4B36D18C], AccurateRip returned [D5A4C300] (AR v2)
Track 16 cannot be verified as accurate (confidence 17) [A1A81239], AccurateRip returned [E5648AFD] (AR v2)
Track 17 cannot be verified as accurate (confidence 18) [7E7BCF5C], AccurateRip returned [AC7291BE] (AR v2)
Track 18 cannot be verified as accurate (confidence 18) [1121C1A7], AccurateRip returned [76F3304D] (AR v2)
Track 19 cannot be verified as accurate (confidence 18) [36233326], AccurateRip returned [934F6F97] (AR v2)
Track 20 cannot be verified as accurate (confidence 18) [ECAB5656], AccurateRip returned [54B14052] (AR v2)
Track 21 cannot be verified as accurate (confidence 18) [72E42CE1], AccurateRip returned [5389202A] (AR v2)
Track 22 cannot be verified as accurate (confidence 17) [E92715AB], AccurateRip returned [620922D3] (AR v2)
Track 23 cannot be verified as accurate (confidence 18) [525F6DF8], AccurateRip returned [2E728BC3] (AR v2)

No tracks could be verified as accurate
You may have a different pressing from the one(s) in the database

End of status report

==== Log checksum C6F020408913312CBE2D3D8C6C7FFDA56F84130E35253F21A1E75B798DE76568 ====

Exact Audio Copy V1.0 beta 3 from 29. August 2011

EAC extraction logfile from 13. April 2013, 8:23

Lee Ritenour / Captain Fingers

Used drive : ATAPI iHAS124 B Adapter: 2 ID: 0

Read mode : Secure
Utilize accurate stream : Yes
Defeat audio cache : Yes
Make use of C2 pointers : No

Read offset correction : 6
Overread into Lead-In and Lead-Out : No
Fill up missing offset samples with silence : Yes
Delete leading and trailing silent blocks : No
Null samples used in CRC calculations : Yes
Used interface : Native Win32 interface for Win NT & 2000

Used output format : User Defined Encoder
Selected bitrate : 1024 kBit/s
Quality : High
Add ID3 tag : No
Command line compressor : C:\Program Files (x86)\Exact Audio Copy\FLAC\FLAC.EXE
Additional command line options : -8 -V -T "ARTIST=%artist%" -T "TITLE=%title%" -T "ALBUM=%albumtitle%" -T "DATE=%year%" -T "TRACKNUMBER=%tracknr%" -T "GENRE=%genre%" -T "PERFORMER=%albuminterpret%" -T "COMPOSER=%composer%" %haslyrics%–tag-from-file=LYRICS="%lyricsfile%"%haslyrics% -T "ALBUMARTIST=%albumartist%" -T "DISCNUMBER=%cdnumber%" -T "TOTALDISCS=%totalcds%" -T "TOTALTRACKS=%numtracks%" -T "COMMENT=%comment%" %source% -o %dest%


TOC of the extracted CD

Track | Start | Length | Start sector | End sector
––––––––––––––––––––––––––––-
1 | 0:00.00 | 7:06.62 | 0 | 32011
2 | 7:06.62 | 7:05.45 | 32012 | 63931
3 | 14:12.32 | 5:03.10 | 63932 | 86666
4 | 19:15.42 | 5:11.05 | 86667 | 109996
5 | 24:26.47 | 4:34.18 | 109997 | 130564
6 | 29:00.65 | 5:10.60 | 130565 | 153874
7 | 34:11.50 | 6:44.62 | 153875 | 184236


Range status and errors

Selected range

Filename G:\CD\Lee Ritenour - Captain Fingers.wav

Peak level 100.0 %
Extraction speed 5.2 X
Range quality 99.9 %
Test CRC 6D8C585B
Copy CRC 6D8C585B
Copy OK

No errors occurred


AccurateRip summary

Track 1 cannot be verified as accurate (confidence 7) [DB24E5AD], AccurateRip returned [D085AFAE] (AR v2)
Track 2 cannot be verified as accurate (confidence 7) [BAE70354], AccurateRip returned [BEC9EC03] (AR v2)
Track 3 cannot be verified as accurate (confidence 7) [D38B8255], AccurateRip returned [E2586AD7] (AR v2)
Track 4 cannot be verified as accurate (confidence 6) [6C42DBA0], AccurateRip returned [FF4C8A6B] (AR v2)
Track 5 cannot be verified as accurate (confidence 6) [6F548D94], AccurateRip returned [6D19C4B0] (AR v2)
Track 6 cannot be verified as accurate (confidence 6) [091A026A], AccurateRip returned [F7801023] (AR v2)
Track 7 cannot be verified as accurate (confidence 6) [33C701A1], AccurateRip returned [7997C638] (AR v2)

No tracks could be verified as accurate
You may have a different pressing from the one(s) in the database

End of status report

==== Log checksum B14168119B4201C74B5ACAA64A2F04467E5466A93BAA48D89742FF8BE1FD2F39 ====

Exact Audio Copy V1.0 beta 3 from 29. August 2011

EAC extraction logfile from 13. April 2013, 8:59

Martin Taylor / Kiss And Tell

Used drive : ATAPI iHAS124 B Adapter: 2 ID: 0

Read mode : Secure
Utilize accurate stream : Yes
Defeat audio cache : Yes
Make use of C2 pointers : No

Read offset correction : 6
Overread into Lead-In and Lead-Out : No
Fill up missing offset samples with silence : Yes
Delete leading and trailing silent blocks : No
Null samples used in CRC calculations : Yes
Used interface : Native Win32 interface for Win NT & 2000

Used output format : User Defined Encoder
Selected bitrate : 1024 kBit/s
Quality : High
Add ID3 tag : No
Command line compressor : C:\Program Files (x86)\Exact Audio Copy\FLAC\FLAC.EXE
Additional command line options : -8 -V -T "ARTIST=%artist%" -T "TITLE=%title%" -T "ALBUM=%albumtitle%" -T "DATE=%year%" -T "TRACKNUMBER=%tracknr%" -T "GENRE=%genre%" -T "PERFORMER=%albuminterpret%" -T "COMPOSER=%composer%" %haslyrics%–tag-from-file=LYRICS="%lyricsfile%"%haslyrics% -T "ALBUMARTIST=%albumartist%" -T "DISCNUMBER=%cdnumber%" -T "TOTALDISCS=%totalcds%" -T "TOTALTRACKS=%numtracks%" -T "COMMENT=%comment%" %source% -o %dest%


TOC of the extracted CD

Track | Start | Length | Start sector | End sector
––––––––––––––––––––––––––––-
1 | 0:00.00 | 5:11.27 | 0 | 23351
2 | 5:11.27 | 4:48.58 | 23352 | 45009
3 | 10:00.10 | 7:53.02 | 45010 | 80486
4 | 17:53.12 | 6:07.53 | 80487 | 108064
5 | 24:00.65 | 0:58.67 | 108065 | 112481
6 | 24:59.57 | 3:56.30 | 112482 | 130211
7 | 28:56.12 | 4:51.50 | 130212 | 152086
8 | 33:47.62 | 6:11.38 | 152087 | 179949
9 | 39:59.25 | 4:14.50 | 179950 | 199049
10 | 44:14.00 | 6:38.12 | 199050 | 228911
11 | 50:52.12 | 4:16.03 | 228912 | 248114
12 | 55:08.15 | 4:05.36 | 248115 | 266525
13 | 59:13.51 | 6:25.19 | 266526 | 295419


Range status and errors

Selected range

Filename G:\CD\Martin Taylor - Kiss And Tell.wav

Peak level 100.0 %
Extraction speed 6.0 X
Range quality 100.0 %
Test CRC D898A751
Copy CRC D898A751
Copy OK

No errors occurred


AccurateRip summary

Track 1 not present in database
Track 2 not present in database
Track 3 not present in database
Track 4 not present in database
Track 5 not present in database
Track 6 not present in database
Track 7 not present in database
Track 8 not present in database
Track 9 not present in database
Track 10 not present in database
Track 11 not present in database
Track 12 not present in database
Track 13 not present in database

None of the tracks are present in the AccurateRip database

End of status report

==== Log checksum A66A36D5F46A0FC1F71497715CDCD423346ABF11970860693226EDEDBBCC7616 ====

Exact Audio Copy V1.0 beta 3 from 29. August 2011

EAC extraction logfile from 13. April 2013, 9:22

Peter White / Caravan of Dreams

Used drive : ATAPI iHAS124 B Adapter: 2 ID: 0

Read mode : Secure
Utilize accurate stream : Yes
Defeat audio cache : Yes
Make use of C2 pointers : No

Read offset correction : 6
Overread into Lead-In and Lead-Out : No
Fill up missing offset samples with silence : Yes
Delete leading and trailing silent blocks : No
Null samples used in CRC calculations : Yes
Used interface : Native Win32 interface for Win NT & 2000

Used output format : User Defined Encoder
Selected bitrate : 1024 kBit/s
Quality : High
Add ID3 tag : No
Command line compressor : C:\Program Files (x86)\Exact Audio Copy\FLAC\FLAC.EXE
Additional command line options : -8 -V -T "ARTIST=%artist%" -T "TITLE=%title%" -T "ALBUM=%albumtitle%" -T "DATE=%year%" -T "TRACKNUMBER=%tracknr%" -T "GENRE=%genre%" -T "PERFORMER=%albuminterpret%" -T "COMPOSER=%composer%" %haslyrics%–tag-from-file=LYRICS="%lyricsfile%"%haslyrics% -T "ALBUMARTIST=%albumartist%" -T "DISCNUMBER=%cdnumber%" -T "TOTALDISCS=%totalcds%" -T "TOTALTRACKS=%numtracks%" -T "COMMENT=%comment%" %source% -o %dest%


TOC of the extracted CD

Track | Start | Length | Start sector | End sector
––––––––––––––––––––––––––––-
1 | 0:00.00 | 6:00.35 | 0 | 27034
2 | 6:00.35 | 5:05.60 | 27035 | 49969
3 | 11:06.20 | 4:51.10 | 49970 | 71804
4 | 15:57.30 | 4:52.62 | 71805 | 93766
5 | 20:50.17 | 5:41.20 | 93767 | 119361
6 | 26:31.37 | 4:40.43 | 119362 | 140404
7 | 31:12.05 | 5:36.52 | 140405 | 165656
8 | 36:48.57 | 3:21.05 | 165657 | 180736
9 | 40:09.62 | 4:29.35 | 180737 | 200946
10 | 44:39.22 | 2:18.33 | 200947 | 211329


Range status and errors

Selected range

Filename G:\CD\Peter White - Caravan of Dreams.wav

Peak level 96.6 %
Extraction speed 5.4 X
Range quality 100.0 %
Test CRC 6DFB9BE9
Copy CRC 6DFB9BE9
Copy OK

No errors occurred


AccurateRip summary

Track 1 cannot be verified as accurate (confidence 6) [113FDC8D], AccurateRip returned [B1260BE9] (AR v2)
Track 2 cannot be verified as accurate (confidence 5) [9A5FBC18], AccurateRip returned [059E0504] (AR v2)
Track 3 cannot be verified as accurate (confidence 6) [E2D47B76], AccurateRip returned [540F91C1] (AR v2)
Track 4 cannot be verified as accurate (confidence 6) [AEB7D366], AccurateRip returned [3FC0DE47] (AR v2)
Track 5 cannot be verified as accurate (confidence 6) [8916D15B], AccurateRip returned [A17165A0] (AR v2)
Track 6 cannot be verified as accurate (confidence 6) [172854B4], AccurateRip returned [BB951486] (AR v2)
Track 7 cannot be verified as accurate (confidence 6) [0AE6DAB4], AccurateRip returned [5F4B363C] (AR v2)
Track 8 cannot be verified as accurate (confidence 6) [BD854474], AccurateRip returned [CE637FB5] (AR v2)
Track 9 cannot be verified as accurate (confidence 6) [8761483F], AccurateRip returned [2992151D] (AR v2)
Track 10 cannot be verified as accurate (confidence 6) [EE75BAF1], AccurateRip returned [4632D173] (AR v2)

No tracks could be verified as accurate
You may have a different pressing from the one(s) in the database

End of status report

==== Log checksum 57116C41F842689673D8F9BD3FEE4DA107A077A6792EC544F0E11FE053CB5BC0 ====

Exact Audio Copy V1.0 beta 3 from 29. August 2011

EAC extraction logfile from 13. April 2013, 9:39

Carlos Santana & John McLaughlin / Love Devotion Surrender

Used drive : ATAPI iHAS124 B Adapter: 2 ID: 0

Read mode : Secure
Utilize accurate stream : Yes
Defeat audio cache : Yes
Make use of C2 pointers : No

Read offset correction : 6
Overread into Lead-In and Lead-Out : No
Fill up missing offset samples with silence : Yes
Delete leading and trailing silent blocks : No
Null samples used in CRC calculations : Yes
Used interface : Native Win32 interface for Win NT & 2000

Used output format : User Defined Encoder
Selected bitrate : 1024 kBit/s
Quality : High
Add ID3 tag : No
Command line compressor : C:\Program Files (x86)\Exact Audio Copy\FLAC\FLAC.EXE
Additional command line options : -8 -V -T "ARTIST=%artist%" -T "TITLE=%title%" -T "ALBUM=%albumtitle%" -T "DATE=%year%" -T "TRACKNUMBER=%tracknr%" -T "GENRE=%genre%" -T "PERFORMER=%albuminterpret%" -T "COMPOSER=%composer%" %haslyrics%–tag-from-file=LYRICS="%lyricsfile%"%haslyrics% -T "ALBUMARTIST=%albumartist%" -T "DISCNUMBER=%cdnumber%" -T "TOTALDISCS=%totalcds%" -T "TOTALTRACKS=%numtracks%" -T "COMMENT=%comment%" %source% -o %dest%


TOC of the extracted CD

Track | Start | Length | Start sector | End sector
––––––––––––––––––––––––––––-
1 | 0:00.00 | 7:51.45 | 0 | 35369
2 | 7:51.45 | 3:12.50 | 35370 | 49819
3 | 11:04.20 | 9:29.12 | 49820 | 92506
4 | 20:33.32 | 15:45.40 | 92507 | 163421
5 | 36:18.72 | 2:51.63 | 163422 | 176309


Range status and errors

Selected range

Filename G:\CD\C.Santana & J.McLaughlin - Love Devotion Surrender.wav

Peak level 100.0 %
Extraction speed 5.1 X
Range quality 100.0 %
Test CRC 5E445B7E
Copy CRC 5E445B7E
Copy OK

No errors occurred


AccurateRip summary

Track 1 not present in database
Track 2 not present in database
Track 3 not present in database
Track 4 not present in database
Track 5 not present in database

None of the tracks are present in the AccurateRip database

End of status report

==== Log checksum 3937B6EB3386336F73DCBDBA168530AA21649C99A62A35646B066A8FCFC31BF7 ====

Exact Audio Copy V1.0 beta 3 from 29. August 2011

EAC extraction logfile from 13. April 2013, 10:00

John Pizzarelli / Our Love Is Here To Stay

Used drive : ATAPI iHAS124 B Adapter: 2 ID: 0

Read mode : Secure
Utilize accurate stream : Yes
Defeat audio cache : Yes
Make use of C2 pointers : No

Read offset correction : 6
Overread into Lead-In and Lead-Out : No
Fill up missing offset samples with silence : Yes
Delete leading and trailing silent blocks : No
Null samples used in CRC calculations : Yes
Used interface : Native Win32 interface for Win NT & 2000

Used output format : User Defined Encoder
Selected bitrate : 1024 kBit/s
Quality : High
Add ID3 tag : No
Command line compressor : C:\Program Files (x86)\Exact Audio Copy\FLAC\FLAC.EXE
Additional command line options : -8 -V -T "ARTIST=%artist%" -T "TITLE=%title%" -T "ALBUM=%albumtitle%" -T "DATE=%year%" -T "TRACKNUMBER=%tracknr%" -T "GENRE=%genre%" -T "PERFORMER=%albuminterpret%" -T "COMPOSER=%composer%" %haslyrics%–tag-from-file=LYRICS="%lyricsfile%"%haslyrics% -T "ALBUMARTIST=%albumartist%" -T "DISCNUMBER=%cdnumber%" -T "TOTALDISCS=%totalcds%" -T "TOTALTRACKS=%numtracks%" -T "COMMENT=%comment%" %source% -o %dest%


TOC of the extracted CD

Track | Start | Length | Start sector | End sector
––––––––––––––––––––––––––––-
1 | 0:00.00 | 2:49.23 | 0 | 12697
2 | 2:49.23 | 5:09.05 | 12698 | 35877
3 | 7:58.28 | 4:51.00 | 35878 | 57702
4 | 12:49.28 | 4:29.62 | 57703 | 77939
5 | 17:19.15 | 2:58.50 | 77940 | 91339
6 | 20:17.65 | 3:32.25 | 91340 | 107264
7 | 23:50.15 | 4:04.60 | 107265 | 125624
8 | 27:55.00 | 4:34.00 | 125625 | 146174
9 | 32:29.00 | 3:02.28 | 146175 | 159852
10 | 35:31.28 | 3:24.37 | 159853 | 175189
11 | 38:55.65 | 3:01.45 | 175190 | 188809
12 | 41:57.35 | 4:16.43 | 188810 | 208052


Range status and errors

Selected range

Filename G:\CD\John Pizzarelli - Our Love Is Here To Stay.wav

Peak level 77.6 %
Extraction speed 5.5 X
Range quality 100.0 %
Test CRC 0CF6D3C8
Copy CRC 0CF6D3C8
Copy OK

No errors occurred


AccurateRip summary

Track 1 not present in database
Track 2 not present in database
Track 3 not present in database
Track 4 not present in database
Track 5 not present in database
Track 6 not present in database
Track 7 not present in database
Track 8 not present in database
Track 9 not present in database
Track 10 not present in database
Track 11 not present in database
Track 12 not present in database

None of the tracks are present in the AccurateRip database

End of status report

==== Log checksum 18D3B8F596E6993DBB8BD89491BB5DDC57FE3D25DE60B1AE9415528CC93E7E44 ====

Exact Audio Copy V1.0 beta 3 from 29. August 2011

EAC extraction logfile from 13. April 2013, 10:22

G3 feat. Joe Satriani, Steve Vai & John Petrucci / Live In Tokyo-1

Used drive : ATAPI iHAS124 B Adapter: 2 ID: 0

Read mode : Secure
Utilize accurate stream : Yes
Defeat audio cache : Yes
Make use of C2 pointers : No

Read offset correction : 6
Overread into Lead-In and Lead-Out : No
Fill up missing offset samples with silence : Yes
Delete leading and trailing silent blocks : No
Null samples used in CRC calculations : Yes
Used interface : Native Win32 interface for Win NT & 2000

Used output format : User Defined Encoder
Selected bitrate : 1024 kBit/s
Quality : High
Add ID3 tag : No
Command line compressor : C:\Program Files (x86)\Exact Audio Copy\FLAC\FLAC.EXE
Additional command line options : -8 -V -T "ARTIST=%artist%" -T "TITLE=%title%" -T "ALBUM=%albumtitle%" -T "DATE=%year%" -T "TRACKNUMBER=%tracknr%" -T "GENRE=%genre%" -T "PERFORMER=%albuminterpret%" -T "COMPOSER=%composer%" %haslyrics%–tag-from-file=LYRICS="%lyricsfile%"%haslyrics% -T "ALBUMARTIST=%albumartist%" -T "DISCNUMBER=%cdnumber%" -T "TOTALDISCS=%totalcds%" -T "TOTALTRACKS=%numtracks%" -T "COMMENT=%comment%" %source% -o %dest%


TOC of the extracted CD

Track | Start | Length | Start sector | End sector
––––––––––––––––––––––––––––-
1 | 0:00.00 | 9:18.20 | 0 | 41869
2 | 9:18.20 | 10:31.39 | 41870 | 89233
3 | 19:49.59 | 8:59.56 | 89234 | 129714
4 | 28:49.40 | 6:09.03 | 129715 | 157392
5 | 34:58.43 | 6:44.19 | 157393 | 187711


Range status and errors

Selected range

Filename G:\CD\G3 feat. J.Satriani, S.Vai & J.Petrucci - Live In Tokyo-1.wav

Peak level 100.0 %
Extraction speed 5.4 X
Range quality 100.0 %
Test CRC 789AC43D
Copy CRC 789AC43D
Copy OK

No errors occurred


AccurateRip summary

Track 1 not present in database
Track 2 not present in database
Track 3 not present in database
Track 4 not present in database
Track 5 not present in database

None of the tracks are present in the AccurateRip database

End of status report

==== Log checksum 62621C860456660AB189E6D7AA9809EB3806D851D5517570E625B7F73412CEA9 ====

Exact Audio Copy V1.0 beta 3 from 29. August 2011

EAC extraction logfile from 13. April 2013, 10:42

G3 feat Joe Satriani, Steve Vai & John Petrucci / Live In Tokyo-2

Used drive : ATAPI iHAS124 B Adapter: 2 ID: 0

Read mode : Secure
Utilize accurate stream : Yes
Defeat audio cache : Yes
Make use of C2 pointers : No

Read offset correction : 6
Overread into Lead-In and Lead-Out : No
Fill up missing offset samples with silence : Yes
Delete leading and trailing silent blocks : No
Null samples used in CRC calculations : Yes
Used interface : Native Win32 interface for Win NT & 2000

Used output format : User Defined Encoder
Selected bitrate : 1024 kBit/s
Quality : High
Add ID3 tag : No
Command line compressor : C:\Program Files (x86)\Exact Audio Copy\FLAC\FLAC.EXE
Additional command line options : -8 -V -T "ARTIST=%artist%" -T "TITLE=%title%" -T "ALBUM=%albumtitle%" -T "DATE=%year%" -T "TRACKNUMBER=%tracknr%" -T "GENRE=%genre%" -T "PERFORMER=%albuminterpret%" -T "COMPOSER=%composer%" %haslyrics%–tag-from-file=LYRICS="%lyricsfile%"%haslyrics% -T "ALBUMARTIST=%albumartist%" -T "DISCNUMBER=%cdnumber%" -T "TOTALDISCS=%totalcds%" -T "TOTALTRACKS=%numtracks%" -T "COMMENT=%comment%" %source% -o %dest%


TOC of the extracted CD

Track | Start | Length | Start sector | End sector
––––––––––––––––––––––––––––-
1 | 0:00.00 | 8:56.25 | 0 | 40224
2 | 8:56.25 | 8:44.57 | 40225 | 79581
3 | 17:41.07 | 6:37.39 | 79582 | 109395
4 | 24:18.46 | 10:43.56 | 109396 | 157676
5 | 35:02.27 | 9:18.66 | 157677 | 199592
6 | 44:21.18 | 10:01.54 | 199593 | 244721


Range status and errors

Selected range

Filename G:\CD\G3 feat. J.Satriani, S.Vai & J.Petrucci - Live In Tokyo-2.wav

Peak level 100.0 %
Extraction speed 5.7 X
Range quality 100.0 %
Test CRC 01B8AA16
Copy CRC 01B8AA16
Copy OK

No errors occurred


AccurateRip summary

Track 1 cannot be verified as accurate (confidence 20) [DA553DDF], AccurateRip returned [8BD320FD] (AR v2)
Track 2 cannot be verified as accurate (confidence 21) [91290F54], AccurateRip returned [4F235DA3] (AR v2)
Track 3 cannot be verified as accurate (confidence 20) [C0991DDE], AccurateRip returned [EC7EFF07] (AR v2)
Track 4 cannot be verified as accurate (confidence 20) [DE498B34], AccurateRip returned [6A5B6042] (AR v2)
Track 5 cannot be verified as accurate (confidence 21) [0B4BD516], AccurateRip returned [E936F937] (AR v2)
Track 6 cannot be verified as accurate (confidence 20) [698E08C8], AccurateRip returned [44B53532] (AR v2)

No tracks could be verified as accurate
You may have a different pressing from the one(s) in the database

End of status report

==== Log checksum 955FD82DDA18AEE71E9219CE7C300056C983B49A9389860033F758F746A2C025 ====

Exact Audio Copy V1.0 beta 3 from 29. August 2011

EAC extraction logfile from 13. April 2013, 11:06

Chet Atkins & Les Paul / Chester & Lester

Used drive : ATAPI iHAS124 B Adapter: 2 ID: 0

Read mode : Secure
Utilize accurate stream : Yes
Defeat audio cache : Yes
Make use of C2 pointers : No

Read offset correction : 6
Overread into Lead-In and Lead-Out : No
Fill up missing offset samples with silence : Yes
Delete leading and trailing silent blocks : No
Null samples used in CRC calculations : Yes
Used interface : Native Win32 interface for Win NT & 2000

Used output format : User Defined Encoder
Selected bitrate : 1024 kBit/s
Quality : High
Add ID3 tag : No
Command line compressor : C:\Program Files (x86)\Exact Audio Copy\FLAC\FLAC.EXE
Additional command line options : -8 -V -T "ARTIST=%artist%" -T "TITLE=%title%" -T "ALBUM=%albumtitle%" -T "DATE=%year%" -T "TRACKNUMBER=%tracknr%" -T "GENRE=%genre%" -T "PERFORMER=%albuminterpret%" -T "COMPOSER=%composer%" %haslyrics%–tag-from-file=LYRICS="%lyricsfile%"%haslyrics% -T "ALBUMARTIST=%albumartist%" -T "DISCNUMBER=%cdnumber%" -T "TOTALDISCS=%totalcds%" -T "TOTALTRACKS=%numtracks%" -T "COMMENT=%comment%" %source% -o %dest%


TOC of the extracted CD

Track | Start | Length | Start sector | End sector
––––––––––––––––––––––––––––-
1 | 0:00.00 | 3:33.58 | 0 | 16032
2 | 3:33.58 | 4:45.03 | 16033 | 37410
3 | 8:18.61 | 3:19.27 | 37411 | 52362
4 | 11:38.13 | 3:34.47 | 52363 | 68459
5 | 15:12.60 | 3:14.70 | 68460 | 83079
6 | 18:27.55 | 6:32.74 | 83080 | 112553
7 | 25:00.54 | 3:06.56 | 112554 | 126559
8 | 28:07.35 | 3:22.66 | 126560 | 141775
9 | 31:30.26 | 2:31.74 | 141776 | 153174
10 | 34:02.25 | 2:43.09 | 153175 | 165408
11 | 36:45.34 | 2:21.29 | 165409 | 176012
12 | 39:06.63 | 2:49.71 | 176013 | 188758
13 | 41:56.59 | 3:16.71 | 188759 | 203529
14 | 45:13.55 | 5:16.66 | 203530 | 227295


Range status and errors

Selected range

Filename G:\CD\Chet Atkins & Les Paul - Chester & Lester.wav

Peak level 98.9 %
Extraction speed 5.7 X
Range quality 100.0 %
Test CRC 9EA98790
Copy CRC 9EA98790
Copy OK

No errors occurred


AccurateRip summary

Track 1 not present in database
Track 2 not present in database
Track 3 not present in database
Track 4 not present in database
Track 5 not present in database
Track 6 not present in database
Track 7 not present in database
Track 8 not present in database
Track 9 not present in database
Track 10 not present in database
Track 11 not present in database
Track 12 not present in database
Track 13 not present in database
Track 14 not present in database

None of the tracks are present in the AccurateRip database

End of status report

==== Log checksum B70844BCD0906439D647E6E6A9C50751FC8D94F7F21D70261916AC3B2A41D142 ====

Exact Audio Copy V1.0 beta 3 from 29. August 2011

EAC extraction logfile from 13. April 2013, 11:47

Andy Summers / Peggy's Blue Skylight

Used drive : ATAPI iHAS124 B Adapter: 2 ID: 0

Read mode : Secure
Utilize accurate stream : Yes
Defeat audio cache : Yes
Make use of C2 pointers : No

Read offset correction : 6
Overread into Lead-In and Lead-Out : No
Fill up missing offset samples with silence : Yes
Delete leading and trailing silent blocks : No
Null samples used in CRC calculations : Yes
Used interface : Native Win32 interface for Win NT & 2000

Used output format : User Defined Encoder
Selected bitrate : 1024 kBit/s
Quality : High
Add ID3 tag : No
Command line compressor : C:\Program Files (x86)\Exact Audio Copy\FLAC\FLAC.EXE
Additional command line options : -8 -V -T "ARTIST=%artist%" -T "TITLE=%title%" -T "ALBUM=%albumtitle%" -T "DATE=%year%" -T "TRACKNUMBER=%tracknr%" -T "GENRE=%genre%" -T "PERFORMER=%albuminterpret%" -T "COMPOSER=%composer%" %haslyrics%–tag-from-file=LYRICS="%lyricsfile%"%haslyrics% -T "ALBUMARTIST=%albumartist%" -T "DISCNUMBER=%cdnumber%" -T "TOTALDISCS=%totalcds%" -T "TOTALTRACKS=%numtracks%" -T "COMMENT=%comment%" %source% -o %dest%


TOC of the extracted CD

Track | Start | Length | Start sector | End sector
––––––––––––––––––––––––––––-
1 | 0:00.00 | 6:56.17 | 0 | 31216
2 | 6:56.17 | 5:05.55 | 31217 | 54146
3 | 12:01.72 | 6:26.63 | 54147 | 83159
4 | 18:28.60 | 5:07.30 | 83160 | 106214
5 | 23:36.15 | 0:40.07 | 106215 | 109221
6 | 24:16.22 | 4:09.10 | 109222 | 127906
7 | 28:25.32 | 5:11.13 | 127907 | 151244
8 | 33:36.45 | 5:35.60 | 151245 | 176429
9 | 39:12.30 | 5:54.15 | 176430 | 202994
10 | 45:06.45 | 6:04.60 | 202995 | 230354
11 | 51:11.30 | 3:55.47 | 230355 | 248026
12 | 55:07.02 | 9:07.00 | 248027 | 289051


Range status and errors

Selected range

Filename G:\CD\Andy Summers - Peggy's Blue Skylight.wav

Peak level 98.8 %
Extraction speed 6.0 X
Range quality 100.0 %
Test CRC 3FC8D007
Copy CRC 3FC8D007
Copy OK

No errors occurred


AccurateRip summary

Track 1 cannot be verified as accurate (confidence 9) [8653C1E6], AccurateRip returned [771B5598] (AR v2)
Track 2 cannot be verified as accurate (confidence 9) [CB68AFB5], AccurateRip returned [A3CB8515] (AR v2)
Track 3 cannot be verified as accurate (confidence 9) [F6B13AFB], AccurateRip returned [D4BFF556] (AR v2)
Track 4 cannot be verified as accurate (confidence 9) [3233F85D], AccurateRip returned [C95EDAF9] (AR v2)
Track 5 cannot be verified as accurate (confidence 9) [A66766F9], AccurateRip returned [E1A6C7EB] (AR v2)
Track 6 cannot be verified as accurate (confidence 9) [9E9A5EAE], AccurateRip returned [784C19FA] (AR v2)
Track 7 cannot be verified as accurate (confidence 9) [B806ED2A], AccurateRip returned [3084158C] (AR v2)
Track 8 cannot be verified as accurate (confidence 9) [2D84AA44], AccurateRip returned [A40C5FB7] (AR v2)
Track 9 cannot be verified as accurate (confidence 9) [BEF2D9F8], AccurateRip returned [8D7D7261] (AR v2)
Track 10 cannot be verified as accurate (confidence 8) [594F8949], AccurateRip returned [4C637EFE] (AR v2)
Track 11 cannot be verified as accurate (confidence 9) [13125F9E], AccurateRip returned [20A33099] (AR v2)
Track 12 cannot be verified as accurate (confidence 8) [362B5EFE], AccurateRip returned [6F902BED] (AR v2)

No tracks could be verified as accurate
You may have a different pressing from the one(s) in the database

End of status report

==== Log checksum 616BBCE534D2B029CD947045870F43FB71F2B92023808486256B511B634EF6CD ====

Exact Audio Copy V1.0 beta 3 from 29. August 2011

EAC extraction logfile from 13. April 2013, 12:13

Vicente Amigo / Vivencias Imaginadas

Used drive : ATAPI iHAS124 B Adapter: 2 ID: 0

Read mode : Secure
Utilize accurate stream : Yes
Defeat audio cache : Yes
Make use of C2 pointers : No

Read offset correction : 6
Overread into Lead-In and Lead-Out : No
Fill up missing offset samples with silence : Yes
Delete leading and trailing silent blocks : No
Null samples used in CRC calculations : Yes
Used interface : Native Win32 interface for Win NT & 2000

Used output format : User Defined Encoder
Selected bitrate : 1024 kBit/s
Quality : High
Add ID3 tag : No
Command line compressor : C:\Program Files (x86)\Exact Audio Copy\FLAC\FLAC.EXE
Additional command line options : -8 -V -T "ARTIST=%artist%" -T "TITLE=%title%" -T "ALBUM=%albumtitle%" -T "DATE=%year%" -T "TRACKNUMBER=%tracknr%" -T "GENRE=%genre%" -T "PERFORMER=%albuminterpret%" -T "COMPOSER=%composer%" %haslyrics%–tag-from-file=LYRICS="%lyricsfile%"%haslyrics% -T "ALBUMARTIST=%albumartist%" -T "DISCNUMBER=%cdnumber%" -T "TOTALDISCS=%totalcds%" -T "TOTALTRACKS=%numtracks%" -T "COMMENT=%comment%" %source% -o %dest%


TOC of the extracted CD

Track | Start | Length | Start sector | End sector
––––––––––––––––––––––––––––-
1 | 0:00.00 | 4:24.60 | 0 | 19859
2 | 4:24.60 | 7:01.22 | 19860 | 51456
3 | 11:26.07 | 5:34.68 | 51457 | 76574
4 | 17:01.00 | 5:06.20 | 76575 | 99544
5 | 22:07.20 | 9:29.60 | 99545 | 142279
6 | 31:37.05 | 4:39.65 | 142280 | 163269
7 | 36:16.70 | 5:44.10 | 163270 | 189079
8 | 42:01.05 | 4:49.62 | 189080 | 210816


Range status and errors

Selected range

Filename G:\CD\Vicente Amigo - Vivencias Imaginadas.wav

Peak level 100.0 %
Extraction speed 5.5 X
Range quality 100.0 %
Test CRC 1E032ED5
Copy CRC 1E032ED5
Copy OK

No errors occurred


AccurateRip summary

Track 1 cannot be verified as accurate (confidence 16) [C46E6D85], AccurateRip returned [1B4FBBE0] (AR v2)
Track 2 cannot be verified as accurate (confidence 17) [E34DCFD2], AccurateRip returned [9DE0D64A] (AR v2)
Track 3 cannot be verified as accurate (confidence 15) [123FACB9], AccurateRip returned [3797F584] (AR v2)
Track 4 cannot be verified as accurate (confidence 15) [C3F3DAB5], AccurateRip returned [CD32A7FD] (AR v2)
Track 5 cannot be verified as accurate (confidence 15) [3616AF64], AccurateRip returned [D29DE748] (AR v2)
Track 6 cannot be verified as accurate (confidence 15) [8650B614], AccurateRip returned [6DF2F573] (AR v2)
Track 7 cannot be verified as accurate (confidence 15) [E092B56B], AccurateRip returned [CA35E2A0] (AR v2)
Track 8 cannot be verified as accurate (confidence 15) [5C07F1D1], AccurateRip returned [9871E3FD] (AR v2)

No tracks could be verified as accurate
You may have a different pressing from the one(s) in the database

End of status report

==== Log checksum 66F700614C648F0B7BA9E7BFD2942B8E1DB64C073D29C6B95BDC92A62865094B ====

Exact Audio Copy V1.0 beta 3 from 29. August 2011

EAC extraction logfile from 13. April 2013, 12:34

Michael Hedges / Oracle

Used drive : ATAPI iHAS124 B Adapter: 2 ID: 0

Read mode : Secure
Utilize accurate stream : Yes
Defeat audio cache : Yes
Make use of C2 pointers : No

Read offset correction : 6
Overread into Lead-In and Lead-Out : No
Fill up missing offset samples with silence : Yes
Delete leading and trailing silent blocks : No
Null samples used in CRC calculations : Yes
Used interface : Native Win32 interface for Win NT & 2000

Used output format : User Defined Encoder
Selected bitrate : 1024 kBit/s
Quality : High
Add ID3 tag : No
Command line compressor : C:\Program Files (x86)\Exact Audio Copy\FLAC\FLAC.EXE
Additional command line options : -8 -V -T "ARTIST=%artist%" -T "TITLE=%title%" -T "ALBUM=%albumtitle%" -T "DATE=%year%" -T "TRACKNUMBER=%tracknr%" -T "GENRE=%genre%" -T "PERFORMER=%albuminterpret%" -T "COMPOSER=%composer%" %haslyrics%–tag-from-file=LYRICS="%lyricsfile%"%haslyrics% -T "ALBUMARTIST=%albumartist%" -T "DISCNUMBER=%cdnumber%" -T "TOTALDISCS=%totalcds%" -T "TOTALTRACKS=%numtracks%" -T "COMMENT=%comment%" %source% -o %dest%


TOC of the extracted CD

Track | Start | Length | Start sector | End sector
––––––––––––––––––––––––––––-
1 | 0:00.00 | 3:07.70 | 0 | 14094
2 | 3:07.70 | 3:30.30 | 14095 | 29874
3 | 6:38.25 | 2:12.00 | 29875 | 39774
4 | 8:50.25 | 3:31.05 | 39775 | 55604
5 | 12:21.30 | 2:40.42 | 55605 | 67646
6 | 15:01.72 | 4:10.40 | 67647 | 86436
7 | 19:12.37 | 2:22.55 | 86437 | 97141
8 | 21:35.17 | 4:04.10 | 97142 | 115451
9 | 25:39.27 | 3:21.73 | 115452 | 130599
10 | 29:01.25 | 3:00.05 | 130600 | 144104
11 | 32:01.30 | 2:11.62 | 144105 | 153991
12 | 34:13.17 | 2:45.50 | 153992 | 166416
13 | 36:58.67 | 4:19.65 | 166417 | 185906
14 | 41:18.57 | 3:08.58 | 185907 | 200064


Range status and errors

Selected range

Filename G:\CD\Michael Hedges - Oracle.wav

Peak level 98.4 %
Extraction speed 5.5 X
Range quality 100.0 %
Test CRC 998BEE30
Copy CRC 998BEE30
Copy OK

No errors occurred


AccurateRip summary

Track 1 cannot be verified as accurate (confidence 69) [00611700], AccurateRip returned [D3A7BC46] (AR v2)
Track 2 cannot be verified as accurate (confidence 69) [4284B5CE], AccurateRip returned [F7FEBB42] (AR v2)
Track 3 cannot be verified as accurate (confidence 69) [FFAC52DB], AccurateRip returned [EE1D2449] (AR v2)
Track 4 cannot be verified as accurate (confidence 69) [F903F735], AccurateRip returned [A0984EAA] (AR v2)
Track 5 cannot be verified as accurate (confidence 68) [BDF69FFC], AccurateRip returned [765C0C6E] (AR v2)
Track 6 cannot be verified as accurate (confidence 68) [6DB81E70], AccurateRip returned [45020BB7] (AR v2)
Track 7 cannot be verified as accurate (confidence 69) [CF06A196], AccurateRip returned [62008641] (AR v2)
Track 8 cannot be verified as accurate (confidence 68) [B8C0B444], AccurateRip returned [49C5B93E] (AR v2)
Track 9 cannot be verified as accurate (confidence 67) [07AB2463], AccurateRip returned [A907A9AE] (AR v2)
Track 10 cannot be verified as accurate (confidence 68) [F727C7D5], AccurateRip returned [058E2C0D] (AR v2)
Track 11 cannot be verified as accurate (confidence 69) [24470A6A], AccurateRip returned [E06C7EDA] (AR v2)
Track 12 cannot be verified as accurate (confidence 68) [6EE654BD], AccurateRip returned [A56B787B] (AR v2)
Track 13 cannot be verified as accurate (confidence 68) [24CB1CC9], AccurateRip returned [39F524B9] (AR v2)
Track 14 cannot be verified as accurate (confidence 66) [308EE7B5], AccurateRip returned [5A15CF24] (AR v2)

No tracks could be verified as accurate
You may have a different pressing from the one(s) in the database

End of status report

==== Log checksum E6EF6D2BFF24756DD55D9BBFFE03A1AC1834469B6DB25F51BD821C015E39CF19 ====


Many thanks to the original uploader: gerrV

See also:
V.A. 2004 L'Histoire du Jazz Vocal / The Story of Jazz Vocal, Vol. 1 - (1911-1940)
V.A. 2004 L'Histoire du Jazz Vocal / The Story of Jazz Vocal, Vol. 2 - (1941-1953)
–––––––––––––––––––
Flac + Mp3 + Full Scans
Nitroflare