Tags
Language
Tags
June 2024
Su Mo Tu We Th Fr Sa
26 27 28 29 30 31 1
2 3 4 5 6 7 8
9 10 11 12 13 14 15
16 17 18 19 20 21 22
23 24 25 26 27 28 29
30 1 2 3 4 5 6

VA - The Complete Motown Singles Collection, Vol.3: 1963 [5CD Box Set] (2005)

Posted By: Discograf_man
VA - The Complete Motown Singles Collection, Vol.3: 1963 [5CD Box Set] (2005)

VA - The Complete Motown Singles Collection, Vol.3: 1963 [5CD Box Set] (2005)
EAC Rip | FLAC (*tracks + .cue,log) | Run Time: 05:25:41 | 1,20 Gb | Scans 1,27 Mb
Genre: Funk, Soul, Jazz | Label: Hip-O Select

The Complete Motown Singles has been a dream project of Motown and soul fanatics for many years, ever since the first decade of Stax/Volt singles was compiled in an impressive nine-disc box set in 1991. Prior to that, no soul label had its output as thoroughly documented as that set – there had been the Atlantic R&B box, which collected highlights, but it never attempted to capture the label's entire run – and while The Complete Stax-Volt Singles 1959-1968 missed a B-side or two, it was an exceptional piece of music history, and pretty damn entertaining to boot. It was so good that it seemed like Motown would be a natural to receive the same treatment, since the label not only had a greater impact – not just musically, but culturally – but it had a much more diverse roster, which would make for an exciting set. The Complete Motown Singles might have seemed like a logical move to soul collectors and fanatics, but it remained in the realm of fantasy for many years because, as enticing as that set was, it was difficult to create. First, there was the perennial problem of Motown reissues, where the label is always inclined to recycle the familiar hits instead of dig deep into the vaults. That situation improved in the early '90s, after Universal acquired the catalog and began to release sturdy sets like the Hitsville USA box and multi-disc sets by the Temptations and the Four Tops, but even with the success of these releases, there was reluctance to launch a project like The Complete Motown Singles for two big reasons. One, it was a massive project, dwarfing the Stax/Volt output, which could be squeezed into three nine-disc sets by eliminating only a few B-sides and a handful of singles without anybody but scholars and obsessives knowing the difference. Motown's classic period of 1959-1972 featured hundreds of songs – roughly 50 discs' worth of music, which lead to the second big problem, which is that even if the label approved such a set, it would not be commercially feasible, since no store would stock such a series, no matter how it was broken up.
VA - The Complete Motown Singles Collection, Vol.3: 1963 [5CD Box Set] (2005)

VA - The Complete Motown Singles Collection, Vol.3: 1963 [5CD Box Set] (2005)

Tracklist:

CD 11

01. The Valadiers - I Found A Girl (2:45)
02. The Valadiers - You'll Be Sorry Someday (1:53)
03. Linda Griner - Good Bye Cruel Love (2:25)
04. Linda Griner - Envious (2:42)
05. Paula Greer - I Want To Talk About You (4:22)
06. Paula Greer - So In Love (3:08)
07. Mary Wells - Laughing Boy (2:57)
08. Mary Wells - Two Wrongs Don't Make A Right (2:48)
09. The Chuck-A-Lucks - Sugar Cane Curtain (2:45)
10. The Chuck-A-Lucks - Dingbat Diller (2:12)
11. Kim Weston - It Should Have Been Me (2:18)
12. Kim Weston - Love Me All The Way (2:54)
13. The Marvelettes - Locking Up My Heart [First Pressing] (2:24)
14. The Marvelettes - Forever (2:22)
15. Martha & The Vandellas - Come And Get These Memories (2:28)
16. Martha & The Vandellas - Jealous Lover (2:41)
17. The Supremes - My Heart Can't Take It No More (2:58)
18. The Supremes - You Bring Back Memories (2:37)
19. Dave Hamilton - Late Freight (3:52)
20. Dave Hamilton - Mellow In Coli (3:51)
21. Johnny Griffith Trio - I'mi See You Later (2:43)
22. Johnny Griffith Trio - I Did (4:00)

CD 12

01. George Bohannon Quartet - Bobbie (4:24)
02. George Bohannon Quartet - El Rig (4:17)
03. Paula Greer - I Did (4:01)
04. Paula Greer - Falling In Love With Love (3:16)
05. "Jack" Haney & "Nikiter" Arrmstrong - The Interview (Summit Chanted Meeting) (3:13)
06. "Jack" Haney & "Nikiter" Arrmstrong - Peaceful (1:50)
07. Amos Milburn - My Baby Gave Me Another Chance (2:25)
08. Amos Milburn - I'll Make It Up To You Somehow (2:37)
09. The Contours - Don't Let Her Be Your Baby (2:53)
10. The Contours - It Must Be Love (2:29)
11. Connie Van Dyke - Oh Freddy (2:14)
12. Connie Van Dyke - It Hurt Me Too (2:37)
13. The Miracles - A Love She Can Count On (2:53)
14. The Miracles - I Can Take A Hint (2:39)
15. The Temptations - I Want A Love I Can See (2:32)
16. The Temptations - The Further You Look, The Less You See (2:20)
17. Marvin Gaye - Pride And Joy (2:10)
18. Marvin Gaye - One Of These Days (2:59)
19. Mary Wells - Your Old Stand By (2:48)
20. Mary Wells - What Love Has Joined Together (2:53)
21. Eddie Holland - Baby Shake (2:38)
22. Eddie Holland - Brenda (2:43)
23. The Marvelettes - Locking Up My Heart [Second Pressing] (2:25)
24. Billy Merritt - Why Go Out Of Your Way (2:30)
25. Billy Merritt - I'll Go Anywhere (2:19)

CD 13

01. Little Stevie Wonder - Fingertips (Part 1) [First Pressing] (3:19)
02. Little Stevie Wonder - Fingertips (Part 2) [First Pressing] (3:12)
03. The Burnadettes - First, You've Got To Recognize God (2:38)
04. The Burnadettes - I'm Going Home (2:09)
05. Little Stevie Wonder - Fingertips (Part 2) [Second Pressing] (3:12)
06. Little Stevie Wonder - Fingertips (Part 1) [Second Pressing] (3:19)
07. Bunny Paul - I'm Hooked (2:34)
08. Bunny Paul - We're Only Young Once (3:15)
09. The Stylers - Going Steady Anniversary (2:03)
10. The Stylers - Pushing Up Daisies (2:41)
11. The Wright Specials - Ninety-Nine And A Half Won't Do (2:52)
12. The Wright Specials - I Won't Go Back (2:41)
13. The Contours - Pa (I Need A Car) (2:25)
14. The Contours - You Get Ugly (2:24)
15. Amos Milburn - My Daily Prayer (2:25)
16. The Supremes - A Breath Taking Guy (2:25)
17. The Supremes - (The Man With The) Rock And Roll Banjo (3:05)
18. Holland & Dozier - What Goes Up Must Come Down (2:07)
19. Holland & Dozier - Come On Home (2:19)
20. Mable John - Who Wouldn't Love A Man Like That (2:52)
21. Mable John - Say You'll Never Let Me Go (2:21)
22. The Temptations - Farewell My Love (2:26)
23. The Temptations - May I Have This Dance (2:09)
24. The Marvelettes - My Daddy Knows Best (2:29)
25. The Marvelettes - Tie A String Around Your Finger (2:50)

CD 14

01. Martha & The Vandellas - Heat Wave (2:49)
02. Martha & The Vandellas - A Love Like Yours (Don't Come Knocking Everyday) (2:30)
03. The Gospel Stars - Give God A Chance (3:55)
04. The Gospel Stars - Have You Any Time For Jesus (2:38)
05. The Miracles - Mickey's Monkey (2:46)
06. The Miracles - Whatever Makes You Happy (2:35)
07. The Velvelettes - There He Goes (2:34)
08. The Velvelettes - That's The Reason Why (2:20)
09. Little Stevie Wonder - I Call It Pretty Music But The Old People Call It The Blues (Part 1) [Second Pressing] (2:29)
10. The Morrocco Muzik Makers - Back To School Again (2:11)
11. The Morrocco Muzik Makers - Pig Knuckles (2:53)
12. LaBrenda Ben - Just Be Yourself (2:38)
13. LaBrenda Ben - I Can't Help It, I Gotta Dance (2:51)
14. Mary Wells - You Lost The Sweetest Boy (2:33)
15. Mary Wells - What's So Easy For Two So Is Hard For One (2:56)
16. Little Stevie Wonder - Work Out Stevie, Work Out (2:44)
17. Little Stevie Wonder - Monkey Talk (2:43)
18. Marvin Gaye - Can I Get A Witness (2:49)
19. Marvin Gaye - I'm Crazy 'Bout My Baby (2:44)
20. Liz Lands & The Voices Of Salvation - We Shall Overcome (3:32)
21. Liz Lands - Trouble In This Land (2:52)
22. The Marvelettes - As Long As I Know He's Mine (2:33)
23. The Marvelettes - He Won't Be True (Little Girl Blue) (2:32)
24. Eddie Holland - I'm On The Outside Looking In (2:44)
25. Eddie Holland - I Couldn't Cry If I Wanted To (2:44)

CD 15

01. Kim Weston - Just Loving You (3:00)
02. Kim Weston - Another Train Coming (2:42)
03. The Darnells - Too Hurt To Cry, Too Much In Love To Say Goodbye (2:17)
04. The Darnells - Come On Home (2:21)
05. Howard Crockett - The Big Wheel (3:11)
06. Howard Crockett - That Silver Haired Daddy Of Mine (2:56)
07. Carolyn Crawford - Forget About Me (2:31)
08. Carolyn Crawford - Devil In His Heart (2:29)
09. The Supremes - When The Lovelight Starts Shining Through His Eyes (3:07)
10. The Supremes - Standing At The Crossroads Of Love (2:31)
11. The Miracles - I Gotta Dance To Keep From Crying (2:40)
12. The Miracles - Such Is Love, Such Is Life (2:43)
13. Martha & The Vandellas - Quicksand [First Pressing] (2:47)
14. Martha & The Vandellas - Darling, I Hum Our Song (2:37)
15. Martha & The Vandellas - Quicksand [Second Pressing] (2:37)
16. The Miracles - The Christmas Song (Chestnuts Roasting On An Open Fire) (2:40)
17. The Miracles - Christmas Everyday (2:31)
18. Liz Lands - May What He Lived For Live (3:02)
19. Liz Lands - He's Got The Whole World In His Hands (2:50)
20. Eddie Holland - Leaving Here (2:33)
21. Patrice Holloway - Stevie (2:40)
22. Patrice Holloway - (He Is) The Boy Of My Dreams (2:10)

VA - The Complete Motown Singles Collection, Vol.3: 1963 [5CD Box Set] (2005)


Exact Audio Copy V1.3 from 2. September 2016

EAC extraction logfile from 11. June 2020, 20:06

Various Artists / The Complete Motown Singles, Volume 3: 1963

Used drive : _NEC DVD+-RW ND-6500A Adapter: 1 ID: 0

Read mode : Secure
Utilize accurate stream : Yes
Defeat audio cache : Yes
Make use of C2 pointers : No

Read offset correction : 48
Overread into Lead-In and Lead-Out : No
Fill up missing offset samples with silence : Yes
Delete leading and trailing silent blocks : No
Null samples used in CRC calculations : Yes
Used interface : Native Win32 interface for Win NT & 2000
Gap handling : Appended to previous track

Used output format : User Defined Encoder
Selected bitrate : 1024 kBit/s
Quality : High
Add ID3 tag : No
Command line compressor : C:\Program Files (x86)\Exact Audio Copy\Flac\flac.exe
Additional command line options : -8 -V -T "ARTIST=%artist%" -T "TITLE=%title%" -T "ALBUM=%albumtitle%" -T "DATE=%year%" -T "TRACKNUMBER=%tracknr%" -T "GENRE=%genre%" -T "PERFORMER=%albuminterpret%" -T "COMPOSER=%composer%" %haslyrics%–tag-from-file=LYRICS="%lyricsfile%"%haslyrics% -T "ALBUMARTIST=%albumartist%" -T "DISCNUMBER=%cdnumber%" -T "TOTALDISCS=%totalcds%" -T "TOTALTRACKS=%numtracks%" -T "COMMENT=%comment%" %source% -o %dest%

TOC of the extracted CD

Track | Start | Length | Start sector | End sector
––––––––––––––––––––––––––––-
1 | 0:00.00 | 2:44.50 | 0 | 12349
2 | 2:44.50 | 1:53.13 | 12350 | 20837
3 | 4:37.63 | 2:25.00 | 20838 | 31712
4 | 7:02.63 | 2:41.62 | 31713 | 43849
5 | 9:44.50 | 4:22.00 | 43850 | 63499
6 | 14:06.50 | 3:07.62 | 63500 | 77586
7 | 17:14.37 | 2:57.12 | 77587 | 90873
8 | 20:11.49 | 2:48.34 | 90874 | 103507
9 | 23:00.08 | 2:44.38 | 103508 | 115845
10 | 25:44.46 | 2:12.07 | 115846 | 125752
11 | 27:56.53 | 2:18.11 | 125753 | 136113
12 | 30:14.64 | 2:54.28 | 136114 | 149191
13 | 33:09.17 | 2:23.63 | 149192 | 159979
14 | 35:33.05 | 2:22.25 | 159980 | 170654
15 | 37:55.30 | 2:28.26 | 170655 | 181780
16 | 40:23.56 | 2:40.49 | 181781 | 193829
17 | 43:04.30 | 2:57.74 | 193830 | 207178
18 | 46:02.29 | 2:37.27 | 207179 | 218980
19 | 48:39.56 | 3:51.48 | 218981 | 236353
20 | 52:31.29 | 3:51.03 | 236354 | 253681
21 | 56:22.32 | 2:42.52 | 253682 | 265883
22 | 59:05.09 | 4:00.12 | 265884 | 283895

Track 1

Filename Y:\Various - The Complete Motown Singles Vol. 3 (1963) CD [FLAC]\Disc 11\01 - The Valadiers - I Found a Girl.wav

Pre-gap length 0:00:02.00

Peak level 95.9 %
Extraction speed 0.8 X
Track quality 99.9 %
Test CRC 6580127B
Copy CRC 6580127B
Accurately ripped (confidence 14) [BD5DDC8E] (AR v2)
Copy OK

Track 2

Filename Y:\Various - The Complete Motown Singles Vol. 3 (1963) CD [FLAC]\Disc 11\02 - The Valadiers - You'll Be Sorry Someday.wav

Pre-gap length 0:00:01.14

Peak level 95.3 %
Extraction speed 1.0 X
Track quality 100.0 %
Test CRC 7069CE79
Copy CRC 7069CE79
Accurately ripped (confidence 13) [9EBEAA42] (AR v2)
Copy OK

Track 3

Filename Y:\Various - The Complete Motown Singles Vol. 3 (1963) CD [FLAC]\Disc 11\03 - Linda Griner - Good Bye Cruel Love.wav

Pre-gap length 0:00:01.14

Peak level 96.7 %
Extraction speed 1.0 X
Track quality 100.0 %
Test CRC 768E60A5
Copy CRC 768E60A5
Accurately ripped (confidence 14) [3263C166] (AR v2)
Copy OK

Track 4

Filename Y:\Various - The Complete Motown Singles Vol. 3 (1963) CD [FLAC]\Disc 11\04 - Linda Griner - Envious.wav

Pre-gap length 0:00:01.26

Peak level 84.6 %
Extraction speed 1.0 X
Track quality 100.0 %
Test CRC E1E5492C
Copy CRC E1E5492C
Accurately ripped (confidence 13) [9F198AFE] (AR v2)
Copy OK

Track 5

Filename Y:\Various - The Complete Motown Singles Vol. 3 (1963) CD [FLAC]\Disc 11\05 - Paula Greer - I Want to Talk About You.wav

Pre-gap length 0:00:01.25

Peak level 86.8 %
Extraction speed 1.2 X
Track quality 100.0 %
Test CRC 8F9903DC
Copy CRC 8F9903DC
Accurately ripped (confidence 13) [3562B44E] (AR v2)
Copy OK

Track 6

Filename Y:\Various - The Complete Motown Singles Vol. 3 (1963) CD [FLAC]\Disc 11\06 - Paula Greer - So in Love.wav

Pre-gap length 0:00:01.24

Peak level 86.1 %
Extraction speed 1.1 X
Track quality 100.0 %
Test CRC 22D40FAD
Copy CRC 22D40FAD
Accurately ripped (confidence 13) [68539CB9] (AR v2)
Copy OK

Track 7

Filename Y:\Various - The Complete Motown Singles Vol. 3 (1963) CD [FLAC]\Disc 11\07 - Mary Wells - Laughing Boy.wav

Pre-gap length 0:00:01.22

Peak level 99.5 %
Extraction speed 1.2 X
Track quality 100.0 %
Test CRC 3CE948EF
Copy CRC 3CE948EF
Accurately ripped (confidence 15) [ABB55218] (AR v2)
Copy OK

Track 8

Filename Y:\Various - The Complete Motown Singles Vol. 3 (1963) CD [FLAC]\Disc 11\08 - Mary Wells - Two Wrongs Don't Make a Right.wav

Pre-gap length 0:00:01.22

Peak level 85.4 %
Extraction speed 1.2 X
Track quality 100.0 %
Test CRC C3A75C42
Copy CRC C3A75C42
Accurately ripped (confidence 14) [8A9B8214] (AR v2)
Copy OK

Track 9

Filename Y:\Various - The Complete Motown Singles Vol. 3 (1963) CD [FLAC]\Disc 11\09 - The Chuck-A-Lucks - Sugar Cane Curtain.wav

Pre-gap length 0:00:01.21

Peak level 85.5 %
Extraction speed 1.3 X
Track quality 100.0 %
Test CRC 2ACC7E0E
Copy CRC 2ACC7E0E
Accurately ripped (confidence 13) [AE891A33] (AR v2)
Copy OK

Track 10

Filename Y:\Various - The Complete Motown Singles Vol. 3 (1963) CD [FLAC]\Disc 11\10 - The Chuck-A-Lucks - Dingbat Diller.wav

Pre-gap length 0:00:01.21

Peak level 97.9 %
Extraction speed 1.3 X
Track quality 100.0 %
Test CRC 318C50C5
Copy CRC 318C50C5
Accurately ripped (confidence 13) [63E02990] (AR v2)
Copy OK

Track 11

Filename Y:\Various - The Complete Motown Singles Vol. 3 (1963) CD [FLAC]\Disc 11\11 - Kim Weston - It Should Have Been Me.wav

Pre-gap length 0:00:01.01

Peak level 95.2 %
Extraction speed 1.4 X
Track quality 100.0 %
Test CRC BC00B1B2
Copy CRC BC00B1B2
Accurately ripped (confidence 13) [083A0763] (AR v2)
Copy OK

Track 12

Filename Y:\Various - The Complete Motown Singles Vol. 3 (1963) CD [FLAC]\Disc 11\12 - Kim Weston - Love Me All the Way.wav

Pre-gap length 0:00:01.38

Peak level 85.3 %
Extraction speed 1.3 X
Track quality 100.0 %
Test CRC 77C0EB46
Copy CRC 77C0EB46
Accurately ripped (confidence 14) [D127EE8D] (AR v2)
Copy OK

Track 13

Filename Y:\Various - The Complete Motown Singles Vol. 3 (1963) CD [FLAC]\Disc 11\13 - The Marvelettes - Locking Up My Heart (first pressing).wav

Pre-gap length 0:00:01.28

Peak level 95.6 %
Extraction speed 1.4 X
Track quality 100.0 %
Test CRC 2B344109
Copy CRC 2B344109
Accurately ripped (confidence 14) [B252C475] (AR v2)
Copy OK

Track 14

Filename Y:\Various - The Complete Motown Singles Vol. 3 (1963) CD [FLAC]\Disc 11\14 - The Marvelettes - Forever.wav

Pre-gap length 0:00:01.26

Peak level 92.6 %
Extraction speed 1.4 X
Track quality 100.0 %
Test CRC 2457EE34
Copy CRC 2457EE34
Accurately ripped (confidence 14) [E4AE9B73] (AR v2)
Copy OK

Track 15

Filename Y:\Various - The Complete Motown Singles Vol. 3 (1963) CD [FLAC]\Disc 11\15 - Martha and the Vandellas - Come and Get These Memories.wav

Pre-gap length 0:00:01.32

Peak level 82.9 %
Extraction speed 1.5 X
Track quality 100.0 %
Test CRC AA323FD9
Copy CRC AA323FD9
Accurately ripped (confidence 14) [CA344F14] (AR v2)
Copy OK

Track 16

Filename Y:\Various - The Complete Motown Singles Vol. 3 (1963) CD [FLAC]\Disc 11\16 - Martha and the Vandellas - Jealous Lover.wav

Pre-gap length 0:00:01.22

Peak level 82.1 %
Extraction speed 1.3 X
Track quality 99.9 %
Test CRC 64139363
Copy CRC 64139363
Accurately ripped (confidence 13) [7108D6CC] (AR v2)
Copy OK

Track 17

Filename Y:\Various - The Complete Motown Singles Vol. 3 (1963) CD [FLAC]\Disc 11\17 - The Supremes - My Heart Can't Take It No More.wav

Pre-gap length 0:00:01.34

Peak level 93.2 %
Extraction speed 1.5 X
Track quality 100.0 %
Test CRC 6ECD7784
Copy CRC 6ECD7784
Accurately ripped (confidence 13) [065B595C] (AR v2)
Copy OK

Track 18

Filename Y:\Various - The Complete Motown Singles Vol. 3 (1963) CD [FLAC]\Disc 11\18 - The Supremes - You Bring Back Memories.wav

Pre-gap length 0:00:01.21

Peak level 93.2 %
Extraction speed 1.4 X
Track quality 99.9 %
Test CRC 02A12851
Copy CRC 02A12851
Accurately ripped (confidence 13) [2C54605F] (AR v2)
Copy OK

Track 19

Filename Y:\Various - The Complete Motown Singles Vol. 3 (1963) CD [FLAC]\Disc 11\19 - Dave Hamilton - Late Freight.wav

Pre-gap length 0:00:01.25

Peak level 75.4 %
Extraction speed 1.6 X
Track quality 100.0 %
Test CRC 528FCEAE
Copy CRC 528FCEAE
Accurately ripped (confidence 13) [EBCA207B] (AR v2)
Copy OK

Track 20

Filename Y:\Various - The Complete Motown Singles Vol. 3 (1963) CD [FLAC]\Disc 11\20 - Dave Hamilton - Mellow in Coli.wav

Pre-gap length 0:00:01.18

Peak level 79.2 %
Extraction speed 1.5 X
Track quality 99.9 %
Test CRC 1148715D
Copy CRC 1148715D
Accurately ripped (confidence 13) [999D3F9A] (AR v2)
Copy OK

Track 21

Filename Y:\Various - The Complete Motown Singles Vol. 3 (1963) CD [FLAC]\Disc 11\21 - Johnny Griffith Trio - I'Mi See You Later.wav

Pre-gap length 0:00:01.30

Peak level 84.7 %
Extraction speed 1.5 X
Track quality 99.9 %
Test CRC 34487482
Copy CRC 34487482
Accurately ripped (confidence 12) [58C895AA] (AR v2)
Copy OK

Track 22

Filename Y:\Various - The Complete Motown Singles Vol. 3 (1963) CD [FLAC]\Disc 11\22 - Johnny Griffith Trio - I Did.wav

Pre-gap length 0:00:01.28

Peak level 91.2 %
Extraction speed 1.7 X
Track quality 100.0 %
Test CRC CFFF8476
Copy CRC CFFF8476
Accurately ripped (confidence 12) [CE2200BE] (AR v2)
Copy OK

All tracks accurately ripped

No errors occurred

End of status report

–– CUETools DB Plugin V2.1.6

[CTDB TOCID: nED.6U2uatCdsDzBmz6MyLwHNJk-] found
Submit result: already submitted
Track | CTDB Status
1 | (27/27) Accurately ripped
2 | (27/27) Accurately ripped
3 | (27/27) Accurately ripped
4 | (27/27) Accurately ripped
5 | (27/27) Accurately ripped
6 | (27/27) Accurately ripped
7 | (27/27) Accurately ripped
8 | (27/27) Accurately ripped
9 | (27/27) Accurately ripped
10 | (27/27) Accurately ripped
11 | (27/27) Accurately ripped
12 | (27/27) Accurately ripped
13 | (27/27) Accurately ripped
14 | (27/27) Accurately ripped
15 | (26/27) Accurately ripped
16 | (27/27) Accurately ripped
17 | (26/27) Accurately ripped
18 | (26/27) Accurately ripped
19 | (26/27) Accurately ripped
20 | (26/27) Accurately ripped
21 | (26/27) Accurately ripped
22 | (27/27) Accurately ripped

==== Log checksum DB164338FB1DC57AF473ADD732296906EF34CB728141C4938903BB56662295D4 ====

========================================

Exact Audio Copy V1.3 from 2. September 2016

EAC extraction logfile from 11. June 2020, 17:57

Various Artists / The Complete Motown Singles, Volume 3: 1963

Used drive : _NEC DVD+-RW ND-6500A Adapter: 1 ID: 0

Read mode : Secure
Utilize accurate stream : Yes
Defeat audio cache : Yes
Make use of C2 pointers : No

Read offset correction : 48
Overread into Lead-In and Lead-Out : No
Fill up missing offset samples with silence : Yes
Delete leading and trailing silent blocks : No
Null samples used in CRC calculations : Yes
Used interface : Native Win32 interface for Win NT & 2000
Gap handling : Appended to previous track

Used output format : User Defined Encoder
Selected bitrate : 1024 kBit/s
Quality : High
Add ID3 tag : No
Command line compressor : C:\Program Files (x86)\Exact Audio Copy\Flac\flac.exe
Additional command line options : -8 -V -T "ARTIST=%artist%" -T "TITLE=%title%" -T "ALBUM=%albumtitle%" -T "DATE=%year%" -T "TRACKNUMBER=%tracknr%" -T "GENRE=%genre%" -T "PERFORMER=%albuminterpret%" -T "COMPOSER=%composer%" %haslyrics%–tag-from-file=LYRICS="%lyricsfile%"%haslyrics% -T "ALBUMARTIST=%albumartist%" -T "DISCNUMBER=%cdnumber%" -T "TOTALDISCS=%totalcds%" -T "TOTALTRACKS=%numtracks%" -T "COMMENT=%comment%" %source% -o %dest%

TOC of the extracted CD

Track | Start | Length | Start sector | End sector
––––––––––––––––––––––––––––-
1 | 0:00.00 | 4:24.23 | 0 | 19822
2 | 4:24.23 | 4:17.29 | 19823 | 39126
3 | 8:41.52 | 4:01.37 | 39127 | 57238
4 | 12:43.14 | 3:15.70 | 57239 | 71933
5 | 15:59.09 | 3:12.41 | 71934 | 86374
6 | 19:11.50 | 1:50.27 | 86375 | 94651
7 | 21:02.02 | 2:25.10 | 94652 | 105536
8 | 23:27.12 | 2:36.51 | 105537 | 117287
9 | 26:03.63 | 2:53.10 | 117288 | 130272
10 | 28:56.73 | 2:28.74 | 130273 | 141446
11 | 31:25.72 | 2:14.27 | 141447 | 151523
12 | 33:40.24 | 2:36.60 | 151524 | 163283
13 | 36:17.09 | 2:52.65 | 163284 | 176248
14 | 39:09.74 | 2:38.51 | 176249 | 188149
15 | 41:48.50 | 2:31.62 | 188150 | 199536
16 | 44:20.37 | 2:19.64 | 199537 | 210025
17 | 46:40.26 | 2:09.60 | 210026 | 219760
18 | 48:50.11 | 2:58.62 | 219761 | 233172
19 | 51:48.73 | 2:47.70 | 233173 | 245767
20 | 54:36.68 | 2:53.30 | 245768 | 258772
21 | 57:30.23 | 2:37.52 | 258773 | 270599
22 | 60:08.00 | 2:42.73 | 270600 | 282822
23 | 62:50.73 | 2:24.55 | 282823 | 293677
24 | 65:15.53 | 2:29.47 | 293678 | 304899
25 | 67:45.25 | 2:18.57 | 304900 | 315306

Track 1

Filename Y:\Various - The Complete Motown Singles Vol. 3 (1963) CD [FLAC]\Disc 12\01 - George Bohannon Quartet - Bobbie.wav

Pre-gap length 0:00:02.00

Peak level 100.0 %
Extraction speed 1.1 X
Track quality 100.0 %
Test CRC 792F5CF0
Copy CRC 792F5CF0
Accurately ripped (confidence 7) [8FF59164] (AR v2)
Copy OK

Track 2

Filename Y:\Various - The Complete Motown Singles Vol. 3 (1963) CD [FLAC]\Disc 12\02 - George Bohannon Quartet - El Rig.wav

Pre-gap length 0:00:01.08

Peak level 86.5 %
Extraction speed 1.2 X
Track quality 100.0 %
Test CRC B9E6A607
Copy CRC B9E6A607
Accurately ripped (confidence 7) [17E99B89] (AR v2)
Copy OK

Track 3

Filename Y:\Various - The Complete Motown Singles Vol. 3 (1963) CD [FLAC]\Disc 12\03 - Paula Greer - I Did.wav

Pre-gap length 0:00:01.12

Peak level 89.8 %
Extraction speed 1.3 X
Track quality 100.0 %
Test CRC 553C3FE5
Copy CRC 553C3FE5
Accurately ripped (confidence 7) [664FCCDD] (AR v2)
Copy OK

Track 4

Filename Y:\Various - The Complete Motown Singles Vol. 3 (1963) CD [FLAC]\Disc 12\04 - Paula Greer - Falling in Love With Love.wav

Pre-gap length 0:00:01.10

Peak level 98.8 %
Extraction speed 1.3 X
Track quality 100.0 %
Test CRC F5F1E76D
Copy CRC F5F1E76D
Accurately ripped (confidence 7) [1C9436E6] (AR v2)
Copy OK

Track 5

Filename Y:\Various - The Complete Motown Singles Vol. 3 (1963) CD [FLAC]\Disc 12\05 - Jack Haney & Nikiter Armstrong - The Interview.wav

Pre-gap length 0:00:01.09

Peak level 87.2 %
Extraction speed 1.1 X
Track quality 99.9 %
Test CRC 4592269A
Copy CRC 4592269A
Accurately ripped (confidence 7) [A5F7BE0E] (AR v2)
Copy OK

Track 6

Filename Y:\Various - The Complete Motown Singles Vol. 3 (1963) CD [FLAC]\Disc 12\06 - Jack Haney & Nikiter Armstrong - Peaceful.wav

Pre-gap length 0:00:01.08

Peak level 93.2 %
Extraction speed 1.4 X
Track quality 100.0 %
Test CRC E0554314
Copy CRC E0554314
Accurately ripped (confidence 7) [79104A85] (AR v2)
Copy OK

Track 7

Filename Y:\Various - The Complete Motown Singles Vol. 3 (1963) CD [FLAC]\Disc 12\07 - Amos Milburn - My Baby Gave Me Another Chance.wav

Pre-gap length 0:00:01.05

Peak level 94.4 %
Extraction speed 1.3 X
Track quality 100.0 %
Test CRC F0E6AF0B
Copy CRC F0E6AF0B
Accurately ripped (confidence 7) [16D677B1] (AR v2)
Copy OK

Track 8

Filename Y:\Various - The Complete Motown Singles Vol. 3 (1963) CD [FLAC]\Disc 12\08 - Amos Milburn - I'll Make It Up to You Somehow.wav

Pre-gap length 0:00:01.06

Peak level 94.7 %
Extraction speed 1.1 X
Track quality 99.9 %
Test CRC 39D14B05
Copy CRC 39D14B05
Accurately ripped (confidence 7) [2E0B4A43] (AR v2)
Copy OK

Track 9

Filename Y:\Various - The Complete Motown Singles Vol. 3 (1963) CD [FLAC]\Disc 12\09 - The Contours - Don't Let Her Be Your Baby.wav

Peak level 82.3 %
Extraction speed 1.4 X
Track quality 100.0 %
Test CRC 48456D59
Copy CRC 48456D59
Accurately ripped (confidence 8) [1D3902EE] (AR v2)
Copy OK

Track 10

Filename Y:\Various - The Complete Motown Singles Vol. 3 (1963) CD [FLAC]\Disc 12\10 - The Contours - It Must Be Love.wav

Pre-gap length 0:00:01.05

Peak level 85.8 %
Extraction speed 1.4 X
Track quality 100.0 %
Test CRC 54502B5E
Copy CRC 54502B5E
Accurately ripped (confidence 7) [6A68905F] (AR v2)
Copy OK

Track 11

Filename Y:\Various - The Complete Motown Singles Vol. 3 (1963) CD [FLAC]\Disc 12\11 - Conny van Dyke - Oh Freddy.wav

Pre-gap length 0:00:01.41

Peak level 95.6 %
Extraction speed 1.4 X
Track quality 100.0 %
Test CRC 273EF844
Copy CRC 273EF844
Accurately ripped (confidence 7) [C3C65B28] (AR v2)
Copy OK

Track 12

Filename Y:\Various - The Complete Motown Singles Vol. 3 (1963) CD [FLAC]\Disc 12\12 - Conny van Dyke - It Hurt Me Too.wav

Pre-gap length 0:00:01.34

Peak level 77.3 %
Extraction speed 1.4 X
Track quality 100.0 %
Test CRC A061CB7D
Copy CRC A061CB7D
Accurately ripped (confidence 7) [3C1BFA01] (AR v2)
Copy OK

Track 13

Filename Y:\Various - The Complete Motown Singles Vol. 3 (1963) CD [FLAC]\Disc 12\13 - The Miracles - A Love She Can Count On.wav

Pre-gap length 0:00:01.12

Peak level 81.9 %
Extraction speed 1.4 X
Track quality 100.0 %
Test CRC DCA2F01E
Copy CRC DCA2F01E
Accurately ripped (confidence 8) [F15D76D2] (AR v2)
Copy OK

Track 14

Filename Y:\Various - The Complete Motown Singles Vol. 3 (1963) CD [FLAC]\Disc 12\14 - The Miracles - I Can Take a Hint.wav

Pre-gap length 0:00:01.21

Peak level 81.2 %
Extraction speed 1.3 X
Track quality 99.9 %
Test CRC E3B2E65C
Copy CRC E3B2E65C
Accurately ripped (confidence 7) [DA47A63D] (AR v2)
Copy OK

Track 15

Filename Y:\Various - The Complete Motown Singles Vol. 3 (1963) CD [FLAC]\Disc 12\15 - The Temptations - I Want a Love I Can See.wav

Pre-gap length 0:00:01.05

Peak level 78.5 %
Extraction speed 1.6 X
Track quality 100.0 %
Test CRC 2D15EC22
Copy CRC 2D15EC22
Accurately ripped (confidence 7) [D8C0A3F0] (AR v2)
Copy OK

Track 16

Filename Y:\Various - The Complete Motown Singles Vol. 3 (1963) CD [FLAC]\Disc 12\16 - The Temptations - The Further You Look, the Less You See.wav

Pre-gap length 0:00:01.09

Peak level 80.9 %
Extraction speed 1.6 X
Track quality 100.0 %
Test CRC F91B95D4
Copy CRC F91B95D4
Accurately ripped (confidence 7) [EB14EB27] (AR v2)
Copy OK

Track 17

Filename Y:\Various - The Complete Motown Singles Vol. 3 (1963) CD [FLAC]\Disc 12\17 - Marvin Gaye - Pride and Joy.wav

Pre-gap length 0:00:01.05

Peak level 93.5 %
Extraction speed 1.3 X
Track quality 99.9 %
Test CRC B66D9930
Copy CRC B66D9930
Accurately ripped (confidence 8) [9A683A18] (AR v2)
Copy OK

Track 18

Filename Y:\Various - The Complete Motown Singles Vol. 3 (1963) CD [FLAC]\Disc 12\18 - Marvin Gaye - One of These Days.wav

Pre-gap length 0:00:01.14

Peak level 90.1 %
Extraction speed 1.5 X
Track quality 100.0 %
Test CRC C752EC43
Copy CRC C752EC43
Accurately ripped (confidence 7) [CF0CAFE4] (AR v2)
Copy OK

Track 19

Filename Y:\Various - The Complete Motown Singles Vol. 3 (1963) CD [FLAC]\Disc 12\19 - Mary Wells - Your Old Stand By.wav

Pre-gap length 0:00:01.24

Peak level 91.4 %
Extraction speed 1.6 X
Track quality 100.0 %
Test CRC 1902D4C7
Copy CRC 1902D4C7
Accurately ripped (confidence 8) [090AF8A8] (AR v2)
Copy OK

Track 20

Filename Y:\Various - The Complete Motown Singles Vol. 3 (1963) CD [FLAC]\Disc 12\20 - Mary Wells - What Love Has Joined Together.wav

Pre-gap length 0:00:01.18

Peak level 86.5 %
Extraction speed 1.6 X
Track quality 100.0 %
Test CRC A9B5F3F3
Copy CRC A9B5F3F3
Accurately ripped (confidence 7) [E9A91197] (AR v2)
Copy OK

Track 21

Filename Y:\Various - The Complete Motown Singles Vol. 3 (1963) CD [FLAC]\Disc 12\21 - Edward Holland, Jr. - Baby Shake.wav

Pre-gap length 0:00:01.16

Peak level 85.2 %
Extraction speed 1.5 X
Track quality 99.9 %
Test CRC D3503FC6
Copy CRC D3503FC6
Accurately ripped (confidence 8) [8DA38898] (AR v2)
Copy OK

Track 22

Filename Y:\Various - The Complete Motown Singles Vol. 3 (1963) CD [FLAC]\Disc 12\22 - Edward Holland, Jr. - Brenda.wav

Pre-gap length 0:00:01.06

Peak level 84.0 %
Extraction speed 1.5 X
Track quality 99.9 %
Test CRC DCD2E5DD
Copy CRC DCD2E5DD
Accurately ripped (confidence 8) [C22A6372] (AR v2)
Copy OK

Track 23

Filename Y:\Various - The Complete Motown Singles Vol. 3 (1963) CD [FLAC]\Disc 12\23 - The Marvelettes - Locking Up My Heart (second pressing).wav

Pre-gap length 0:00:01.24

Peak level 97.8 %
Extraction speed 1.5 X
Track quality 99.9 %
Test CRC 7684629F
Copy CRC 7684629F
Accurately ripped (confidence 8) [9B03968D] (AR v2)
Copy OK

Track 24

Filename Y:\Various - The Complete Motown Singles Vol. 3 (1963) CD [FLAC]\Disc 12\24 - Billy Merritt - Why Go Out of Your Way.wav

Pre-gap length 0:00:01.08

Peak level 98.6 %
Extraction speed 1.7 X
Track quality 100.0 %
Test CRC 526F735E
Copy CRC 526F735E
Accurately ripped (confidence 6) [02A4FFBA] (AR v2)
Copy OK

Track 25

Filename Y:\Various - The Complete Motown Singles Vol. 3 (1963) CD [FLAC]\Disc 12\25 - Billy Merritt - I'll Go Anywhere.wav

Pre-gap length 0:00:01.05

Peak level 98.7 %
Extraction speed 1.6 X
Track quality 99.9 %
Test CRC C1C911A0
Copy CRC C1C911A0
Accurately ripped (confidence 7) [322BFECF] (AR v2)
Copy OK

All tracks accurately ripped

No errors occurred

End of status report

–– CUETools DB Plugin V2.1.6

[CTDB TOCID: tIXOHte8GeNEq1u35MYbrgCQHXs-] found
Submit result: already submitted
Track | CTDB Status
1 | (25/25) Accurately ripped
2 | (25/25) Accurately ripped
3 | (25/25) Accurately ripped
4 | (25/25) Accurately ripped
5 | (25/25) Accurately ripped
6 | (25/25) Accurately ripped
7 | (25/25) Accurately ripped
8 | (25/25) Accurately ripped
9 | (25/25) Accurately ripped
10 | (25/25) Accurately ripped
11 | (25/25) Accurately ripped
12 | (25/25) Accurately ripped
13 | (25/25) Accurately ripped
14 | (25/25) Accurately ripped
15 | (25/25) Accurately ripped
16 | (25/25) Accurately ripped
17 | (25/25) Accurately ripped
18 | (25/25) Accurately ripped
19 | (25/25) Accurately ripped
20 | (25/25) Accurately ripped
21 | (25/25) Accurately ripped
22 | (25/25) Accurately ripped
23 | (25/25) Accurately ripped
24 | (25/25) Accurately ripped
25 | (24/25) Accurately ripped

==== Log checksum 3E95B4920443876C8C8C7DE0A967F060A9CA819A2261FFE03C0DEB11EEF6A1E8 ====