Subcategories
Tags
Language
Tags

V.A. - Warp20 (Chosen) (2009) [Japanese Edition]

Posted By: gribovar
V.A. - Warp20 (Chosen) (2009) [Japanese Edition]

V.A. - Warp20 (Chosen) (2009) [Japanese Edition]
EAC Rip | FLAC (tracks+.cue+log) - 894 MB | MP3 CBR 320 kbps (LAME 3.93) - 322 MB | Covers - 104 MB
Genre: IDM, Techno, Ambient | RAR 3% Rec. | Label: Beat Records (BRC-241)

Warp20 (Chosen) placed the track selection process in the hands of fans, who voted online with the option to add messages like "This song makes you feel like a proud parent, à la John Hurt in the movie Alien," as reprinted throughout the booklet. The ten tracks (+ bonus track for Japan) that received the most votes make up the first disc. After track five, the disc makes a swift transition from covering exemplary material (Aphex Twin's bent lounge-porn single "Windowlicker," Boards of Canada's eerie yet blissful "Roygbiv"), to looking more like a sampler of recent releases (from Plaid's "Eyen" to Clark's "Herzog," all 2001-2006 territory). The 14 tracks on the second disc were picked by label co-founder Steve Beckett. Unsurprisingly, it's more successful at showcasing the breadth of the Warp catalog, touching upon all the eras while bouncing between the well-known and unjustly neglected. Even if you've been aware of Warp's developments from the beginning, it's astonishing to see its history documented in a fashion that juxtaposes Sheffield bleep at its most thrilling (Nightmares on Wax's "I'm for Real"), acid techno at its most rigid (Mike Ink's "Paroles"), IDM at its most affecting (Autechre's "Drane"), and even progressive rock at its most dazzling (Battles' "Race: Out").
CD 1 Tracklist:
01. Aphex Twin - Windowlicker
02. Boards Of Canada - Roygbiv
03. Squarepusher - My Red Hot Car
04. Battles - Atlas
05. LFO - LFO (Leeds Warehouse Mix)
06. Plaid - Eyen
07. Luke Vibert - I Love Acid
08. Autechre - Gantz Graf
09. Jimmy Edgar - I Wanna Be Your STD
10. Clark - Herzog
11. !!! - Me And Giuliani Down By The School Yard (A True Story) (Bonus track)

Total time: 56:40

CD 2 Tracklist:
01. Broadcast - Tender Buttons
02. Grizzly Bear - Colorado
03. Squarepusher - My Sound
04. Boards Of Canada - Amo Bishop Roden
06. Flying Lotus - GNG BNG
07. Xeper (Black Dog Productions) - Carceres Ex Novum
08. Nightmares On Wax - I'm For Real
09. Mike Ink - Paroles (Original)
10. Aphex Twin - Bucephalus Bouncing Ball
11. Jamie Lidell - Daddy's Car
13. Seefeel - Spangle
14. Autechre - Drane

Total time: 01:19:54

Exact Audio Copy V1.3 from 2. September 2016

EAC extraction logfile from 26. December 2016, 1:41

Various Artists / Warp20 (Chosen) [Disc 1]

Used drive : PLEXTOR DVDR PX-891SAW Adapter: 1 ID: 0

Read mode : Secure
Utilize accurate stream : Yes
Defeat audio cache : Yes
Make use of C2 pointers : No

Read offset correction : 48
Overread into Lead-In and Lead-Out : No
Fill up missing offset samples with silence : Yes
Delete leading and trailing silent blocks : No
Null samples used in CRC calculations : Yes
Used interface : Native Win32 interface for Win NT & 2000
Gap handling : Appended to previous track

Used output format : User Defined Encoder
Selected bitrate : 1024 kBit/s
Quality : High
Add ID3 tag : No
Command line compressor : C:\Program Files (x86)\Exact Audio Copy\Flac\flac.exe
Additional command line options : -8 -V -T "ARTIST=%artist%" -T "TITLE=%title%" -T "ALBUM=%albumtitle%" -T "DATE=%year%" -T "TRACKNUMBER=%tracknr%" -T "GENRE=%genre%" -T "PERFORMER=%albuminterpret%" -T "COMPOSER=%composer%" %haslyrics%–tag-from-file=LYRICS="%lyricsfile%"%haslyrics% -T "ALBUMARTIST=%albumartist%" -T "DISCNUMBER=%cdnumber%" -T "TOTALDISCS=%totalcds%" -T "TOTALTRACKS=%numtracks%" -T "COMMENT=%comment%" %source% -o %dest%


TOC of the extracted CD

Track | Start | Length | Start sector | End sector
––––––––––––––––––––––––––––-
1 | 0:00.00 | 6:05.48 | 0 | 27422
2 | 6:05.48 | 2:29.06 | 27423 | 38603
3 | 8:34.54 | 4:31.43 | 38604 | 58971
4 | 13:06.22 | 7:06.24 | 58972 | 90945
5 | 20:12.46 | 5:18.66 | 90946 | 114861
6 | 25:31.37 | 4:20.73 | 114862 | 134434
7 | 29:52.35 | 4:17.66 | 134435 | 153775
8 | 34:10.26 | 3:53.55 | 153776 | 171305
9 | 38:04.06 | 5:05.51 | 171306 | 194231
10 | 43:09.57 | 4:26.60 | 194232 | 214241
11 | 47:36.42 | 9:03.14 | 214242 | 254980


Track 1

Filename D:\Rips\01 - Aphex Twin - Windowlicker.wav

Pre-gap length 0:00:02.00

Peak level 99.8 %
Extraction speed 4.8 X
Track quality 100.0 %
Test CRC 21C14C4B
Copy CRC 21C14C4B
Accurately ripped (confidence 2) [1F234B32] (AR v2)
Copy OK

Track 2

Filename D:\Rips\02 - Boards Of Canada - Roygbiv.wav

Pre-gap length 0:00:00.16

Peak level 98.5 %
Extraction speed 2.8 X
Track quality 99.9 %
Test CRC 239B93AC
Copy CRC 239B93AC
Accurately ripped (confidence 2) [57417251] (AR v2)
Copy OK

Track 3

Filename D:\Rips\03 - Squarepusher - My Red Hot Car.wav

Pre-gap length 0:00:00.05

Peak level 98.8 %
Extraction speed 4.0 X
Track quality 99.9 %
Test CRC 4E899AB3
Copy CRC 4E899AB3
Accurately ripped (confidence 2) [8EE73573] (AR v2)
Copy OK

Track 4

Filename D:\Rips\04 - Battles - Atlas.wav

Pre-gap length 0:00:00.48

Peak level 98.8 %
Extraction speed 6.4 X
Track quality 100.0 %
Test CRC 27A34F18
Copy CRC 27A34F18
Accurately ripped (confidence 2) [19C2380D] (AR v2)
Copy OK

Track 5

Filename D:\Rips\05 - LFO - LFO (Leeds Warehouse Mix).wav

Pre-gap length 0:00:00.41

Peak level 98.5 %
Extraction speed 6.8 X
Track quality 100.0 %
Test CRC BD3371BD
Copy CRC BD3371BD
Accurately ripped (confidence 2) [034BBE02] (AR v2)
Copy OK

Track 6

Filename D:\Rips\06 - Plaid - Eyen.wav

Pre-gap length 0:00:00.46

Peak level 98.5 %
Extraction speed 6.9 X
Track quality 100.0 %
Test CRC 3B25F6DD
Copy CRC 3B25F6DD
Accurately ripped (confidence 2) [C618164D] (AR v2)
Copy OK

Track 7

Filename D:\Rips\07 - Luke Vibert - I Love Acid.wav

Pre-gap length 0:00:00.88

Peak level 98.9 %
Extraction speed 7.3 X
Track quality 100.0 %
Test CRC 426BC920
Copy CRC 426BC920
Accurately ripped (confidence 2) [F27A10E6] (AR v2)
Copy OK

Track 8

Filename D:\Rips\08 - Autechre - Gantz Graf.wav

Pre-gap length 0:00:00.74

Peak level 100.0 %
Extraction speed 5.1 X
Track quality 99.9 %
Test CRC 92F07893
Copy CRC 92F07893
Accurately ripped (confidence 2) [E5DB3679] (AR v2)
Copy OK

Track 9

Filename D:\Rips\09 - Jimmy Edgar - I Wanna Be Your STD.wav

Pre-gap length 0:00:00.34

Peak level 95.5 %
Extraction speed 8.1 X
Track quality 100.0 %
Test CRC 691D5E8B
Copy CRC 691D5E8B
Accurately ripped (confidence 2) [3DD713C0] (AR v2)
Copy OK

Track 10

Filename D:\Rips\10 - Clark - Herzog.wav

Pre-gap length 0:00:00.54

Peak level 80.0 %
Extraction speed 8.2 X
Track quality 100.0 %
Test CRC D8877E66
Copy CRC D8877E66
Accurately ripped (confidence 2) [7D25D40D] (AR v2)
Copy OK

Track 11

Filename D:\Rips\11 - !!! - Me And Giuliani Down By The School Yard (A True Story).wav

Pre-gap length 0:00:01.00

Peak level 98.9 %
Extraction speed 7.5 X
Track quality 99.9 %
Test CRC 2C4EC5FE
Copy CRC 2C4EC5FE
Accurately ripped (confidence 2) [041FBFF6] (AR v2)
Copy OK


All tracks accurately ripped

No errors occurred

End of status report

–– CUETools DB Plugin V2.1.6

[CTDB TOCID: zq7Isp.H0Kx52NV_wThWHdmrRtU-] found
Submit result: zq7Isp.H0Kx52NV_wThWHdmrRtU- has been confirmed
Track | CTDB Status
1 | (6/6) Accurately ripped
2 | (6/6) Accurately ripped
3 | (6/6) Accurately ripped
4 | (6/6) Accurately ripped
5 | (6/6) Accurately ripped
6 | (6/6) Accurately ripped
7 | (6/6) Accurately ripped
8 | (6/6) Accurately ripped
9 | (6/6) Accurately ripped
10 | (6/6) Accurately ripped
11 | (6/6) Accurately ripped


==== Log checksum 1F184CCD14300237E6AFAEE2BAD986CC4DF2A779829A63C2D221A9DFA601E0CE ====

[CUETools log; Date: 20.06.2021 23:41:19; Version: 2.1.4]
[CTDB TOCID: zq7Isp.H0Kx52NV_wThWHdmrRtU-] found.
Track | CTDB Status
1 | (15/15) Accurately ripped
2 | (15/15) Accurately ripped
3 | (14/15) Accurately ripped
4 | (15/15) Accurately ripped
5 | (15/15) Accurately ripped
6 | (15/15) Accurately ripped
7 | (15/15) Accurately ripped
8 | (15/15) Accurately ripped
9 | (15/15) Accurately ripped
10 | (15/15) Accurately ripped
11 | (12/15) Accurately ripped
[AccurateRip ID: 00162ed3-00c09982-a10d470b] found.
Track [ CRC | V2 ] Status
01 [1cb8d3f7|1f234b32] (06+05/11) Accurately ripped
02 [62c446e3|57417251] (06+05/11) Accurately ripped
03 [9be2191d|8ee73573] (06+04/10) Accurately ripped
04 [44f87cf8|19c2380d] (06+05/11) Accurately ripped
05 [e256223a|034bbe02] (06+05/11) Accurately ripped
06 [245b9515|c618164d] (06+05/11) Accurately ripped
07 [8dd7e791|f27a10e6] (06+05/11) Accurately ripped
08 [b46d6a08|e5db3679] (06+05/11) Accurately ripped
09 [98dba740|3dd713c0] (06+05/11) Accurately ripped
10 [e7e12f4d|7d25d40d] (06+05/11) Accurately ripped
11 [d2ef8f48|041fbff6] (06+04/10) Accurately ripped

Track Peak [ CRC32 ] [W/O NULL] [ LOG ]
– 100,0 [93099C63] [6F3D91F1]
01 99,8 [21C14C4B] [DB7BD667] CRC32
02 98,5 [239B93AC] [F5C2597B] CRC32
03 98,8 [4E899AB3] [4DECCC43] CRC32
04 98,8 [27A34F18] [8A2A8178] CRC32
05 98,5 [BD3371BD] [888AF279] CRC32
06 98,5 [3B25F6DD] [BE7ABE13] CRC32
07 98,9 [426BC920] [DC101ACA] CRC32
08 100,0 [92F07893] [E8CD549D] CRC32
09 95,5 [691D5E8B] [11A567C1] CRC32
10 80,0 [D8877E66] [539E661A] CRC32
11 98,9 [2C4EC5FE] [7855EA96] CRC32

Exact Audio Copy V1.3 from 2. September 2016

EAC extraction logfile from 26. December 2016, 9:54

Various Artists / Warp20 (Chosen)

Used drive : PLEXTOR DVDR PX-891SAW Adapter: 1 ID: 0

Read mode : Secure
Utilize accurate stream : Yes
Defeat audio cache : Yes
Make use of C2 pointers : No

Read offset correction : 48
Overread into Lead-In and Lead-Out : No
Fill up missing offset samples with silence : Yes
Delete leading and trailing silent blocks : No
Null samples used in CRC calculations : Yes
Used interface : Native Win32 interface for Win NT & 2000
Gap handling : Appended to previous track

Used output format : User Defined Encoder
Selected bitrate : 1024 kBit/s
Quality : High
Add ID3 tag : No
Command line compressor : C:\Program Files (x86)\Exact Audio Copy\Flac\flac.exe
Additional command line options : -8 -V -T "ARTIST=%artist%" -T "TITLE=%title%" -T "ALBUM=%albumtitle%" -T "DATE=%year%" -T "TRACKNUMBER=%tracknr%" -T "GENRE=%genre%" -T "PERFORMER=%albuminterpret%" -T "COMPOSER=%composer%" %haslyrics%–tag-from-file=LYRICS="%lyricsfile%"%haslyrics% -T "ALBUMARTIST=%albumartist%" -T "DISCNUMBER=%cdnumber%" -T "TOTALDISCS=%totalcds%" -T "TOTALTRACKS=%numtracks%" -T "COMMENT=%comment%" %source% -o %dest%


TOC of the extracted CD

Track | Start | Length | Start sector | End sector
––––––––––––––––––––––––––––-
1 | 0:00.00 | 2:52.00 | 0 | 12899
2 | 2:52.00 | 6:11.23 | 12900 | 40747
3 | 9:03.23 | 6:07.53 | 40748 | 68325
4 | 15:11.01 | 6:13.06 | 68326 | 96306
5 | 21:24.07 | 3:26.67 | 96307 | 111823
6 | 24:50.74 | 3:40.65 | 111824 | 128388
7 | 28:31.64 | 6:44.52 | 128389 | 158740
8 | 35:16.41 | 5:20.63 | 158741 | 182803
9 | 40:37.29 | 5:33.59 | 182804 | 207837
10 | 46:11.13 | 5:45.08 | 207838 | 233720
11 | 51:56.21 | 4:06.10 | 233721 | 252180
12 | 56:02.31 | 5:42.48 | 252181 | 277878
13 | 61:45.04 | 7:18.00 | 277879 | 310728
14 | 69:03.04 | 10:50.70 | 310729 | 359548


Track 1

Filename D:\Rips\01 - Broadcast - Tender Buttons.wav

Pre-gap length 0:00:02.00

Peak level 98.4 %
Extraction speed 2.9 X
Track quality 99.9 %
Test CRC 6EDB52A6
Copy CRC 6EDB52A6
Accurately ripped (confidence 2) [4BE78CF0] (AR v2)
Copy OK

Track 2

Filename D:\Rips\02 - Grizzly Bear - Colorado.wav

Peak level 98.3 %
Extraction speed 5.9 X
Track quality 100.0 %
Test CRC 57F92FE0
Copy CRC 57F92FE0
Accurately ripped (confidence 2) [CB227F8F] (AR v2)
Copy OK

Track 3

Filename D:\Rips\03 - Squarepusher - My Sound.wav

Peak level 98.5 %
Extraction speed 6.5 X
Track quality 100.0 %
Test CRC 84493D1F
Copy CRC 84493D1F
Accurately ripped (confidence 2) [25E9321D] (AR v2)
Copy OK

Track 4

Filename D:\Rips\04 - Boards of Canada - Amo Bishop Roden.wav

Peak level 98.5 %
Extraction speed 7.0 X
Track quality 100.0 %
Test CRC CFD147CC
Copy CRC CFD147CC
Accurately ripped (confidence 2) [4C365C52] (AR v2)
Copy OK

Track 5

Filename D:\Rips\05 - Battles - Race - Out.wav

Peak level 98.9 %
Extraction speed 6.9 X
Track quality 100.0 %
Test CRC 0C8FBB82
Copy CRC 0C8FBB82
Accurately ripped (confidence 2) [312D741D] (AR v2)
Copy OK

Track 6

Filename D:\Rips\06 - Flying Lotus - GNG BNG.wav

Peak level 99.5 %
Extraction speed 7.4 X
Track quality 100.0 %
Test CRC 09F64C6A
Copy CRC 09F64C6A
Accurately ripped (confidence 2) [2AA993D2] (AR v2)
Copy OK

Track 7

Filename D:\Rips\07 - Xeper - Carceres Ex Novum.wav

Peak level 98.5 %
Extraction speed 6.4 X
Track quality 99.9 %
Test CRC A3CFFCC3
Copy CRC A3CFFCC3
Accurately ripped (confidence 2) [A16681D9] (AR v2)
Copy OK

Track 8

Filename D:\Rips\08 - Nightmares on Wax - I'm for Real.wav

Peak level 97.6 %
Extraction speed 8.5 X
Track quality 100.0 %
Test CRC 8FCFC913
Copy CRC 8FCFC913
Accurately ripped (confidence 2) [F8294CA9] (AR v2)
Copy OK

Track 9

Filename D:\Rips\09 - Mike Ink - Paroles.wav

Peak level 96.1 %
Extraction speed 9.0 X
Track quality 100.0 %
Test CRC C03EAE2D
Copy CRC C03EAE2D
Accurately ripped (confidence 2) [5764C9BA] (AR v2)
Copy OK

Track 10

Filename D:\Rips\10 - Aphex Twin - Bucephalus Bouncing Ball.wav

Peak level 98.4 %
Extraction speed 9.3 X
Track quality 100.0 %
Test CRC 88AA260A
Copy CRC 88AA260A
Accurately ripped (confidence 2) [D87F121F] (AR v2)
Copy OK

Track 11

Filename D:\Rips\11 - Jamie Lidell - Daddy's Car.wav

Peak level 98.7 %
Extraction speed 9.3 X
Track quality 100.0 %
Test CRC 0A9E7905
Copy CRC 0A9E7905
Accurately ripped (confidence 2) [98E25994] (AR v2)
Copy OK

Track 12

Filename D:\Rips\12 - Squarepusher & AFX - Freeman Hardy & Willis Acid.wav

Peak level 98.7 %
Extraction speed 7.3 X
Track quality 99.9 %
Test CRC BF56654D
Copy CRC BF56654D
Accurately ripped (confidence 2) [B09DEC42] (AR v2)
Copy OK

Track 13

Filename D:\Rips\13 - Seefeel - Spangle.wav

Peak level 97.3 %
Extraction speed 10.6 X
Track quality 100.0 %
Test CRC C2590661
Copy CRC C2590661
Accurately ripped (confidence 2) [6390788E] (AR v2)
Copy OK

Track 14

Filename D:\Rips\14 - Autechre - Drane.wav

Peak level 98.9 %
Extraction speed 10.7 X
Track quality 100.0 %
Test CRC 66424FF7
Copy CRC 66424FF7
Accurately ripped (confidence 2) [1ABD31E5] (AR v2)
Copy OK


All tracks accurately ripped

No errors occurred

End of status report

–– CUETools DB Plugin V2.1.6

[CTDB TOCID: d9Hshs4hDZn2oP_GOYUwx.oTeaA-] found
Submit result: d9Hshs4hDZn2oP_GOYUwx.oTeaA- has been confirmed
Track | CTDB Status
1 | (29/29) Accurately ripped
2 | (29/29) Accurately ripped
3 | (29/29) Accurately ripped
4 | (29/29) Accurately ripped
5 | (29/29) Accurately ripped
6 | (29/29) Accurately ripped
7 | (29/29) Accurately ripped
8 | (29/29) Accurately ripped
9 | (29/29) Accurately ripped
10 | (29/29) Accurately ripped
11 | (29/29) Accurately ripped
12 | (29/29) Accurately ripped
13 | (29/29) Accurately ripped
14 | (29/29) Accurately ripped


==== Log checksum CFF32B45354C8B517DF61609359B039E7A1465BE69AB126E9A156CAEB2D1568E ====

[CUETools log; Date: 20.06.2021 23:42:08; Version: 2.1.4]
[CTDB TOCID: d9Hshs4hDZn2oP_GOYUwx.oTeaA-] found.
Track | CTDB Status
1 | (69/69) Accurately ripped
2 | (69/69) Accurately ripped
3 | (69/69) Accurately ripped
4 | (69/69) Accurately ripped
5 | (69/69) Accurately ripped
6 | (69/69) Accurately ripped
7 | (68/69) Accurately ripped
8 | (69/69) Accurately ripped
9 | (68/69) Accurately ripped
10 | (67/69) Accurately ripped
11 | (68/69) Accurately ripped
12 | (68/69) Accurately ripped
13 | (68/69) Accurately ripped
14 | (68/69) Accurately ripped
[AccurateRip ID: 002542d0-01931f7a-c312b90e] found.
Track [ CRC | V2 ] Status
01 [6f1cd48c|4be78cf0] (04+05/63) Accurately ripped
02 [95ec8d92|cb227f8f] (04+05/62) Accurately ripped
03 [2622eb54|25e9321d] (04+05/62) Accurately ripped
04 [1a223869|4c365c52] (04+05/62) Accurately ripped
05 [e223cf37|312d741d] (04+05/62) Accurately ripped
06 [0f1ca120|2aa993d2] (04+05/62) Accurately ripped
07 [0f29a151|a16681d9] (04+05/62) Accurately ripped
08 [108b4dc6|f8294ca9] (04+05/61) Accurately ripped
09 [1abb7fd1|5764c9ba] (04+05/62) Accurately ripped
10 [d4873626|d87f121f] (04+05/62) Accurately ripped
11 [00d39b19|98e25994] (04+05/62) Accurately ripped
12 [15d3c9b3|b09dec42] (04+05/62) Accurately ripped
13 [cf56b8cf|6390788e] (04+05/62) Accurately ripped
14 [8fcec15f|1abd31e5] (04+04/60) Accurately ripped
Offsetted by -612:
01 [d3ff3eca] (17/63) Accurately ripped
02 [c1332d77] (17/62) Accurately ripped
03 [3fe79afd] (17/62) Accurately ripped
04 [b72434cb] (17/62) Accurately ripped
05 [7f44f796] (17/62) Accurately ripped
06 [0e1251a6] (17/62) Accurately ripped
07 [0ed97585] (17/62) Accurately ripped
08 [29077b87] (16/61) Accurately ripped
09 [40a584a2] (17/62) Accurately ripped
10 [f8a03b66] (17/62) Accurately ripped
11 [5d08bcc0] (17/62) Accurately ripped
12 [c940f503] (17/62) Accurately ripped
13 [6f172b57] (17/62) Accurately ripped
14 [6eefc3ed] (16/60) Accurately ripped
Offsetted by -594:
01 [305345be] (14/63) Accurately ripped
02 [6f4e3660] (14/62) Accurately ripped
03 [f95f3a9f] (14/62) Accurately ripped
04 [6ace499a] (14/62) Accurately ripped
05 [2535b598] (14/62) Accurately ripped
06 [493d5f74] (14/62) Accurately ripped
07 [4ba0ab54] (14/62) Accurately ripped
08 [c412c95a] (14/61) Accurately ripped
09 [0b5fa78e] (14/62) Accurately ripped
10 [4cbb659c] (14/62) Accurately ripped
11 [c20fb230] (14/62) Accurately ripped
12 [a2ec1acc] (14/62) Accurately ripped
13 [9b8ac673] (14/62) Accurately ripped
14 [8f28522e] (14/60) Accurately ripped

Track Peak [ CRC32 ] [W/O NULL] [ LOG ]
– 99,5 [BE749314] [7F7021D3]
01 98,4 [6EDB52A6] [620F7EA4] CRC32
02 98,3 [57F92FE0] [60EFD1AC] CRC32
03 98,5 [84493D1F] [3378E058] CRC32
04 98,5 [CFD147CC] [8ECF6D45] CRC32
05 98,9 [0C8FBB82] [57EDD7AC] CRC32
06 99,5 [09F64C6A] [7AD5C46A] CRC32
07 98,5 [A3CFFCC3] [4575C13E] CRC32
08 97,6 [8FCFC913] [C5537E44] CRC32
09 96,1 [C03EAE2D] [E763DB70] CRC32
10 98,4 [88AA260A] [D798EC07] CRC32
11 98,7 [0A9E7905] [5AB0F935] CRC32
12 98,7 [BF56654D] [3714DDD8] CRC32
13 97,3 [C2590661] [A1FE8E11] CRC32
14 98,9 [66424FF7] [6D46D988] CRC32

Thanks to thezabs