Tags
Language
Tags

Véronique Gens, Hervé Niquet, Münchner Rundfunkorchester - Visions (2017)

Posted By: ArlegZ
Véronique Gens, Hervé Niquet, Münchner Rundfunkorchester - Visions (2017)

Véronique Gens, Hervé Niquet, Münchner Rundfunkorchester - Visions (2017)
EAC | FLAC | Image (Cue & Log) ~ 222 Mb | Total time: 55:43 | Scans included
Classical | Label: Alpha Classics | # ALPHA 279 | Recorded: 2017

After an album of French songs (Néère, Alpha 215) that earned her a Gramophone Award in 2016, Véronique Gens presents her new recital, this time with orchestra, which gives her an opportunity to display the maturity of her ‘Falcon’ soprano, the central tessitura typical of French Romantic opera, which takes its name from Cornélie Falcon, who created the works of Meyerbeer and Halévy staged in the 1830s.
She pays tribute here to a number of composers whose unknown operas she was the first to reveal in projects mounted by the Palazzetto Bru Zane (which also coproduced the present recording), including David, Godard, Saint-Saëns and Halévy. The programme selects arias from all the genres in vogue in the Romantic era: opera (Saint-Saëns, Halévy, Godard, Février), opéra-comique (David), oratorio (Franck, Massenet) and the cantata for the Prix de Rome (Bizet, Bruneau). A nod to Wagner and his Tannhäuser – in its French translation of the 1860s – completes this programme conducted by a longstanding colleague of the soprano, one of the leading specialists in French music, Hervé Niquet.

Performer:
Véronique Gens, soprano
Münchner Rundfunkorchester
Hervé Niquet, conductor

Track List:
Alfred Bruneau (1857-1934)
01. Geneviève: Introduction, Récitatif et Air de Geneviève "Seigneur! Est-ce bien moi que vous avez choisie?"
César Franck (1822-1890)
02. Les Béatitudes: Mater Dolorosa "Moi, du sauveur, je suis la mère"
Louis Niedermeyer (1802-1861)
03. Stradella: Récit et Air de Léonor "Ah!… Quel songe affreux!"
Benjamin Godard (1849-1895)
04. Les Guelfes, Op. 70: Prélude et Air de Jeanne "Là-bas, vers le palais"
Félicien David (1810-1876)
05. Lalla-Roukh: Air de Lalla-Roukh "Sous le feuillage sombre"
Henry Février (1875-1957)
06. Gismonda: Air d Gismonda "Dit-elle vrai?"
Camille Saint-Saëns (1835-1921)
07. Etienne Marcel: Récit et Air de Béatrix "Ah! Laissez-moi, ma mère!"
Jules Massenet (1842-1912)
08. La Vierge: Le dernier sommeil de la Vierge
09. La Vierge: "Rêve infini, divine extase"
Fromental Halévy (1799-1862)
10. La Magicienne: Récit et Air de Blanche "Ce sentier nous conduit vers le couvent voisin"
Georges Bizet (1838-1875)
11. Clovis et Clotilde: Prière de Clotilde "Prière, ô doux souffle de l’ange!"
César Franck (1822-1890)
12. Rédemption: Air de l'Archange "Le flot se lève"


Exact Audio Copy V1.3 from 2. September 2016

EAC extraction logfile from 2. October 2019, 20:25

Münchner Rundfunkorchester, Hervé Niquet & Véronique Gens / Visions

Used drive : MATSHITADVD-RAM UJ8G6 Adapter: 1 ID: 0

Read mode : Secure
Utilize accurate stream : Yes
Defeat audio cache : Yes
Make use of C2 pointers : No

Read offset correction : 103
Overread into Lead-In and Lead-Out : No
Fill up missing offset samples with silence : Yes
Delete leading and trailing silent blocks : No
Null samples used in CRC calculations : Yes
Used interface : Native Win32 interface for Win NT & 2000

Used output format : User Defined Encoder
Selected bitrate : 1024 kBit/s
Quality : High
Add ID3 tag : No
Command line compressor : C:\Program Files (x86)\Exact Audio Copy\FLAC\FLAC.EXE
Additional command line options : -6 -V -T "ARTIST=%artist%" -T "TITLE=%title%" -T "ALBUM=%albumtitle%" -T "DATE=%year%" -T "TRACKNUMBER=%tracknr%" -T "GENRE=%genre%" -T "COMMENT=%comment%" -T "BAND=%albuminterpret%" -T "ALBUMARTIST=%albuminterpret%" -T "COMPOSER=%composer%" %haslyrics%–tag-from-file=LYRICS="%lyricsfile%"%haslyrics% -T "DISCNUMBER=%cdnumber%" -T "TOTALDISCS=%totalcds%" -T "TOTALTRACKS=%numtracks%" %hascover%–picture="%coverfile%"%hascover% %source% -o %dest%


TOC of the extracted CD

Track | Start | Length | Start sector | End sector
––––––––––––––––––––––––––––-
1 | 0:00.00 | 6:28.13 | 0 | 29112
2 | 6:28.13 | 3:19.45 | 29113 | 44082
3 | 9:47.58 | 5:46.06 | 44083 | 70038
4 | 15:33.64 | 8:11.61 | 70039 | 106924
5 | 23:45.50 | 2:59.34 | 106925 | 120383
6 | 26:45.09 | 4:45.70 | 120384 | 141828
7 | 31:31.04 | 5:03.60 | 141829 | 164613
8 | 36:34.64 | 2:54.73 | 164614 | 177736
9 | 39:29.62 | 5:02.66 | 177737 | 200452
10 | 44:32.53 | 5:35.16 | 200453 | 225593
11 | 50:07.69 | 2:16.01 | 225594 | 235794
12 | 52:23.70 | 3:17.13 | 235795 | 250582


Range status and errors

Selected range

Filename F:\RAT\0 - Attente UP\Münchner Rundfunkorchester, Hervé Niquet & Véronique Gens - Visions.wav

Peak level 98.8 %
Extraction speed 2.4 X
Range quality 99.9 %
Test CRC 712865EC
Copy CRC 712865EC
Copy OK

No errors occurred


AccurateRip summary

Track 1 accurately ripped (confidence 11) [F7B91B2F] (AR v2)
Track 2 accurately ripped (confidence 11) [D3D81ECD] (AR v2)
Track 3 accurately ripped (confidence 11) [F56AEA01] (AR v2)
Track 4 accurately ripped (confidence 11) [60849F36] (AR v2)
Track 5 accurately ripped (confidence 11) [98E9C1F3] (AR v2)
Track 6 accurately ripped (confidence 11) [A5B9C2D7] (AR v2)
Track 7 accurately ripped (confidence 11) [94E31DD3] (AR v2)
Track 8 accurately ripped (confidence 11) [E91CAE27] (AR v2)
Track 9 accurately ripped (confidence 11) [D39FABDE] (AR v2)
Track 10 accurately ripped (confidence 11) [3DF849F6] (AR v2)
Track 11 accurately ripped (confidence 11) [C642E32C] (AR v2)
Track 12 accurately ripped (confidence 11) [34AB8BFE] (AR v2)

All tracks accurately ripped

End of status report

–– CUETools DB Plugin V2.1.6

[CTDB TOCID: 2_fCJjiUvZEFi3JYRJ5FGYB1mjA-] found
Submit result: 2_fCJjiUvZEFi3JYRJ5FGYB1mjA- has been confirmed
Track | CTDB Status
1 | (26/26) Accurately ripped
2 | (26/26) Accurately ripped
3 | (26/26) Accurately ripped
4 | (26/26) Accurately ripped
5 | (26/26) Accurately ripped
6 | (26/26) Accurately ripped
7 | (26/26) Accurately ripped
8 | (26/26) Accurately ripped
9 | (26/26) Accurately ripped
10 | (26/26) Accurately ripped
11 | (26/26) Accurately ripped
12 | (26/26) Accurately ripped


==== Log checksum 9FF7AA2156526B6A747BB91A7648C6B731A79D4B84AEC6B60BF215C0EA26E63C ====

Véronique Gens, Hervé Niquet, Münchner Rundfunkorchester - Visions (2017)

Thanks to the original releaser