Subcategories
Tags
Language
Tags

Vespero - 9 Studio Albums (2007-2018) (Re-up)

Posted By: gribovar
Vespero - 9 Studio Albums (2007-2018) (Re-up)

Vespero - 9 Studio Albums (2007-2018)
EAC Rip | WavPack (image+.cue+log) - 4,56 GB | MP3 CBR 320 kbps (LAME 3.93) - 1,57 GB | Covers - 782 MB
Genre: Progressive/Psychedelic/Space Rock | RAR 3% Rec. | Label: RAIG, VMS, Tonzonen

Vespero got together as a quartet (Arkady Fedotov - vocals, bass, flute, synths; Valentin Rulev - violin, synths; Ivan Fedotov - drums, percussion; Alexander Kuzovlev - guitar, bass, synths) in Astrakhan (south of Russia) 2003 on the common interest in playing psychedelic music. Later Natalya Tjurina (vocals) joined, and the band moved into more progressive rock-related areas. As their Moscow fellows Kaftan Smekha, Vespero are deeply influenced by avant theatre and experimental poetry. Since the very first demos their sound has been influenced by Gong, early Pink Floyd, Faust and related bands from that era. Highly recommended for all fans of these (and beyond!).

Vespero - 9 Studio Albums (2007-2018) (Re-up)

Vespero - Rito (2007)
EAC Rip | WavPack (image+.cue+log) - 381 MB | MP3 CBR 320 kbps (LAME 3.93) - 154 MB | Covers - 117 MB
Genre: Progressive/Psychedelic/Space Rock | RAR 3% Rec. | Label: RAIG (R024)

Tracklist:
01. Inverno
02. Triptych: to the Falling Sun
03. Rito
04. Inna's Burst in Tears
05. Crabs Ashore
06. Skat
07. Silence Breath Echo
08. Ambience in Blue / Altarage to the Thunder

Total time: 01:05:36

Exact Audio Copy V1.0 beta 3 from 29. August 2011

EAC extraction logfile from 13. June 2014, 12:07

Vespero / Rito

Used drive : MATSHITADVD-RAM UJ-860H Adapter: 2 ID: 0

Read mode : Secure
Utilize accurate stream : Yes
Defeat audio cache : Yes
Make use of C2 pointers : No

Read offset correction : 102
Overread into Lead-In and Lead-Out : No
Fill up missing offset samples with silence : Yes
Delete leading and trailing silent blocks : No
Null samples used in CRC calculations : Yes
Used interface : Native Win32 interface for Win NT & 2000

Used output format : User Defined Encoder
Selected bitrate : 768 kBit/s
Quality : High
Add ID3 tag : No
Command line compressor : C:\Program Files (x86)\Exact Audio Copy\FLAC\wavpack.exe
Additional command line options : -hm -w "Year=%year%" -w "Genre=%genre%" %source% %dest%


TOC of the extracted CD

Track | Start | Length | Start sector | End sector
––––––––––––––––––––––––––––-
1 | 0:00.00 | 4:19.35 | 0 | 19459
2 | 4:19.35 | 10:07.25 | 19460 | 65009
3 | 14:26.60 | 9:44.34 | 65010 | 108843
4 | 24:11.19 | 7:58.04 | 108844 | 144697
5 | 32:09.23 | 7:09.62 | 144698 | 176934
6 | 39:19.10 | 4:23.63 | 176935 | 196722
7 | 43:42.73 | 8:41.36 | 196723 | 235833
8 | 52:24.34 | 13:11.57 | 235834 | 295215


Range status and errors

Selected range

Filename C:\_NL+\CD22\Vespero - Rito.wav

Peak level 96.6 %
Extraction speed 2.6 X
Range quality 99.9 %
Test CRC F556104C
Copy CRC F556104C
Copy OK

No errors occurred


AccurateRip summary

Track 1 accurately ripped (confidence 2) [A7A45C8D] (AR v2)
Track 2 accurately ripped (confidence 2) [737EEA1C] (AR v2)
Track 3 accurately ripped (confidence 2) [2ECEB437] (AR v2)
Track 4 accurately ripped (confidence 2) [4297ECED] (AR v2)
Track 5 accurately ripped (confidence 2) [9889BF34] (AR v2)
Track 6 accurately ripped (confidence 2) [68AB21EB] (AR v2)
Track 7 accurately ripped (confidence 2) [FFAF2424] (AR v2)
Track 8 accurately ripped (confidence 2) [E11C706D] (AR v2)

All tracks accurately ripped

End of status report

==== Log checksum 8AB6E284B9F3B42E8F2CCD39C5F759EC018AA489EBDD540ACFACE233D872BF14 ====

[CUETools log; Date: 13.01.2021 19:30:46; Version: 2.1.4]
[CTDB TOCID: 10JU9Fhtl3dLa6FlGFNUaapiir4-] found.
Track | CTDB Status
1 | (7/7) Accurately ripped
2 | (7/7) Accurately ripped
3 | (7/7) Accurately ripped
4 | (7/7) Accurately ripped
5 | (7/7) Accurately ripped
6 | (7/7) Accurately ripped
7 | (7/7) Accurately ripped
8 | (7/7) Accurately ripped
[AccurateRip ID: 0012f660-007fcb40-640f6008] found.
Track [ CRC | V2 ] Status
01 [61b6394d|a7a45c8d] (0+3/3) Accurately ripped
02 [00b60a44|737eea1c] (0+3/3) Accurately ripped
03 [26b95107|2eceb437] (0+3/3) Accurately ripped
04 [3d7bbd99|4297eced] (0+3/3) Accurately ripped
05 [ec2a663e|9889bf34] (0+3/3) Accurately ripped
06 [e084c567|68ab21eb] (0+3/3) Accurately ripped
07 [3053a00b|ffaf2424] (0+3/3) Accurately ripped
08 [7b920a49|e11c706d] (0+3/3) Accurately ripped

Track Peak [ CRC32 ] [W/O NULL] [ LOG ]
– 96,6 [F556104C] [B6DCC7A9] CRC32
01 96,6 [978D326E] [7B011F18]
02 96,6 [06907BD6] [BD279179]
03 96,6 [894B2103] [7A347905]
04 96,6 [6E2513E2] [80899525]
05 96,6 [95BC8BB2] [8DA648F2]
06 96,6 [F9FF2AEA] [D84DC066]
07 96,6 [AAB5EE44] [E9C7C99C]
08 96,6 [F10324ED] [90FE8791]

Vespero - 9 Studio Albums (2007-2018) (Re-up)

Vespero - Surpassing All Kings (2009)
EAC Rip | WavPack (image+.cue+log) - 376 MB | MP3 CBR 320 kbps (LAME 3.93) - 129 MB | Covers - 132 MB
Genre: Progressive/Psychedelic/Space Rock | RAR 3% Rec. | Label: RAIG (R041)

Tracklist:
01. Glass Rainbow (A Sign)
02. Salma Simiere (Cross And Crown)
03. The Tower (XVI)
04. Lino (Similar They Speak)
05. Serata (i.n.s.i.e.m.e.)
06. Glide (Like A Swan)
07. Sever (Surpassing All Kings)

Total time: 55:00

Exact Audio Copy V1.0 beta 3 from 29. August 2011

EAC extraction logfile from 13. June 2014, 10:15

Vespero / Surpassing All Kings

Used drive : MATSHITADVD-RAM UJ-860H Adapter: 2 ID: 0

Read mode : Secure
Utilize accurate stream : Yes
Defeat audio cache : Yes
Make use of C2 pointers : No

Read offset correction : 102
Overread into Lead-In and Lead-Out : No
Fill up missing offset samples with silence : Yes
Delete leading and trailing silent blocks : No
Null samples used in CRC calculations : Yes
Used interface : Native Win32 interface for Win NT & 2000

Used output format : User Defined Encoder
Selected bitrate : 768 kBit/s
Quality : High
Add ID3 tag : No
Command line compressor : C:\Program Files (x86)\Exact Audio Copy\FLAC\wavpack.exe
Additional command line options : -hm -w "Year=%year%" -w "Genre=%genre%" %source% %dest%


TOC of the extracted CD

Track | Start | Length | Start sector | End sector
––––––––––––––––––––––––––––-
1 | 0:00.00 | 10:00.24 | 0 | 45023
2 | 10:00.24 | 6:51.07 | 45024 | 75855
3 | 16:51.31 | 8:05.18 | 75856 | 112248
4 | 24:56.49 | 6:06.70 | 112249 | 139768
5 | 31:03.44 | 10:26.28 | 139769 | 186746
6 | 41:29.72 | 6:35.34 | 186747 | 216405
7 | 48:05.31 | 6:54.22 | 216406 | 247477


Range status and errors

Selected range

Filename C:\_NL+\CD20\Vespero - Surpassing All Kings.wav

Peak level 97.7 %
Extraction speed 2.5 X
Range quality 100.0 %
Test CRC 2DFFF97B
Copy CRC 2DFFF97B
Copy OK

No errors occurred


AccurateRip summary

Track 1 accurately ripped (confidence 2) [C68FF3E0] (AR v2)
Track 2 accurately ripped (confidence 2) [D6666252] (AR v2)
Track 3 accurately ripped (confidence 2) [5D2AFCDB] (AR v2)
Track 4 accurately ripped (confidence 2) [31ABB2E6] (AR v2)
Track 5 accurately ripped (confidence 2) [E7AF108D] (AR v2)
Track 6 accurately ripped (confidence 2) [5BAADBA9] (AR v2)
Track 7 accurately ripped (confidence 2) [1AE52394] (AR v2)

All tracks accurately ripped

End of status report

==== Log checksum C359F4F363A32897AFBF456EAB2B476051D6C761F1422765FCF2DAD26F588620 ====

[CUETools log; Date: 13.01.2021 19:43:22; Version: 2.1.4]
[CTDB TOCID: sNIzMBc.GAJnCvvh8aPHKILETgk-] found.
Track | CTDB Status
1 | (4/4) Accurately ripped
2 | (4/4) Accurately ripped
3 | (4/4) Accurately ripped
4 | (4/4) Accurately ripped
5 | (4/4) Accurately ripped
6 | (4/4) Accurately ripped
7 | (4/4) Accurately ripped
[AccurateRip ID: 000f9e29-005cc85e-620ce307] found.
Track [ CRC | V2 ] Status
01 [80412110|c68ff3e0] (0+2/2) Accurately ripped
02 [cb490682|d6666252] (0+2/2) Accurately ripped
03 [08768c34|5d2afcdb] (0+2/2) Accurately ripped
04 [7acea4aa|31abb2e6] (0+2/2) Accurately ripped
05 [18ab8994|e7af108d] (0+2/2) Accurately ripped
06 [9186ba94|5baadba9] (0+2/2) Accurately ripped
07 [afda48f7|1ae52394] (0+2/2) Accurately ripped

Track Peak [ CRC32 ] [W/O NULL] [ LOG ]
– 97,7 [2DFFF97B] [61A4A6C8] CRC32
01 97,7 [59C8D283] [9B03763D]
02 97,7 [E32DD37B] [FA64409F]
03 97,7 [C6E32178] [6F7BAD21]
04 97,7 [4E097B36] [91E746DE]
05 97,7 [6FE76B13] [837A7CEC]
06 97,7 [65A8AF58] [42051B34]
07 97,7 [99B61224] [78F2A5E8]

Vespero - 9 Studio Albums (2007-2018) (Re-up)

Vespero - By The Waters Of Tomorrow (2010)
EAC Rip | WavPack (image+.cue+log) - 460 MB | MP3 CBR 320 kbps (LAME 3.93) - 149 MB | Covers - 130 MB
Genre: Progressive/Psychedelic/Space Rock | RAR 3% Rec. | Label: RAIG (R058)

Tracklist:
01. Daphne
02. Percious
03. Amaryllis
04. Gao Zult
05. Tall Tree
06. Punto Fijo
07. Pavane Lacryne
08. Seagulls Sing
09. Aurora Barealis

Total time: 01:03:13

Exact Audio Copy V1.0 beta 3 from 29. August 2011

EAC extraction logfile from 13. June 2014, 11:08

Vespero / By The Waters Of Tomorrow

Used drive : MATSHITADVD-RAM UJ-860H Adapter: 2 ID: 0

Read mode : Secure
Utilize accurate stream : Yes
Defeat audio cache : Yes
Make use of C2 pointers : No

Read offset correction : 102
Overread into Lead-In and Lead-Out : No
Fill up missing offset samples with silence : Yes
Delete leading and trailing silent blocks : No
Null samples used in CRC calculations : Yes
Used interface : Native Win32 interface for Win NT & 2000

Used output format : User Defined Encoder
Selected bitrate : 768 kBit/s
Quality : High
Add ID3 tag : No
Command line compressor : C:\Program Files (x86)\Exact Audio Copy\FLAC\wavpack.exe
Additional command line options : -hm -w "Year=%year%" -w "Genre=%genre%" %source% %dest%


TOC of the extracted CD

Track | Start | Length | Start sector | End sector
––––––––––––––––––––––––––––-
1 | 0:00.00 | 5:21.32 | 0 | 24106
2 | 5:21.32 | 8:32.20 | 24107 | 62526
3 | 13:53.52 | 7:28.34 | 62527 | 96160
4 | 21:22.11 | 5:50.36 | 96161 | 122446
5 | 27:12.47 | 7:31.25 | 122447 | 156296
6 | 34:43.72 | 8:02.64 | 156297 | 192510
7 | 42:46.61 | 4:23.43 | 192511 | 212278
8 | 47:10.29 | 6:47.02 | 212279 | 242805
9 | 53:57.31 | 9:15.71 | 242806 | 284501


Range status and errors

Selected range

Filename C:\_NL+\CD21\Vespero - By The Waters Of Tomorrow.wav

Peak level 97.7 %
Extraction speed 2.6 X
Range quality 100.0 %
Test CRC BC10CBAF
Copy CRC BC10CBAF
Copy OK

No errors occurred


AccurateRip summary

Track 1 accurately ripped (confidence 1) [99F1BDFA] (AR v2)
Track 2 accurately ripped (confidence 1) [8A7ABFB5] (AR v2)
Track 3 accurately ripped (confidence 1) [293B59C8] (AR v2)
Track 4 accurately ripped (confidence 1) [3B3B59EE] (AR v2)
Track 5 accurately ripped (confidence 1) [F1ACA2B0] (AR v2)
Track 6 accurately ripped (confidence 1) [D3268350] (AR v2)
Track 7 accurately ripped (confidence 1) [1CB9D2CC] (AR v2)
Track 8 accurately ripped (confidence 1) [E63FD392] (AR v2)
Track 9 accurately ripped (confidence 1) [B3C0555A] (AR v2)

All tracks accurately ripped

End of status report

==== Log checksum FD9B2EAEEC0EE7119B11BD763D13BA3FE48B0240156429ABA8B25C5BF61FA39E ====

[CUETools log; Date: 13.01.2021 19:31:29; Version: 2.1.4]
[CTDB TOCID: oMw5z6rGAkVdS7l7w2B58tDThBg-] found.
Track | CTDB Status
1 | (5/5) Accurately ripped
2 | (5/5) Accurately ripped
3 | (5/5) Accurately ripped
4 | (5/5) Accurately ripped
5 | (5/5) Accurately ripped
6 | (5/5) Accurately ripped
7 | (5/5) Accurately ripped
8 | (5/5) Accurately ripped
9 | (5/5) Accurately ripped
[AccurateRip ID: 001543e5-009c598c-7b0ed109] found.
Track [ CRC | V2 ] Status
01 [8865d882|99f1bdfa] (0+2/2) Accurately ripped
02 [0884b0c7|8a7abfb5] (0+2/2) Accurately ripped
03 [89b6c6ae|293b59c8] (0+2/2) Accurately ripped
04 [20c92921|3b3b59ee] (0+2/2) Accurately ripped
05 [7f3e6e92|f1aca2b0] (0+2/2) Accurately ripped
06 [7d35f827|d3268350] (0+2/2) Accurately ripped
07 [ecf39ca8|1cb9d2cc] (0+2/2) Accurately ripped
08 [512abee3|e63fd392] (0+2/2) Accurately ripped
09 [eaed3544|b3c0555a] (0+2/2) Accurately ripped

Track Peak [ CRC32 ] [W/O NULL] [ LOG ]
– 97,7 [BC10CBAF] [A5951508] CRC32
01 97,7 [997AD696] [5EE67517]
02 97,7 [016E0B37] [CF0EE18B]
03 97,7 [1DCD55D1] [29029607]
04 97,7 [7753C381] [C12EB211]
05 97,7 [108E74D8] [4DF65066]
06 97,7 [4471FA77] [CB393123]
07 97,7 [84285852] [CEB63DE6]
08 97,7 [41BF6BD6] [F2C5990C]
09 97,7 [B952DC28] [86A0164B]

Vespero - 9 Studio Albums (2007-2018) (Re-up)

Vespero - Subkraut - U-Boats Willkommen Hier (2012)
EAC Rip | WavPack (image+.cue+log) - 484 MB | MP3 CBR 320 kbps (LAME 3.93) - 158 MB | Covers - 84 MB
Genre: Progressive/Psychedelic/Space Rock | RAR 3% Rec. | Label: RAIG (R073)

Tracklist:
01. The Strangest Thing In The Ocean
02. Anpeilen!
03. Underwater
04. Target Selection
05. Angriff, Ran, Versenken!
06. Alarm … The Art Of Positive Thinking

Total time: 01:07:05

Exact Audio Copy V1.0 beta 3 from 29. August 2011

EAC extraction logfile from 1. October 2013, 16:05

Vespero / Subkraut U-Boats Willkommen Hier

Used drive : PIONEER DVD-RW DVR-220RS Adapter: 0 ID: 0

Read mode : Secure
Utilize accurate stream : Yes
Defeat audio cache : Yes
Make use of C2 pointers : No

Read offset correction : 6
Overread into Lead-In and Lead-Out : No
Fill up missing offset samples with silence : Yes
Delete leading and trailing silent blocks : No
Null samples used in CRC calculations : Yes
Used interface : Native Win32 interface for Win NT & 2000

Used output format : User Defined Encoder
Selected bitrate : 128 kBit/s
Quality : High
Add ID3 tag : No
Command line compressor : C:\Program Files (x86)\Exact Audio Copy\Wavpack\wavpack.exe
Additional command line options : -hlm %source% %dest%


TOC of the extracted CD

Track | Start | Length | Start sector | End sector
––––––––––––––––––––––––––––-
1 | 0:00.00 | 11:31.01 | 0 | 51825
2 | 11:31.01 | 9:51.17 | 51826 | 96167
3 | 21:22.18 | 13:12.66 | 96168 | 155633
4 | 34:35.09 | 8:58.42 | 155634 | 196025
5 | 43:33.51 | 11:05.06 | 196026 | 245906
6 | 54:38.57 | 12:26.47 | 245907 | 301903


Range status and errors

Selected range

Filename C:\NL+ byTATUK\CD08\Vespero - Subkraut U-Boats Willkommen Hier.wav

Peak level 97.0 %
Extraction speed 2.0 X
Range quality 100.0 %
Test CRC 95E1E1A0
Copy CRC 95E1E1A0
Copy OK

No errors occurred


AccurateRip summary

Track 1 accurately ripped (confidence 1) [9B381966] (AR v1)
Track 2 accurately ripped (confidence 1) [072FA9BF] (AR v1)
Track 3 accurately ripped (confidence 1) [2C13D892] (AR v1)
Track 4 accurately ripped (confidence 1) [6DED90CF] (AR v1)
Track 5 accurately ripped (confidence 1) [E120DD5B] (AR v1)
Track 6 accurately ripped (confidence 1) [EFF1FE8C] (AR v1)

All tracks accurately ripped

End of status report

–– CUETools DB Plugin V2.1.3

[CTDB TOCID: WnJ_eCqTzDFaHEDBiJ8Xnz4lsa4-] found, Submit result: WnJ_eCqTzDFaHEDBiJ8Xnz4lsa4- has been confirmed
[e6971fce] (3/3) Accurately ripped


==== Log checksum 9DA71C4EE5453A8473F6D528C2091F2E7CDC555CB8B69AF9850AEAD2C99863FF ====

[CUETools log; Date: 13.01.2021 19:32:20; Version: 2.1.4]
[CTDB TOCID: WnJ_eCqTzDFaHEDBiJ8Xnz4lsa4-] found.
Track | CTDB Status
1 | (9/9) Accurately ripped
2 | (9/9) Accurately ripped
3 | (9/9) Accurately ripped
4 | (9/9) Accurately ripped
5 | (9/9) Accurately ripped
6 | (9/9) Accurately ripped
[AccurateRip ID: 000ffba9-005532e9-4e0fb906] found.
Track [ CRC | V2 ] Status
01 [9b381966|f7d67c99] (0+2/2) Accurately ripped
02 [072fa9bf|c4dbb814] (0+2/2) Accurately ripped
03 [2c13d892|75f62e83] (0+2/2) Accurately ripped
04 [6ded90cf|c95a2009] (0+2/2) Accurately ripped
05 [e120dd5b|cd32219e] (0+2/2) Accurately ripped
06 [eff1fe8c|285d9f05] (0+2/2) Accurately ripped

Track Peak [ CRC32 ] [W/O NULL] [ LOG ]
– 97,0 [95E1E1A0] [3174E0AC] CRC32
01 97,0 [D45C518E] [4C3CF47A]
02 97,0 [78D9E886] [8EBA53EB]
03 97,0 [3DB0CE0F] [058740AB]
04 97,0 [4FBA6857] [02535E00]
05 97,0 [BE3B6982] [2D434E8D]
06 97,0 [055EF08A] [3297932F]

Vespero - 9 Studio Albums (2007-2018) (Re-up)

Vespero - Droga (2013)
EAC Rip | WavPack (image+.cue+log) - 960 MB | MP3 CBR 320 kbps (LAME 3.93) - 331 MB | Covers - 93 MB
Genre: Progressive/Psychedelic/Space Rock | RAR 3% Rec. | Label: RAIG (R079D)

CD 1 Tracklist (Droga):
01. Steppe
02. Maui
03. Red Pitfalls
04. Oboo
05. Thymus
06. Halo
07. Marine
08. Frozen Lilies (Melt in Heaven)
09. Droga

Total time: 01:12:56

CD 2 Tracklist (Liventures, etc):
01. Droga
02. The Strangest Thing in the Ocean
03. FAUST’s Jennifer
04. Clouds
05. Flight of the Lieutenant
06. FAUST’s J’Ai Mal aux Dents
07. Oboo
08. Tanz

Total time: 01:07:44

Exact Audio Copy V1.0 beta 3 from 29. August 2011

EAC extraction logfile from 1. October 2013, 17:33

Vespero / Droga

Used drive : PIONEER DVD-RW DVR-220RS Adapter: 0 ID: 0

Read mode : Secure
Utilize accurate stream : Yes
Defeat audio cache : Yes
Make use of C2 pointers : No

Read offset correction : 6
Overread into Lead-In and Lead-Out : No
Fill up missing offset samples with silence : Yes
Delete leading and trailing silent blocks : No
Null samples used in CRC calculations : Yes
Used interface : Native Win32 interface for Win NT & 2000

Used output format : User Defined Encoder
Selected bitrate : 128 kBit/s
Quality : High
Add ID3 tag : No
Command line compressor : C:\Program Files (x86)\Exact Audio Copy\Wavpack\wavpack.exe
Additional command line options : -hlm %source% %dest%


TOC of the extracted CD

Track | Start | Length | Start sector | End sector
––––––––––––––––––––––––––––-
1 | 0:00.00 | 10:24.11 | 0 | 46810
2 | 10:24.11 | 6:46.19 | 46811 | 77279
3 | 17:10.30 | 8:04.48 | 77280 | 113627
4 | 25:15.03 | 7:26.55 | 113628 | 147132
5 | 32:41.58 | 9:23.23 | 147133 | 189380
6 | 42:05.06 | 8:56.73 | 189381 | 229653
7 | 51:02.04 | 6:52.49 | 229654 | 260602
8 | 57:54.53 | 6:13.37 | 260603 | 288614
9 | 64:08.15 | 8:47.34 | 288615 | 328173


Range status and errors

Selected range

Filename C:\NL+ byTATUK\CD01\Vespero - Droga.wav

Peak level 100.0 %
Extraction speed 2.1 X
Range quality 100.0 %
Test CRC 76F0B87C
Copy CRC 76F0B87C
Copy OK

No errors occurred


AccurateRip summary

Track 1 not present in database
Track 2 not present in database
Track 3 not present in database
Track 4 not present in database
Track 5 not present in database
Track 6 not present in database
Track 7 not present in database
Track 8 not present in database
Track 9 not present in database

None of the tracks are present in the AccurateRip database

End of status report

–– CUETools DB Plugin V2.1.3

[CTDB TOCID: 4gCQMghzNuUXWuS2hjAZZco1UCI-] disk not present in database, Submit result: 4gCQMghzNuUXWuS2hjAZZco1UCI- has been uploaded


==== Log checksum 9BF427CF0F130077C234FCB983DFFCCE9F5B77C2E77A66415C8B467E420C2B1F ====

[CUETools log; Date: 13.01.2021 19:33:09; Version: 2.1.4]
[CTDB TOCID: 4gCQMghzNuUXWuS2hjAZZco1UCI-] found.
Track | CTDB Status
1 | (8/8) Accurately ripped
2 | (8/8) Accurately ripped
3 | (8/8) Accurately ripped
4 | (8/8) Accurately ripped
5 | (8/8) Accurately ripped
6 | (8/8) Accurately ripped
7 | (8/8) Accurately ripped
8 | (8/8) Accurately ripped
9 | (8/8) Accurately ripped
[AccurateRip ID: 0019a77f-00ba8473-78111709] found.
Track [ CRC | V2 ] Status
01 [975f626d|0146f3dc] (0+4/4) Accurately ripped
02 [1c9bb418|670b68d0] (0+4/4) Accurately ripped
03 [7ab1df9e|d42f2ee7] (0+4/4) Accurately ripped
04 [e0a1e246|7508907a] (0+4/4) Accurately ripped
05 [44b6e108|af5d633c] (0+4/4) Accurately ripped
06 [d1181432|f5f95759] (0+4/4) Accurately ripped
07 [45bf1b2f|f6fd8583] (0+4/4) Accurately ripped
08 [10acb4cf|e4b01c3b] (0+4/4) Accurately ripped
09 [b4798b31|f8bf0bf9] (0+4/4) Accurately ripped

Track Peak [ CRC32 ] [W/O NULL] [ LOG ]
– 100,0 [76F0B87C] [D7495264] CRC32
01 97,0 [4421972C] [64207EDC]
02 100,0 [94B20191] [1312610C]
03 97,0 [BB2330CD] [BE0C260E]
04 97,0 [83B894E2] [9B557366]
05 97,0 [4D368136] [5D3B5152]
06 97,0 [E30E8520] [73D7613F]
07 97,0 [BCEC9AAE] [794D499C]
08 97,0 [AA08CEA1] [BA82D31C]
09 97,0 [5452538D] [7A85D021]

Exact Audio Copy V1.0 beta 3 from 29. August 2011

EAC extraction logfile from 1. October 2013, 18:24

Vespero / Liventures, etc

Used drive : PIONEER DVD-RW DVR-220RS Adapter: 0 ID: 0

Read mode : Secure
Utilize accurate stream : Yes
Defeat audio cache : Yes
Make use of C2 pointers : No

Read offset correction : 6
Overread into Lead-In and Lead-Out : No
Fill up missing offset samples with silence : Yes
Delete leading and trailing silent blocks : No
Null samples used in CRC calculations : Yes
Used interface : Native Win32 interface for Win NT & 2000

Used output format : User Defined Encoder
Selected bitrate : 128 kBit/s
Quality : High
Add ID3 tag : No
Command line compressor : C:\Program Files (x86)\Exact Audio Copy\Wavpack\wavpack.exe
Additional command line options : -hlm %source% %dest%


TOC of the extracted CD

Track | Start | Length | Start sector | End sector
––––––––––––––––––––––––––––-
1 | 0:00.00 | 11:36.30 | 0 | 52229
2 | 11:36.30 | 7:40.21 | 52230 | 86750
3 | 19:16.51 | 7:44.38 | 86751 | 121588
4 | 27:01.14 | 9:27.61 | 121589 | 164174
5 | 36:29.00 | 6:31.68 | 164175 | 193567
6 | 43:00.68 | 6:47.23 | 193568 | 224115
7 | 49:48.16 | 8:18.12 | 224116 | 261477
8 | 58:06.28 | 9:37.60 | 261478 | 304812


Range status and errors

Selected range

Filename C:\NL+ byTATUK\CD02\Vespero - Liventures, etc.wav

Peak level 97.2 %
Extraction speed 2.1 X
Range quality 100.0 %
Test CRC 5B9F920B
Copy CRC 5B9F920B
Copy OK

No errors occurred


AccurateRip summary

Track 1 not present in database
Track 2 not present in database
Track 3 not present in database
Track 4 not present in database
Track 5 not present in database
Track 6 not present in database
Track 7 not present in database
Track 8 not present in database

None of the tracks are present in the AccurateRip database

End of status report

–– CUETools DB Plugin V2.1.3

[CTDB TOCID: O1MmSWlCn35ly6P9TU3.1X1Y8dw-] disk not present in database, Submit result: O1MmSWlCn35ly6P9TU3.1X1Y8dw- has been uploaded


==== Log checksum F66A5E37C1ABF198229EF29E7CF04E92013D242C5CBDAA0985BDC647F7B67E53 ====

[CUETools log; Date: 13.01.2021 19:33:50; Version: 2.1.4]
[CTDB TOCID: O1MmSWlCn35ly6P9TU3.1X1Y8dw-] found.
Track | CTDB Status
1 | (3/3) Accurately ripped
2 | (3/3) Accurately ripped
3 | (3/3) Accurately ripped
4 | (3/3) Accurately ripped
5 | (3/3) Accurately ripped
6 | (3/3) Accurately ripped
7 | (3/3) Accurately ripped
8 | (3/3) Accurately ripped
[AccurateRip ID: 00157ed0-008cf33a-7d0fe008] found.
Track [ CRC | V2 ] Status
01 [dd6b736c|eb065264] (0+3/3) Accurately ripped
02 [91a6b46f|8b3ebaac] (0+3/3) Accurately ripped
03 [2aefff9f|9bcdcbf4] (0+3/3) Accurately ripped
04 [19c64e56|014ae6fe] (0+3/3) Accurately ripped
05 [3ce7ee9f|54ec74f7] (0+3/3) Accurately ripped
06 [4a538fa1|aaa4262b] (0+3/3) Accurately ripped
07 [7e1236a6|18fad9ef] (0+3/3) Accurately ripped
08 [e226cc7f|f1e79e77] (0+3/3) Accurately ripped

Track Peak [ CRC32 ] [W/O NULL] [ LOG ]
– 97,2 [5B9F920B] [4BE24FE2] CRC32
01 97,0 [EFE5345A] [6274674C]
02 97,0 [57A8CDDE] [B2E18B34]
03 97,0 [ACDA2C04] [72894762]
04 97,0 [16BD2ED7] [FC596974]
05 97,0 [34B6BF6C] [1E040632]
06 97,0 [B39EF7DF] [94C15823]
07 97,0 [6F928E34] [96A2D989]
08 97,2 [4216D5E0] [98865FFD]

Vespero - 9 Studio Albums (2007-2018) (Re-up)

Vespero - Fitful Slumber until 5 A.M. (2015)
EAC Rip | WavPack (image+.cue+log) - 490 MB | MP3 CBR 320 kbps (LAME 3.93) - 164 MB | Covers - 85 MB
Genre: Progressive/Psychedelic/Space Rock | RAR 3% Rec. | Label: RAIG (R086)

Tracklist:
01. 3:50:18 - 4:02:15 / Vision 1. Ogni Fuoco
02. 4:02:16 - 4:10:30 / Vision 2. Outer Planting
03. 4:10:31 - 4:17:36 / Vision 3. Kamzas Red Sands
04. 4:17:37 - 4:29:59 / Vision 4. 1507
05. 4:30:00 - 4:36:55 / Vision 5. Ezel
06. 4:36:56 - 4:51:14 / Vision 6. Atil
07. 4:51:15 - 5:00:00 / Vision 7. Kidish Hail

Total time: 01:09:39

Exact Audio Copy V1.0 beta 3 from 29. August 2011

EAC extraction logfile from 9. April 2015, 7:33

Vespero / Fitful Slumber until 5 A.M.

Used drive : PIONEER DVD-RW DVR-220RS Adapter: 0 ID: 0

Read mode : Secure
Utilize accurate stream : Yes
Defeat audio cache : Yes
Make use of C2 pointers : No

Read offset correction : 6
Overread into Lead-In and Lead-Out : No
Fill up missing offset samples with silence : Yes
Delete leading and trailing silent blocks : No
Null samples used in CRC calculations : Yes
Used interface : Native Win32 interface for Win NT & 2000

Used output format : User Defined Encoder
Selected bitrate : 768 kBit/s
Quality : High
Add ID3 tag : No
Command line compressor : C:\Program Files (x86)\Exact Audio Copy\Wavpack\wavpack.exe
Additional command line options : -hm -w "Year=%year%" -w "Genre=%genre%" %source% %dest%


TOC of the extracted CD

Track | Start | Length | Start sector | End sector
––––––––––––––––––––––––––––-
1 | 0:00.00 | 11:57.70 | 0 | 53844
2 | 11:57.70 | 8:14.61 | 53845 | 90955
3 | 20:12.56 | 7:05.18 | 90956 | 122848
4 | 27:17.74 | 12:22.25 | 122849 | 178523
5 | 39:40.24 | 6:55.35 | 178524 | 209683
6 | 46:35.59 | 14:18.15 | 209684 | 274048
7 | 60:53.74 | 8:45.24 | 274049 | 313447


Range status and errors

Selected range

Filename C:\_NL+\_NL+__\CD20\Vespero - Fitful Slumber until 5 A.wav

Peak level 97.0 %
Extraction speed 2.2 X
Range quality 100.0 %
Test CRC 14CE84B0
Copy CRC 14CE84B0
Copy OK

No errors occurred


AccurateRip summary

Track 1 accurately ripped (confidence 1) [CB870526] (AR v2)
Track 2 accurately ripped (confidence 1) [7430A63A] (AR v2)
Track 3 accurately ripped (confidence 1) [1232666E] (AR v2)
Track 4 accurately ripped (confidence 1) [8005D88B] (AR v2)
Track 5 accurately ripped (confidence 1) [4499C9CA] (AR v2)
Track 6 accurately ripped (confidence 1) [068CB7D7] (AR v2)
Track 7 accurately ripped (confidence 1) [AE1BDB8C] (AR v2)

All tracks accurately ripped

End of status report

–– CUETools DB Plugin V2.1.3

[CTDB TOCID: rDKLpTPsVV50.EISaxCCK_J1kMk-] disk not present in database, Submit result: rDKLpTPsVV50.EISaxCCK_J1kMk- has been uploaded


==== Log checksum 42C969CB4A927B77EEFD4F6AB0E59EA71867D737BD67641EB1B9E25886A647D4 ====

[CUETools log; Date: 13.01.2021 19:35:08; Version: 2.1.4]
[CTDB TOCID: rDKLpTPsVV50.EISaxCCK_J1kMk-] found.
Track | CTDB Status
1 | (4/4) Accurately ripped
2 | (4/4) Accurately ripped
3 | (4/4) Accurately ripped
4 | (4/4) Accurately ripped
5 | (4/4) Accurately ripped
6 | (4/4) Accurately ripped
7 | (4/4) Accurately ripped
[AccurateRip ID: 0012f8db-0071a81e-69105307] found.
Track [ CRC | V2 ] Status
01 [7f151373|cb870526] (0+5/5) Accurately ripped
02 [32cff81b|7430a63a] (0+4/4) Accurately ripped
03 [3709bcb4|1232666e] (0+4/4) Accurately ripped
04 [6180c1cb|8005d88b] (0+4/4) Accurately ripped
05 [601ed16d|4499c9ca] (0+4/4) Accurately ripped
06 [4da812f3|068cb7d7] (0+3/3) Accurately ripped
07 [cef663e5|ae1bdb8c] (0+3/3) Accurately ripped

Track Peak [ CRC32 ] [W/O NULL] [ LOG ]
– 97,0 [14CE84B0] [07EFA4A8] CRC32
01 97,0 [AA8BA834] [7D7C537B]
02 97,0 [8652FD98] [3D84D951]
03 97,0 [DF9BF864] [378F450A]
04 97,0 [AB84E701] [FAC09BCF]
05 97,0 [8E36F283] [35FE7FF2]
06 97,0 [8BDA11A6] [A98B0E89]
07 97,0 [129CAABF] [98EF41B0]

Vespero - 9 Studio Albums (2007-2018) (Re-up)

Vespero - Lique Mekwas (2016)
EAC Rip | WavPack (image+.cue+log) - 511 MB | MP3 CBR 320 kbps (LAME 3.93) - 176 MB | Covers - 44 MB
Genre: Progressive/Psychedelic/Space Rock | RAR 3% Rec. | Label: RAIG (R092)

Tracklist:
01. The Course 0f Abagaz
02. Ras Dashen
03. Oromoo's Flashing Eyes
04. Abyssinian Ground
05. Isidore's Prophet
06. Follow the Fitawrari
07. The Emperor's Second Self

Total time: 01:15:04

Exact Audio Copy V1.2 from 12. August 2016

EAC extraction logfile from 14. November 2016, 13:40

Vespero / Lique Mekwas

Used drive : PIONEER DVD-RW DVR-220RS Adapter: 1 ID: 1

Read mode : Secure
Utilize accurate stream : Yes
Defeat audio cache : Yes
Make use of C2 pointers : No

Read offset correction : 6
Overread into Lead-In and Lead-Out : No
Fill up missing offset samples with silence : Yes
Delete leading and trailing silent blocks : No
Null samples used in CRC calculations : Yes
Used interface : Native Win32 interface for Win NT & 2000

Used output format : User Defined Encoder
Selected bitrate : 768 kBit/s
Quality : High
Add ID3 tag : No
Command line compressor : C:\Program Files (x86)\Exact Audio Copy\Wavpack\wavpack.exe
Additional command line options : -hm %source% %dest%


TOC of the extracted CD

Track | Start | Length | Start sector | End sector
––––––––––––––––––––––––––––-
1 | 0:00.00 | 16:18.67 | 0 | 73416
2 | 16:18.67 | 9:31.38 | 73417 | 116279
3 | 25:50.30 | 10:00.47 | 116280 | 161326
4 | 35:51.02 | 8:20.00 | 161327 | 198826
5 | 44:11.02 | 10:23.52 | 198827 | 245603
6 | 54:34.54 | 8:49.73 | 245604 | 285351
7 | 63:24.52 | 11:39.24 | 285352 | 337800


Range status and errors

Selected range

Filename C:\_NL+_\_CD\Vespero - Lique Mekwas.wav

Peak level 98.9 %
Extraction speed 3.5 X
Range quality 100.0 %
Test CRC 8A412D07
Copy CRC 8A412D07
Copy OK

No errors occurred


AccurateRip summary

Track 1 accurately ripped (confidence 2) [ED6326CE] (AR v2)
Track 2 accurately ripped (confidence 2) [7E40BC25] (AR v2)
Track 3 accurately ripped (confidence 2) [04AF1C1B] (AR v2)
Track 4 accurately ripped (confidence 2) [233FD1AB] (AR v2)
Track 5 accurately ripped (confidence 2) [B564E12A] (AR v2)
Track 6 accurately ripped (confidence 2) [B44AEEF9] (AR v2)
Track 7 accurately ripped (confidence 1) [34E1E253] (AR v2)

All tracks accurately ripped

End of status report

–– CUETools DB Plugin V2.1.6

[CTDB TOCID: X3Qp4h891t3ke8fZtOGmqqfz4T4-] found
Submit result: already submitted
Track | CTDB Status
1 | (4/4) Accurately ripped
2 | (4/4) Accurately ripped
3 | (4/4) Accurately ripped
4 | (4/4) Accurately ripped
5 | (4/4) Accurately ripped
6 | (4/4) Accurately ripped
7 | (4/4) Accurately ripped


==== Log checksum 6DB9EF2C356BACDD9209CE83261DC947D8E38F1D552C16D7894E12F4C109C54F ====

[CUETools log; Date: 13.01.2021 19:36:20; Version: 2.1.4]
[CTDB TOCID: X3Qp4h891t3ke8fZtOGmqqfz4T4-] found.
Track | CTDB Status
1 | (6/6) Accurately ripped
2 | (6/6) Accurately ripped
3 | (6/6) Accurately ripped
4 | (6/6) Accurately ripped
5 | (6/6) Accurately ripped
6 | (6/6) Accurately ripped
7 | (6/6) Accurately ripped
[AccurateRip ID: 0015a570-007ec786-5e119807] found.
Track [ CRC | V2 ] Status
01 [b58da3ae|ed6326ce] (0+2/2) Accurately ripped
02 [c7595a5c|7e40bc25] (0+2/2) Accurately ripped
03 [9e4854b8|04af1c1b] (0+2/2) Accurately ripped
04 [cb6efc75|233fd1ab] (0+2/2) Accurately ripped
05 [9d7726b7|b564e12a] (0+2/2) Accurately ripped
06 [1b0cb674|b44aeef9] (0+2/2) Accurately ripped
07 [57d58668|34e1e253] (0+1/2) Accurately ripped

Track Peak [ CRC32 ] [W/O NULL] [ LOG ]
– 98,9 [8A412D07] [40BFEB00] CRC32
01 98,9 [8B3046EE] [ADEB3394]
02 98,9 [5625F742] [E886CC89]
03 98,9 [43C804B5] [FFEA4894]
04 98,9 [1BB476C2] [1D36F0E0]
05 98,9 [9CC28525] [CDABBBE3]
06 98,9 [236BC6DC] [7E0E7DB6]
07 98,9 [B48D6CB7] [9A3C12D8]

Vespero - 9 Studio Albums (2007-2018) (Re-up)

Vespero - Shum - Shir (2017)
EAC Rip | WavPack (image+.cue+log) - 473 MB | MP3 CBR 320 kbps (LAME 3.93) - 159 MB | Covers - 50 MB
Genre: Progressive/Psychedelic/Space Rock | RAR 3% Rec. | Label: VMS (VMS002)

Tracklist:
01. Shum-Shir
02. Isidore's Dance
03. Gaya's Dance
04. Gulli`s Dance
05. Hapi

Bonus Tracks (Liventure 15):
06. Droga
07. Gaya's Dance
08. Hapi
09. Negusä (Impro)

Total time: 01:07:50

Exact Audio Copy V1.3 from 2. September 2016

EAC extraction logfile from 5. September 2018, 20:12

Vespero / Shum-Shir

Used drive : HL-DT-STBD-RE WH16NS40 Adapter: 1 ID: 1

Read mode : Secure
Utilize accurate stream : Yes
Defeat audio cache : Yes
Make use of C2 pointers : No

Read offset correction : 6
Overread into Lead-In and Lead-Out : No
Fill up missing offset samples with silence : Yes
Delete leading and trailing silent blocks : No
Null samples used in CRC calculations : Yes
Used interface : Native Win32 interface for Win NT & 2000

Used output format : User Defined Encoder
Selected bitrate : 768 kBit/s
Quality : High
Add ID3 tag : No
Command line compressor : C:\Program Files (x86)\Exact Audio Copy\Wavpack\wavpack.exe
Additional command line options : -hm %source% %dest%


TOC of the extracted CD

Track | Start | Length | Start sector | End sector
––––––––––––––––––––––––––––-
1 | 0:00.00 | 10:08.55 | 0 | 45654
2 | 10:08.55 | 8:37.32 | 45655 | 84461
3 | 18:46.12 | 7:07.15 | 84462 | 116501
4 | 25:53.27 | 7:43.38 | 116502 | 151264
5 | 33:36.65 | 7:33.64 | 151265 | 185303
6 | 41:10.54 | 8:47.23 | 185304 | 224851
7 | 49:58.02 | 5:50.06 | 224852 | 251107
8 | 55:48.08 | 5:56.08 | 251108 | 277815
9 | 61:44.16 | 6:06.16 | 277816 | 305281


Range status and errors

Selected range

Filename E:\_NL+_\_CD\Vespero - Shum-Shir.wav

Peak level 100.0 %
Extraction speed 4.0 X
Range quality 100.0 %
Test CRC FA1967C3
Copy CRC FA1967C3
Copy OK

No errors occurred


AccurateRip summary

Track 1 accurately ripped (confidence 1) [09AD881C] (AR v2)
Track 2 accurately ripped (confidence 1) [30985F98] (AR v2)
Track 3 accurately ripped (confidence 1) [9B697BBF] (AR v2)
Track 4 accurately ripped (confidence 1) [2BC71779] (AR v2)
Track 5 accurately ripped (confidence 1) [1CF52892] (AR v2)
Track 6 accurately ripped (confidence 1) [616F6798] (AR v2)
Track 7 accurately ripped (confidence 1) [E2B57C32] (AR v2)
Track 8 accurately ripped (confidence 1) [D9C4144C] (AR v2)
Track 9 accurately ripped (confidence 1) [4A08166B] (AR v2)

All tracks accurately ripped

End of status report

–– CUETools DB Plugin V2.1.6

[CTDB TOCID: _AkJMqRPT0fxnZTnCi2Lv0Gz5b4-] found
Submit result: _AkJMqRPT0fxnZTnCi2Lv0Gz5b4- has been confirmed
Track | CTDB Status
1 | (4/4) Accurately ripped
2 | (4/4) Accurately ripped
3 | (4/4) Accurately ripped
4 | (4/4) Accurately ripped
5 | (4/4) Accurately ripped
6 | (4/4) Accurately ripped
7 | (4/4) Accurately ripped
8 | (4/4) Accurately ripped
9 | (4/4) Accurately ripped


==== Log checksum F237513494D1FFAE21380D97F9476516763CC79C52A733B6FC516B86A5530E71 ====

[CUETools log; Date: 13.01.2021 19:41:15; Version: 2.1.4]
[CTDB TOCID: _AkJMqRPT0fxnZTnCi2Lv0Gz5b4-] found.
Track | CTDB Status
1 | (8/8) Accurately ripped
2 | (8/8) Accurately ripped
3 | (8/8) Accurately ripped
4 | (8/8) Accurately ripped
5 | (8/8) Accurately ripped
6 | (8/8) Accurately ripped
7 | (8/8) Accurately ripped
8 | (8/8) Accurately ripped
9 | (8/8) Accurately ripped
[AccurateRip ID: 00190f06-00b447be-5d0fe609] found.
Track [ CRC | V2 ] Status
01 [78c00633|09ad881c] (0+3/3) Accurately ripped
02 [443f9e1e|30985f98] (0+3/3) Accurately ripped
03 [39c748d9|9b697bbf] (0+3/3) Accurately ripped
04 [cad7f0d5|2bc71779] (0+3/3) Accurately ripped
05 [c3a28f6f|1cf52892] (0+3/3) Accurately ripped
06 [d28600a9|616f6798] (0+3/3) Accurately ripped
07 [e66370db|e2b57c32] (0+3/3) Accurately ripped
08 [c40541be|d9c4144c] (0+3/3) Accurately ripped
09 [f7fbb3e1|4a08166b] (0+3/3) Accurately ripped

Track Peak [ CRC32 ] [W/O NULL] [ LOG ]
– 100,0 [FA1967C3] [6A9D1384] CRC32
01 97,0 [9EA93DC4] [313A940C]
02 97,0 [4831AEDE] [BF986D83]
03 97,0 [6CB2B350] [39BA8236]
04 100,0 [1FD98693] [DA532EDF]
05 97,0 [16EDD366] [48466E66]
06 100,0 [222D6A09] [B14AD501]
07 100,0 [A2083701] [628D174F]
08 100,0 [F8FDAE12] [FAC4C68C]
09 100,0 [B0DC43B2] [321C3439]

Vespero - 9 Studio Albums (2007-2018) (Re-up)

Vespero - Hollow Moon (2018)
EAC Rip | WavPack (image+.cue+log) - 425 MB | MP3 CBR 320 kbps (LAME 3.93) - 152 MB | Covers - 47 MB
Genre: Progressive/Psychedelic/Space Rock | RAR 3% Rec. | Label: Tonzonen (TON042)

Tracklist:
01. Watching the Moon Rise
02. Flight of the Lieutenant
03. Sublunarian
04. Moon-Trovants
05. Mare Ingenii
06. Feast of Selenites
07. Watershed Point
08. Tardigrada's Milk
09. Space Clipper's Wreckage
10. Watching the Earth Rise

Total time: 01:04:42

Exact Audio Copy V1.3 from 2. September 2016

EAC extraction logfile from 7. January 2019, 17:08

Vespero / Hollow Moon

Used drive : HL-DT-STBD-RE WH16NS40 Adapter: 1 ID: 0

Read mode : Secure
Utilize accurate stream : Yes
Defeat audio cache : Yes
Make use of C2 pointers : No

Read offset correction : 6
Overread into Lead-In and Lead-Out : No
Fill up missing offset samples with silence : Yes
Delete leading and trailing silent blocks : No
Null samples used in CRC calculations : Yes
Used interface : Native Win32 interface for Win NT & 2000

Used output format : User Defined Encoder
Selected bitrate : 768 kBit/s
Quality : High
Add ID3 tag : No
Command line compressor : C:\Program Files (x86)\Exact Audio Copy\Wavpack\wavpack.exe
Additional command line options : -hm %source% %dest%


TOC of the extracted CD

Track | Start | Length | Start sector | End sector
––––––––––––––––––––––––––––-
1 | 0:00.00 | 3:38.32 | 0 | 16381
2 | 3:38.32 | 8:30.51 | 16382 | 54682
3 | 12:09.08 | 7:58.38 | 54683 | 90570
4 | 20:07.46 | 8:41.07 | 90571 | 129652
5 | 28:48.53 | 3:21.31 | 129653 | 144758
6 | 32:10.09 | 11:05.35 | 144759 | 194668
7 | 43:15.44 | 2:03.61 | 194669 | 203954
8 | 45:19.30 | 7:14.14 | 203955 | 236518
9 | 52:33.44 | 8:41.48 | 236519 | 275641
10 | 61:15.17 | 3:26.58 | 275642 | 291149


Range status and errors

Selected range

Filename E:\_NL+_\_CD\Vespero - Hollow Moon.wav

Peak level 98.8 %
Extraction speed 3.3 X
Range quality 100.0 %
Test CRC E2074DA6
Copy CRC E2074DA6
Copy OK

No errors occurred


AccurateRip summary

Track 1 not present in database
Track 2 not present in database
Track 3 not present in database
Track 4 not present in database
Track 5 not present in database
Track 6 not present in database
Track 7 not present in database
Track 8 not present in database
Track 9 not present in database
Track 10 not present in database

None of the tracks are present in the AccurateRip database

End of status report

–– CUETools DB Plugin V2.1.6

[CTDB TOCID: toIPEW8iKAs2Q7gvWW4cn3RlZWo-] found
Submit result: toIPEW8iKAs2Q7gvWW4cn3RlZWo- has been confirmed
Track | CTDB Status
1 | (3/3) Accurately ripped
2 | (3/3) Accurately ripped
3 | (3/3) Accurately ripped
4 | (3/3) Accurately ripped
5 | (3/3) Accurately ripped
6 | (3/3) Accurately ripped
7 | (3/3) Accurately ripped
8 | (3/3) Accurately ripped
9 | (3/3) Accurately ripped
10 | (3/3) Accurately ripped


==== Log checksum C09975372BFF2502E8066F4852BDD18757296F627F37F3652981C75CDEEEDB62 ====

[CUETools log; Date: 13.01.2021 19:39:13; Version: 2.1.4]
[CTDB TOCID: toIPEW8iKAs2Q7gvWW4cn3RlZWo-] found.
Track | CTDB Status
1 | (9/9) Accurately ripped
2 | (9/9) Accurately ripped
3 | (9/9) Accurately ripped
4 | (9/9) Accurately ripped
5 | (9/9) Accurately ripped
6 | (9/9) Accurately ripped
7 | (9/9) Accurately ripped
8 | (9/9) Accurately ripped
9 | (9/9) Accurately ripped
10 | (9/9) Accurately ripped
[AccurateRip ID: 0018fe5f-00c8c65d-7f0f2a0a] found.
Track [ CRC | V2 ] Status
01 [7c28dede|b88f2566] (0+1/1) Accurately ripped
02 [cb10e8c6|d032632f] (0+1/1) Accurately ripped
03 [d3ada272|42460f97] (0+1/1) Accurately ripped
04 [d484cc81|90e60dbf] (0+1/1) Accurately ripped
05 [558ba037|045261dd] (0+1/1) Accurately ripped
06 [47ecc904|f1270618] (0+1/1) Accurately ripped
07 [42870782|20169f9f] (0+1/1) Accurately ripped
08 [cb78933f|5f451d11] (0+1/1) Accurately ripped
09 [a0ee213b|e9b9b2fd] (0+1/1) Accurately ripped
10 [b75974cf|d419157a] (0+1/1) Accurately ripped

Track Peak [ CRC32 ] [W/O NULL] [ LOG ]
– 98,8 [E2074DA6] [284268FC] CRC32
01 83,2 [40049622] [718C8117]
02 98,8 [79F561C5] [8AA31D7B]
03 98,8 [3FD0FDA4] [9EE4DE2C]
04 98,8 [C0C90D0C] [6250B869]
05 98,8 [995B8920] [ACE9B1B3]
06 98,8 [A4B19ADE] [0E0C75C4]
07 85,8 [30AE0EB7] [BA82CD73]
08 98,8 [B7CC4DD0] [4D1926A5]
09 98,8 [0060A901] [2A58AE93]
10 98,8 [DDD3B8B0] [85E615EC]

Thanks to tatuk