Tags
Language
Tags
June 2024
Su Mo Tu We Th Fr Sa
26 27 28 29 30 31 1
2 3 4 5 6 7 8
9 10 11 12 13 14 15
16 17 18 19 20 21 22
23 24 25 26 27 28 29
30 1 2 3 4 5 6

Vintage Trouble - The Swing House Acoustic Sessions (2014) {2015, EP, Japanese Edition with Bonus Tracks}

Posted By: popsakov
Vintage Trouble - The Swing House Acoustic Sessions (2014) {2015, EP, Japanese Edition with Bonus Tracks}

Vintage Trouble - The Swing House Acoustic Sessions (2014) {2015, EP, Japanese Edition with Bonus Tracks}
EAC Rip | FLAC (Img) + Cue + Log ~ 252 Mb | MP3 CBR320 ~ 119 Mb
Full Scans | 00:33:47 | RAR 5% Recovery
Blues, R&B, Funk, Soul, Rock | Sony Music Labels #SICX 3

Steeped in the sounds of classic blues, soul, and rock & roll from the '50s and '60s, Vintage Trouble fuse the style of the past with the swagger and cool of the present day, and have won a devoted fan following in the United States and the United Kingdom with their passionate live show. Vintage Trouble were formed in 2010 by vocalist Ty Taylor, guitarist Nalle Colt, bassist Rick Barrio Dill, and drummer Richard Danielson, all of whom were living in Los Angeles, California at the time. Taylor had previously worked with the bands Dakota Moon, Camp Freddy, and Ghosthounds, and was a contestant on the music competition series Rock Star: INXS. Swedish-born guitarist Colt had briefly been part of Dakota Moon's road band, and had also been part of the short-lived Ghosthounds. Bassist Dill had cut a pair of solo albums under the name Duff Ferguson, and released an album in 2007 with the band 2nd Day Crush. And Danielson had been a journeyman drummer playing in a variety of Los Angeles-based bands and had jammed with Taylor on many occasions. Taylor and Colt were planning to record some songs together, and they invited Dill and Danielson to be the rhythm section on the session. By the end of the evening, the four musicians were pleased with the chemistry, and Colt suggested they should try playing a live gig. A week later, Vintage Trouble made their public debut, and the band was soon a major presence on the Los Angeles club circuit, frequently playing bars and after-hours clubs.

In 2011, Vintage Trouble booked time at L.A.'s Bomb Shelter Studios, and recorded a no-frills album that captured their tough but soulful sound. Called The Bomb Shelter Sessions, the album earned positive notices from critics and attracted the attention of Doc McGhee, the manager who helped guide the careers of Bon Jovi, Mötley Crüe, Skid Row, and Hootie & the Blowfish. McGhee signed on as Vintage Trouble's manager, and he booked the band on a tour of the United Kingdom, where they were soon selling out clubs and earned a spot on the popular TV music series Later…with Jools Holland. The Bomb Shelter Sessions promptly rose to the upper reaches of the U.K. digital sales charts, and Vintage Trouble were juggling headlining gigs in clubs and theaters with British stadium dates opening for Brian May and Bon Jovi. In 2012, the album finally received a physical release in the United States, with the group supporting the release with North American tours opening for Lenny Kravitz and the Cranberries, with the Who inviting the band to open for them on a late-2012 North American run. In April 2013, Vintage Trouble made the first of three appearances on The Tonight Show with Jay Leno, and in the summer they once again joined the Who on the road for a series of shows in Europe, as well as opening a show for the Rolling Stones in London's Hyde Park. Legendary Australian hard rockers AC/DC gave them another high-profile opening slot when they were added to the bill of the 2015 "Rock or Bust" tour, and in August 2015 Vintage Trouble made their major-label debut with 1 Hopeful Rd.; the album made them one of the first rock acts to be signed to the iconic jazz label Blue Note Records, and the label's president, Don Was, produced the sessions.

~ Mark Deming, All Music
Vintage Trouble - The Swing House Acoustic Sessions (2014) {2015, EP, Japanese Edition with Bonus Tracks}


***************

Vintage Trouble - The Swing House Acoustic Sessions (2014) {2015, EP, Japanese Edition with Bonus Tracks}

Track List:

01. Lo And Behold [02:37]
02. Run Outta You [03:58]
03. Another Man's Words [04:38]
04. Never Mine [03:14]
05. Blues Hand Me Down [03:30]
Bonus Tracks
06. Gracefully (Live Broadcast from BBC Studio) [04:22]
07. Run Outta You (Live acoustic Tokyo - Blue Note Club 2014) [05:23]
08. Not Alright By Me (Live acoustic Tokyo - Blue Note Club 2014) [06:09]

Personnel:
Nalle Colt - guitar
Rick Barrio Dill - bass
Richard Danielson - drums
Ty Taylor - vocals

Exact Audio Copy V1.1 from 23. June 2015

EAC extraction logfile from 9. June 2016, 17:56

Vintage Trouble / The Swing House Acoustic Sessions

Used drive : hp CDDVDW SH-216BB Adapter: 1 ID: 0

Read mode : Secure
Utilize accurate stream : Yes
Defeat audio cache : Yes
Make use of C2 pointers : No

Read offset correction : 6
Overread into Lead-In and Lead-Out : No
Fill up missing offset samples with silence : Yes
Delete leading and trailing silent blocks : No
Null samples used in CRC calculations : Yes
Used interface : Native Win32 interface for Win NT & 2000

Used output format : Internal WAV Routines
Sample format : 44.100 Hz; 16 Bit; Stereo


TOC of the extracted CD

Track | Start | Length | Start sector | End sector
––––––––––––––––––––––––––––-
1 | 0:00.00 | 2:36.02 | 0 | 11701
2 | 2:36.02 | 3:57.60 | 11702 | 29536
3 | 6:33.62 | 4:37.25 | 29537 | 50336
4 | 11:11.12 | 3:13.12 | 50337 | 64823
5 | 14:24.24 | 3:29.36 | 64824 | 80534
6 | 17:53.60 | 4:21.55 | 80535 | 100164
7 | 22:15.40 | 5:22.08 | 100165 | 124322
8 | 27:37.48 | 6:08.33 | 124323 | 151955


Range status and errors

Selected range

Filename C:\Users\Arturs\Desktop\Vintage Trouble - The Swing House Acoustic Sessions.wav

Peak level 100.0 %
Extraction speed 2.6 X
Range quality 100.0 %
Test CRC F6675150
Copy CRC F6675150
Copy OK

No errors occurred


AccurateRip summary

Track 1 accurately ripped (confidence 1) [5FEE160E] (AR v2)
Track 2 accurately ripped (confidence 1) [83C660EF] (AR v2)
Track 3 accurately ripped (confidence 1) [26D25738] (AR v2)
Track 4 accurately ripped (confidence 1) [723BBE1B] (AR v2)
Track 5 accurately ripped (confidence 1) [816581DB] (AR v2)
Track 6 accurately ripped (confidence 1) [B8214065] (AR v2)
Track 7 accurately ripped (confidence 1) [E1AA5DF3] (AR v2)
Track 8 accurately ripped (confidence 1) [DF4761C1] (AR v2)

All tracks accurately ripped

End of status report

–– CUETools DB Plugin V2.1.6

[CTDB TOCID: 7YXnGeq6H299xSCINZ5dzYls7DI-] found
Submit result: 7YXnGeq6H299xSCINZ5dzYls7DI- has been confirmed
Track | CTDB Status
1 | (6/6) Accurately ripped
2 | (6/6) Accurately ripped
3 | (6/6) Accurately ripped
4 | (6/6) Accurately ripped
5 | (6/6) Accurately ripped
6 | (6/6) Accurately ripped
7 | (6/6) Accurately ripped
8 | (6/6) Accurately ripped


==== Log checksum A8076DB4ADEA79A1039418CB4652ECFB79D09626E663145917525B5A414A2ADD ====

[CUETools log; Date: 11.06.2016 20:09:53; Version: 2.1.5]
[CTDB TOCID: 7YXnGeq6H299xSCINZ5dzYls7DI-] found.
Track | CTDB Status
1 | (7/7) Accurately ripped
2 | (7/7) Accurately ripped
3 | (7/7) Accurately ripped
4 | (7/7) Accurately ripped
5 | (7/7) Accurately ripped
6 | (7/7) Accurately ripped
7 | (7/7) Accurately ripped
8 | (7/7) Accurately ripped
[AccurateRip ID: 00095c03-003fd7e5-7507ea08] found.
Track [ CRC | V2 ] Status
01 [f9bdef42|5fee160e] (0+1/1) Accurately ripped
02 [ff817e19|83c660ef] (0+1/1) Accurately ripped
03 [bd05fbab|26d25738] (0+1/1) Accurately ripped
04 [746fb4f2|723bbe1b] (0+1/1) Accurately ripped
05 [f26d435d|816581db] (0+1/1) Accurately ripped
06 [a85a9c7a|b8214065] (0+1/1) Accurately ripped
07 [e0719ced|e1aa5df3] (0+1/1) Accurately ripped
08 [8d3f0fed|df4761c1] (0+1/1) Accurately ripped

Track Peak [ CRC32 ] [W/O NULL] [ LOG ]
– 100,0 [F6675150] [0FEF7D98] CRC32
01 99,9 [444BFAEE] [F07F65D4]
02 100,0 [99EAD6BE] [BABE5640]
03 100,0 [1BBA58C0] [A815AABA]
04 100,0 [AC8B255D] [5A8ED932]
05 100,0 [71CEAD7A] [8961BE15]
06 99,9 [BA93AAD1] [B627E113]
07 100,0 [7B6A99BB] [7299BD40]
08 100,0 [DCF42805] [F39146FF]

Vintage Trouble - The Swing House Acoustic Sessions (2014) {2015, EP, Japanese Edition with Bonus Tracks}


All thanks go to London

>>> My Blog <<<

DOWNLOAD: