Subcategories

White Noise - An Electric Storm (1969) {2007 Island}

Posted By: TestTickles
White Noise - An Electric Storm (1969) {2007 Island}

White Noise - An Electric Storm (1969) {2007 Island}
EAC Rip | FLAC with CUE and log | scans | 227 mb
MP3 CBR 320kbps | RAR | 102 mb
Genre: space rock, abstract, experimental, psychedelic rock

An Electric Storm is a 1969 album by White Noise. This was remastered and reissued on CD by Island Records in 2007 under the Island Remasters series.

White Noise - An Electric Storm (1969) {2007 Island}

Phase-In
1. Love Without Sound
2. My Game Of Loving
3. Here Comes The Fleas
4. Firebird
5. Your Hidden Dreams

Phase-Out
6. The Visitations
7. The Black Mass

Remastered by Paschal Byrne

EAC extraction logfile from 31. October 2007, 18:13 for CD
White Noise / An Electric Storm

Used drive : LITE-ON DVDRW SOHW-1693S Adapter: 2 ID: 0
Read mode : Secure with NO C2, accurate stream, disable cache
Read offset correction : 12
Overread into Lead-In and Lead-Out : No

Used output format : Internal WAV Routines
44.100 Hz; 16 Bit; Stereo

Other options :
Fill up missing offset samples with silence : Yes
Delete leading and trailing silent blocks : No
Native Win32 interface for Win NT & 2000


Track 1
Filename C:\FLAC\White Noise - An Electric Storm (1969) [FLAC] {2007 Island}\01 - Love Without Sound.wav

Pre-gap length 0:00:02.00

Peak level 98.8 %
Track quality 100.0 %
Test CRC 5E7E75DF
Copy CRC 5E7E75DF
Copy OK

Track 2
Filename C:\FLAC\White Noise - An Electric Storm (1969) [FLAC] {2007 Island}\02 - My Game Of Loving.wav

Pre-gap length 0:00:03.57

Peak level 98.8 %
Track quality 100.0 %
Test CRC DED9901D
Copy CRC DED9901D
Copy OK

Track 3
Filename C:\FLAC\White Noise - An Electric Storm (1969) [FLAC] {2007 Island}\03 - Here Comes The Fleas.wav

Pre-gap length 0:00:03.53

Peak level 98.8 %
Track quality 100.0 %
Test CRC 8E3B02AF
Copy CRC 8E3B02AF
Copy OK

Track 4
Filename C:\FLAC\White Noise - An Electric Storm (1969) [FLAC] {2007 Island}\04 - Firebird.wav

Pre-gap length 0:00:03.90

Peak level 98.8 %
Track quality 100.0 %
Test CRC CFE3F68B
Copy CRC CFE3F68B
Copy OK

Track 5
Filename C:\FLAC\White Noise - An Electric Storm (1969) [FLAC] {2007 Island}\05 - Your Hidden Dreams.wav

Pre-gap length 0:00:02.36

Peak level 98.8 %
Track quality 100.0 %
Test CRC 2F140E7E
Copy CRC 2F140E7E
Copy OK

Track 6
Filename C:\FLAC\White Noise - An Electric Storm (1969) [FLAC] {2007 Island}\06 - The Visitations.wav

Pre-gap length 0:00:03.48

Peak level 98.8 %
Track quality 100.0 %
Test CRC E4207931
Copy CRC E4207931
Copy OK

Track 7
Filename C:\FLAC\White Noise - An Electric Storm (1969) [FLAC] {2007 Island}\07 - The Black Mass.wav

Pre-gap length 0:00:04.02

Peak level 98.8 %
Track quality 100.0 %
Test CRC AE31D778
Copy CRC AE31D778
Copy OK

No errors occured


End of status report


White Noise - An Electric Storm (1969) {2007 Island}


Thank you to the original uploader.