Tags
Language
Tags

VA - When We Were Kings (Original Motion Picture Soundtrack) (1997)

Posted By:
VA - When We Were Kings (Original Motion Picture Soundtrack) (1997)

VA - When We Were Kings (Original Motion Picture Soundtrack) (1997)
EAC Rip | FLAC (tracks, cue, log) - 328 MB | MP3 CBR 320kbps - 119 MB
52:14 | Soundtrack, Soul, Funk, Rhythm & Blues | Label: Mercury Records

The soundtrack to filmmaker Leon Gast's Oscar-winning portrait of Muhammad Ali and George Foreman's famed 1974 heavyweight bout in Zaire (dubbed the "Rumble in the Jungle") features live performances from James Brown, B.B. King and the Spinners, all recorded at the concert held as the fight's opening act. Additionally, the soundtrack features new material from the Fugees with A Tribe Called Quest, Busta Rhymes and Forte.

Tracklist
1 –Fugees featuring A Tribe Called Quest, Busta Rhymes & Forte - Rumble In The Jungle 5:07
2 –Drew "Bundini" Brown - (Field Recording) 0:07
3 –Bill Withers - Ain't No Sunshine / You (Medley) 3:00
4 –B.B. King - Sweet Sixteen 6:14
5 –Unknown Artist - African Girls Chant 0:19
6 –Ali - "When I Get To Africa" 0:06
7 –James Brown - The Payback 3:42
8 –Unknown Artist - Mobutu Chant 0:18
9 –Spinners - I'll Be Around 3:03
10 –Jazz Crusaders - Put It Where You Want It 4:30
11 –Ali - "Wait 'Till I Kick Foreman's Behind" 0:06
12 –B.B. King - I Got Some Help I Don't Need 5:07
13 –James Brown - Gonna Have A Funky Good Time 4:40
14 –Ali - "Mr. Tooth Decay" 0:24
15 –Spinners - I'm Coming Home 4:10
16 –Brian McKnight and Diana King - When We Were Kings 4:40
17 –Drew "Bundini" Brown - (Field Recording) 0:20
18 –Zelma Davis - I'm Calling (Say It Loud) 5:12
19 –Ali - "You Out Sucker" 0:21
20 –Unknown Artist - Chant 0:36
Exact Audio Copy V1.0 beta 4 from 7. December 2014

EAC extraction logfile from 28. April 2017, 19:24

Various Artists / When We Were Kings - The Original Motion Picture Soundtrack

Used drive : ATAPI iHAS124 W Adapter: 1 ID: 2

Read mode : Secure
Utilize accurate stream : Yes
Defeat audio cache : Yes
Make use of C2 pointers : No

Read offset correction : 48
Overread into Lead-In and Lead-Out : No
Fill up missing offset samples with silence : Yes
Delete leading and trailing silent blocks : No
Null samples used in CRC calculations : Yes
Used interface : Native Win32 interface for Win NT & 2000
Gap handling : Appended to previous track

Used output format : User Defined Encoder
Selected bitrate : 1024 kBit/s
Quality : High
Add ID3 tag : No
Command line compressor : C:\Program Files (x86)\Exact Audio Copy\Flac\flac.exe
Additional command line options : -8 -V -T "ARTIST=%artist%" -T "TITLE=%title%" -T "ALBUM=%albumtitle%" -T "DATE=%year%" -T "TRACKNUMBER=%tracknr%" -T "GENRE=%genre%" -T "PERFORMER=%albuminterpret%" -T "COMPOSER=%composer%" %haslyrics%–tag-from-file=LYRICS="%lyricsfile%"%haslyrics% -T "ALBUMARTIST=%albumartist%" -T "DISCNUMBER=%cdnumber%" -T "TOTALDISCS=%totalcds%" -T "TOTALTRACKS=%numtracks%" -T "COMMENT=%comment%" %source% -o %dest%


TOC of the extracted CD

Track | Start | Length | Start sector | End sector
––––––––––––––––––––––––––––-
1 | 0:00.00 | 5:07.01 | 0 | 23025
2 | 5:07.01 | 0:06.39 | 23026 | 23514
3 | 5:13.40 | 3:02.15 | 23515 | 37179
4 | 8:15.55 | 6:13.69 | 37180 | 65223
5 | 14:29.49 | 0:18.55 | 65224 | 66628
6 | 14:48.29 | 0:05.58 | 66629 | 67061
7 | 14:54.12 | 3:41.52 | 67062 | 83688
8 | 18:35.64 | 0:17.68 | 83689 | 85031
9 | 18:53.57 | 3:02.60 | 85032 | 98741
10 | 21:56.42 | 4:29.36 | 98742 | 118952
11 | 26:26.03 | 0:06.04 | 118953 | 119406
12 | 26:32.07 | 5:07.04 | 119407 | 142435
13 | 31:39.11 | 4:39.52 | 142436 | 163412
14 | 36:18.63 | 0:21.37 | 163413 | 165024
15 | 36:40.25 | 4:09.69 | 165025 | 183768
16 | 40:50.19 | 4:40.14 | 183769 | 204782
17 | 45:30.33 | 0:19.39 | 204783 | 206246
18 | 45:49.72 | 5:11.67 | 206247 | 229638
19 | 51:01.64 | 0:20.33 | 229639 | 231171
20 | 51:22.22 | 0:51.21 | 231172 | 235017


Track 1

Filename C:\new flac rips\VA - When We Were Kings (OST) -1997\01 - Fugees featuring A Tribe Called Quest, Busta Rhymes & Forte - Rumble In The Jungle.wav

Pre-gap length 0:00:02.00

Peak level 99.9 %
Extraction speed 3.9 X
Track quality 100.0 %
Test CRC 91B4A69F
Copy CRC 91B4A69F
Accurately ripped (confidence 10) [BAD5AADF] (AR v2)
Copy OK

Track 2

Filename C:\new flac rips\VA - When We Were Kings (OST) -1997\02 - Drew ''Bundini'' Brown - [Dialogue].wav

Peak level 39.1 %
Extraction speed 0.8 X
Track quality 100.0 %
Test CRC 416F9925
Copy CRC 416F9925
Accurately ripped (confidence 10) [66B9AAD7] (AR v2)
Copy OK

Track 3

Filename C:\new flac rips\VA - When We Were Kings (OST) -1997\03 - Bill Withers - Ain't No Sunshine , You (Medley).wav

Peak level 99.9 %
Extraction speed 4.5 X
Track quality 100.0 %
Test CRC 7BE2F99C
Copy CRC 7BE2F99C
Accurately ripped (confidence 10) [90A610BB] (AR v2)
Copy OK

Track 4

Filename C:\new flac rips\VA - When We Were Kings (OST) -1997\04 - B.B. King - Sweet Sixteen.wav

Peak level 99.9 %
Extraction speed 5.4 X
Track quality 100.0 %
Test CRC 9EBBEA35
Copy CRC 9EBBEA35
Accurately ripped (confidence 10) [040590EC] (AR v2)
Copy OK

Track 5

Filename C:\new flac rips\VA - When We Were Kings (OST) -1997\05 - African Girls Chant - [Dialogue].wav

Peak level 31.1 %
Extraction speed 2.2 X
Track quality 100.0 %
Test CRC 21709628
Copy CRC 21709628
Accurately ripped (confidence 10) [B3380679] (AR v2)
Copy OK

Track 6

Filename C:\new flac rips\VA - When We Were Kings (OST) -1997\06 - Ali - ''When I Get to Africa''.wav

Peak level 59.8 %
Extraction speed 0.9 X
Track quality 100.0 %
Test CRC 30F7A61E
Copy CRC 30F7A61E
Track not present in AccurateRip database
Copy OK

Track 7

Filename C:\new flac rips\VA - When We Were Kings (OST) -1997\07 - James Brown - The Payback.wav

Peak level 90.1 %
Extraction speed 5.6 X
Track quality 100.0 %
Test CRC A0E34FC4
Copy CRC A0E34FC4
Accurately ripped (confidence 10) [6B4BDDAB] (AR v2)
Copy OK

Track 8

Filename C:\new flac rips\VA - When We Were Kings (OST) -1997\08 - Mobütu Chant - [Dialogue].wav

Peak level 52.8 %
Extraction speed 0.6 X
Track quality 99.4 %
Test CRC A03296D6
Copy CRC A03296D6
Accurately ripped (confidence 10) [B6BDFED5] (AR v2)
Copy OK

Track 9

Filename C:\new flac rips\VA - When We Were Kings (OST) -1997\09 - The Spinners - I'll Be Around.wav

Peak level 99.9 %
Extraction speed 5.9 X
Track quality 100.0 %
Test CRC 787BB16F
Copy CRC 787BB16F
Accurately ripped (confidence 10) [9BA104B6] (AR v2)
Copy OK

Track 10

Filename C:\new flac rips\VA - When We Were Kings (OST) -1997\10 - The Crusaders - Put It Where You Want It.wav

Peak level 99.9 %
Extraction speed 6.3 X
Track quality 100.0 %
Test CRC 4782E3BD
Copy CRC 4782E3BD
Accurately ripped (confidence 10) [55FA8EDF] (AR v2)
Copy OK

Track 11

Filename C:\new flac rips\VA - When We Were Kings (OST) -1997\11 - Ali - ''Wait Till I Kick Foreman's Behind''.wav

Peak level 59.1 %
Extraction speed 1.0 X
Track quality 100.0 %
Test CRC 495EFA74
Copy CRC 495EFA74
Accurately ripped (confidence 10) [5C6832B8] (AR v2)
Copy OK

Track 12

Filename C:\new flac rips\VA - When We Were Kings (OST) -1997\12 - B.B. King - I Got Some Help I Don't Need.wav

Peak level 99.9 %
Extraction speed 5.0 X
Track quality 99.9 %
Test CRC 5BAC921C
Copy CRC 5BAC921C
Accurately ripped (confidence 10) [D1A05F7F] (AR v2)
Copy OK

Track 13

Filename C:\new flac rips\VA - When We Were Kings (OST) -1997\13 - James Brown - Gonna Have A Funky Good Time.wav

Peak level 99.9 %
Extraction speed 6.7 X
Track quality 100.0 %
Test CRC 3DE33031
Copy CRC 3DE33031
Accurately ripped (confidence 10) [4BAAE03C] (AR v2)
Copy OK

Track 14

Filename C:\new flac rips\VA - When We Were Kings (OST) -1997\14 - Ali - ''Mr. Tooth Decay''.wav

Peak level 49.1 %
Extraction speed 3.0 X
Track quality 100.0 %
Test CRC 6FCC1564
Copy CRC 6FCC1564
Accurately ripped (confidence 10) [534182AB] (AR v2)
Copy OK

Track 15

Filename C:\new flac rips\VA - When We Were Kings (OST) -1997\15 - The Spinners - I'm Coming Home.wav

Peak level 99.9 %
Extraction speed 6.5 X
Track quality 100.0 %
Test CRC 886AD35B
Copy CRC 886AD35B
Accurately ripped (confidence 10) [40A1108C] (AR v2)
Copy OK

Track 16

Filename C:\new flac rips\VA - When We Were Kings (OST) -1997\16 - Brian McKnight And Diana King - When We Were Kings.wav

Peak level 99.9 %
Extraction speed 5.5 X
Track quality 99.9 %
Test CRC 1E93FE28
Copy CRC 1E93FE28
Accurately ripped (confidence 10) [AC7BF671] (AR v2)
Copy OK

Track 17

Filename C:\new flac rips\VA - When We Were Kings (OST) -1997\17 - Drew ''Bundini'' Brown - [Dialogue].wav

Peak level 24.1 %
Extraction speed 3.1 X
Track quality 100.0 %
Test CRC CD687904
Copy CRC CD687904
Accurately ripped (confidence 10) [6C14E845] (AR v2)
Copy OK

Track 18

Filename C:\new flac rips\VA - When We Were Kings (OST) -1997\18 - Zelma Davis - I'm Calling (Say It Loud).wav

Peak level 99.9 %
Extraction speed 8.0 X
Track quality 100.0 %
Test CRC 070DF3DF
Copy CRC 070DF3DF
Accurately ripped (confidence 10) [791E69E4] (AR v2)
Copy OK

Track 19

Filename C:\new flac rips\VA - When We Were Kings (OST) -1997\19 - Ali - ''You Out Sucker''.wav

Peak level 35.3 %
Extraction speed 3.2 X
Track quality 100.0 %
Test CRC D48296EC
Copy CRC D48296EC
Accurately ripped (confidence 10) [DB271D99] (AR v2)
Copy OK

Track 20

Filename C:\new flac rips\VA - When We Were Kings (OST) -1997\20 - [Dialogue] - Chant.wav

Peak level 55.9 %
Extraction speed 5.3 X
Track quality 100.0 %
Test CRC 3E7D331A
Copy CRC 3E7D331A
Accurately ripped (confidence 10) [518B85A5] (AR v2)
Copy OK


19 track(s) accurately ripped
1 track(s) not present in the AccurateRip database

Some tracks could not be verified as accurate

No errors occurred

End of status report

–– CUETools DB Plugin V2.1.4

[CTDB TOCID: ljJPtq1c5l34cOxLW4JdKhsZvls-] found
Submit result: ljJPtq1c5l34cOxLW4JdKhsZvls- has been confirmed
Track | CTDB Status
1 | (8/8) Accurately ripped
2 | (8/8) Accurately ripped
3 | (8/8) Accurately ripped
4 | (8/8) Accurately ripped
5 | (8/8) Accurately ripped
6 | (8/8) Accurately ripped
7 | (8/8) Accurately ripped
8 | (8/8) Accurately ripped
9 | (8/8) Accurately ripped
10 | (8/8) Accurately ripped
11 | (8/8) Accurately ripped
12 | (8/8) Accurately ripped
13 | (8/8) Accurately ripped
14 | (8/8) Accurately ripped
15 | (8/8) Accurately ripped
16 | (8/8) Accurately ripped
17 | (8/8) Accurately ripped
18 | (8/8) Accurately ripped
19 | (8/8) Accurately ripped
20 | (8/8) Accurately ripped


==== Log checksum FA8289C0B2C4F0F8C7A7E9F5C21EDAC7C21980729D85FC89A37EB5491C9DF30A ====