Tags
Language
Tags

Wilhelm Furtwängler: Das Vermächtnis / The Legacy - Box 11: Honegger, Fothner, Blacher, Berlioz, Verdi & others (2010)

Posted By: ArlegZ
Wilhelm Furtwängler: Das Vermächtnis / The Legacy - Box 11: Honegger, Fothner, Blacher, Berlioz, Verdi & others (2010)

Wilhelm Furtwängler: Das Vermächtnis / The Legacy - Box 11: Honegger, Fortner, Blacher, Berlioz, Verdi & others (2010)
EAC | FLAC | Image (Cue & Log) ~ 3.03 Gb | Total time: 13:52:21 | Scans included
Classical | Label: Membran Music | # 233110 | Recorded: 1926-1954

Conductor Wilhelm Furtwangler already enjoyed a worldwide legendary standing during his lifetime - he was considered the German conductor and performances were greeted with rapturous applause. Today, more than 50 years after his death, Wilhelm Furtwangler is still an icon and his work has become an integral part ofthe music scene.
But just what makes up this fascination? And what makes his recordings so special? This edition provides the answers.
These 107 CDs contain all the works Furtwangler ever recorded for release on record - and the "live" recordings he made for radio broadcast. In the case of different versions of the same work having been produced (for example there are 12 recordings of Beethoven's Eroica!.0 the best, most beautiful, or the most exciting interpretations have been chosen for this edition. In addition the numerous bonus CDs and tracks present excerpts taken from alternative recordings.
From his very first recording (Weber's Freischiitz Overture, 1928) to his very last (Wagner's Valkyrie, 1954), this edition features productions of all the Beethoven and Brahms symphonies, the complete Rome recording of Wagner's Ring, recordings of the famous symphonies composed by Schubert, Schumann, Bruckner and Mozart, highlights taken from the Salzburg recordings of Don Giovanni, Magic Flute and Figaro, a live Bayreuth recording of Mastersingers etc. etc. etc.
The edition has been complemented by recordings of rehearsals and interviews. In addition the recording of the famous Salzburg song recital in 1953 reflects on the pianist Wilhelm Furtwangler as accompanist to Elisabeth Schwarzkopf.
Furthermore, the edition contains a DVD with a video clip featuring the famous music critic Prof. Dr. Joachim Kaiser, who provides the answer to the question: why is Wilhelm Furtwangler still the most famous conductor in the world?

Contents:
CD 95:
Arthur Honegger (1892-1955)
- Mouvement symphonique No. 3 - Berlin Philharmonic 02/10/1952
Wolfgang Fortner (1907-1987)
- Concerto for Violin and Large Chamber Orchestra - Gerhard Taschner violin, Berlin Philharmonic 12/18/1949
Boris Blacher (1903-1975)
- Concertante Music for Orchestra - Berlin Philharmonic 04/27/1954
CD 96-97:
Hector Berlioz (1803-1969)
- The Damnation of Faust - Frans Vroons, Hans Hotter, Elisabeth Schwarzkopf, Lucerne Festival Orchestra and Chorus 08/26/1950
CD 98:
César Franck (1822-1890)
- Symphony in D minor - Vienna Philharmonic 1954
Moris Ravel (1875-1937)
- Daphnis et Chloé: Suite Nr. 2 - Berlin Philharmonic 03/21/1944
CD 99
Luigi Cherubini (1760-1842)
- Anacreon: Overture - Vienna Philharmonic 01/11/1951
Johann Strauss II (1825-1899)
- Kaiserwalzer op. 347 - Vienna Philharmonic 01/24/1950
Josef Strauss (1827-1970)
- Pizzicato-Polka - Vienna Philharmonic 01/24/1950
Johann Strauss II (1825-1899)
- Die Fledermaus op. 362: Overture - Berlin Philharmonic 1937
Gioachino Rossini (1792-1868)
- La Gazza Ladra: Overture - Berlin Philharmonic 1930
- Il Barbiere di Siviglia: Overture - Berlin Philharmonic 1935
CD 100:
Ernst Pepping (1901-1981)
- Symphony No.2 - Berlin Philharmonic 1943
Heinz Schubert (1908-1945)
- Hymnic Concerto for Soloists, Organ and Orchestra - Berlin Philharmonic 1942
CD 101-102:
Wilhelm Furtwängler (1886-1954)
- Symphony No.2 - Berlin Philharmonic 12/1951
Béla Bartók (1881-1945)
- Violin Concerto No.2 - Yehudi Menuhin violin, Philharmonia Orchestra 09/12-13/1953
CD 103:
Wilhelm Furtwängler
- Symphonic Concerto for Piano and Orchestra - Edwin Fischer piano, Berlin Philharmonic 01/19/1939
CD 104-105:
Giuseppe Verdi (1813-1901)
- Otello - Ramón Vinay, Dragicia Martinis, Paul Schöffler, Vienna State Opera Choir, Vienna Philharmonic 08/07/1951
CD 106:
Hugo Wolf (1860-1903)
- Morike-Lieder, Goethe-Lieder, Italienisches Liederbuch (excerpts), Spanisches Liederbuch (excerpts), Sechs alte Weisen (excerpt), Sechs Lieder fur eine Frauenstimme (excerpt), Eichendorff-Lieder - Elisabeth Schwarzkopf, Wilhelm Furtwängler piano 08/12/1953
CD 107:
Excerpts from rehearsals, speeches and interviews



Exact Audio Copy V1.5 from 20. February 2020

EAC extraction logfile from 1. February 2021, 14:55

Wilhelm Furtwängler, Berliner Philharmoniker / Das Vermächtnis (The Legacy) - CD 95

Used drive : HL-DT-STDVDRAM GH24NS95 Adapter: 1 ID: 0

Read mode : Secure
Utilize accurate stream : Yes
Defeat audio cache : Yes
Make use of C2 pointers : No

Read offset correction : 6
Overread into Lead-In and Lead-Out : No
Fill up missing offset samples with silence : Yes
Delete leading and trailing silent blocks : No
Null samples used in CRC calculations : Yes
Used interface : Native Win32 interface for Win NT & 2000

Used output format : User Defined Encoder
Selected bitrate : 128 kBit/s
Quality : High
Add ID3 tag : No
Command line compressor : C:\Program Files\Exact Audio Copy\Flac\flac.exe
Additional command line options : -V -8 -T "Date=%year%" -T "Genre=%genre%" %source%


TOC of the extracted CD

Track | Start | Length | Start sector | End sector
––––––––––––––––––––––––––––-
1 | 0:00.00 | 10:18.22 | 0 | 46371
2 | 10:18.22 | 6:13.17 | 46372 | 74363
3 | 16:31.39 | 9:44.10 | 74364 | 118173
4 | 26:15.49 | 6:22.49 | 118174 | 146872
5 | 32:38.23 | 9:39.11 | 146873 | 190308


Range status and errors

Selected range

Filename C:\ArlegZ\Wilhelm Furtwangler - Das Vermachtnis (The Legacy) - CD 95.wav

Peak level 96.6 %
Extraction speed 1.6 X
Range quality 99.9 %
Test CRC 239B8C18
Copy CRC 239B8C18
Copy OK

No errors occurred


AccurateRip summary

Track 1 accurately ripped (confidence 18) [FE40FC3E] (AR v2)
Track 2 accurately ripped (confidence 18) [E135E70C] (AR v2)
Track 3 accurately ripped (confidence 18) [6DD93974] (AR v2)
Track 4 accurately ripped (confidence 18) [BA4EEA4E] (AR v2)
Track 5 accurately ripped (confidence 18) [BCB3D998] (AR v2)

All tracks accurately ripped

End of status report

–– CUETools DB Plugin V2.1.6

[CTDB TOCID: XMfmLo_XfsExF8orHxFu7n.3DTU-] found
Submit result: XMfmLo_XfsExF8orHxFu7n.3DTU- has been confirmed
Track | CTDB Status
1 | (42/42) Accurately ripped
2 | (42/42) Accurately ripped
3 | (42/42) Accurately ripped
4 | (42/42) Accurately ripped
5 | (42/42) Accurately ripped


==== Log checksum 0A210A19B42DD33277D50D6E8E9E5936295C0EA8EDE9362D5F66F4743EE02A3A ====


Exact Audio Copy V1.5 from 20. February 2020

EAC extraction logfile from 1. February 2021, 17:10

Wilhelm Furtwängler, Choeur et Orchestre du Festival Lucerne / Das Vermächtnis (The Legacy) - CD 96

Used drive : HL-DT-STDVDRAM GH24NS95 Adapter: 1 ID: 0

Read mode : Secure
Utilize accurate stream : Yes
Defeat audio cache : Yes
Make use of C2 pointers : No

Read offset correction : 6
Overread into Lead-In and Lead-Out : No
Fill up missing offset samples with silence : Yes
Delete leading and trailing silent blocks : No
Null samples used in CRC calculations : Yes
Used interface : Native Win32 interface for Win NT & 2000

Used output format : User Defined Encoder
Selected bitrate : 128 kBit/s
Quality : High
Add ID3 tag : No
Command line compressor : C:\Program Files\Exact Audio Copy\Flac\flac.exe
Additional command line options : -V -8 -T "Date=%year%" -T "Genre=%genre%" %source%


TOC of the extracted CD

Track | Start | Length | Start sector | End sector
––––––––––––––––––––––––––––-
1 | 0:00.00 | 7:09.47 | 0 | 32221
2 | 7:09.47 | 4:31.10 | 32222 | 52556
3 | 11:40.57 | 0:53.25 | 52557 | 56556
4 | 12:34.07 | 5:01.23 | 56557 | 79154
5 | 17:35.30 | 5:00.60 | 79155 | 101714
6 | 22:36.15 | 8:42.30 | 101715 | 140894
7 | 31:18.45 | 1:50.40 | 140895 | 149184
8 | 33:09.10 | 3:36.12 | 149185 | 165396
9 | 36:45.22 | 1:41.65 | 165397 | 173036
10 | 38:27.12 | 3:41.15 | 173037 | 189626
11 | 42:08.27 | 4:27.18 | 189627 | 209669
12 | 46:35.45 | 2:34.05 | 209670 | 221224
13 | 49:09.50 | 7:28.52 | 221225 | 254876
14 | 56:38.27 | 3:21.18 | 254877 | 269969
15 | 59:59.45 | 1:19.30 | 269970 | 275924
16 | 61:19.00 | 6:12.30 | 275925 | 303854


Range status and errors

Selected range

Filename C:\ArlegZ\Wilhelm Furtwangler - Das Vermachtnis (The Legacy) - CD 96.wav

Peak level 96.6 %
Extraction speed 1.8 X
Range quality 99.9 %
Test CRC 85FB4736
Copy CRC 85FB4736
Copy OK

No errors occurred


AccurateRip summary

Track 1 accurately ripped (confidence 22) [590D499D] (AR v2)
Track 2 accurately ripped (confidence 23) [EC51F433] (AR v2)
Track 3 accurately ripped (confidence 23) [E94848CC] (AR v2)
Track 4 accurately ripped (confidence 23) [2B93CE48] (AR v2)
Track 5 accurately ripped (confidence 23) [0874465B] (AR v2)
Track 6 accurately ripped (confidence 23) [B81253B4] (AR v2)
Track 7 accurately ripped (confidence 23) [826B0141] (AR v2)
Track 8 accurately ripped (confidence 23) [29755F8F] (AR v2)
Track 9 accurately ripped (confidence 23) [B4D99C08] (AR v2)
Track 10 accurately ripped (confidence 23) [4D3AE881] (AR v2)
Track 11 accurately ripped (confidence 23) [0D8EBE2B] (AR v2)
Track 12 accurately ripped (confidence 23) [0E2E89E0] (AR v2)
Track 13 accurately ripped (confidence 22) [2FF1A61B] (AR v2)
Track 14 accurately ripped (confidence 23) [1B25E40F] (AR v2)
Track 15 accurately ripped (confidence 23) [C39FB323] (AR v2)
Track 16 accurately ripped (confidence 23) [F98940C4] (AR v2)

All tracks accurately ripped

End of status report

–– CUETools DB Plugin V2.1.6

[CTDB TOCID: u.gWcrJmajH43_sHhW9c3r.ijZk-] found
Submit result: u.gWcrJmajH43_sHhW9c3r.ijZk- has been confirmed
Track | CTDB Status
1 | (48/48) Accurately ripped
2 | (48/48) Accurately ripped
3 | (48/48) Accurately ripped
4 | (48/48) Accurately ripped
5 | (48/48) Accurately ripped
6 | (48/48) Accurately ripped
7 | (48/48) Accurately ripped
8 | (48/48) Accurately ripped
9 | (48/48) Accurately ripped
10 | (48/48) Accurately ripped
11 | (48/48) Accurately ripped
12 | (48/48) Accurately ripped
13 | (47/48) Accurately ripped
14 | (48/48) Accurately ripped
15 | (48/48) Accurately ripped
16 | (47/48) Accurately ripped


==== Log checksum E004CE80985EBA064B5AF504687A05D68BBE3D84D409D8E192D26B0B456122C8 ====


Exact Audio Copy V1.5 from 20. February 2020

EAC extraction logfile from 1. February 2021, 18:06

Wilhelm Furtwängler, Choeur et Orchestre du Festival Lucerne / Das Vermächtnis (The Legacy) - CD 97

Used drive : HL-DT-STDVDRAM GH24NS95 Adapter: 1 ID: 0

Read mode : Secure
Utilize accurate stream : Yes
Defeat audio cache : Yes
Make use of C2 pointers : No

Read offset correction : 6
Overread into Lead-In and Lead-Out : No
Fill up missing offset samples with silence : Yes
Delete leading and trailing silent blocks : No
Null samples used in CRC calculations : Yes
Used interface : Native Win32 interface for Win NT & 2000

Used output format : User Defined Encoder
Selected bitrate : 128 kBit/s
Quality : High
Add ID3 tag : No
Command line compressor : C:\Program Files\Exact Audio Copy\Flac\flac.exe
Additional command line options : -V -8 -T "Date=%year%" -T "Genre=%genre%" %source%


TOC of the extracted CD

Track | Start | Length | Start sector | End sector
––––––––––––––––––––––––––––-
1 | 0:00.00 | 1:14.27 | 0 | 5576
2 | 1:14.27 | 6:10.50 | 5577 | 33376
3 | 7:25.02 | 1:46.18 | 33377 | 41344
4 | 9:11.20 | 2:37.25 | 41345 | 53144
5 | 11:48.45 | 7:08.35 | 53145 | 85279
6 | 18:57.05 | 2:20.37 | 85280 | 95816
7 | 21:17.42 | 6:04.10 | 95817 | 123126
8 | 27:21.52 | 2:51.20 | 123127 | 135971
9 | 30:12.72 | 5:54.15 | 135972 | 162536
10 | 36:07.12 | 5:53.38 | 162537 | 189049
11 | 42:00.50 | 8:59.55 | 189050 | 229529
12 | 51:00.30 | 2:51.37 | 229530 | 242391
13 | 53:51.67 | 5:40.15 | 242392 | 267906
14 | 59:32.07 | 3:24.40 | 267907 | 283246
15 | 62:56.47 | 4:00.52 | 283247 | 301298
16 | 66:57.24 | 5:31.03 | 301299 | 326126
17 | 72:28.27 | 5:46.20 | 326127 | 352096


Range status and errors

Selected range

Filename C:\ArlegZ\Wilhelm Furtwangler - Das Vermachtnis (The Legacy) - CD 97.wav

Peak level 93.3 %
Extraction speed 2.0 X
Range quality 100.0 %
Test CRC 860C52B6
Copy CRC 860C52B6
Copy OK

No errors occurred


AccurateRip summary

Track 1 accurately ripped (confidence 23) [9306A689] (AR v2)
Track 2 accurately ripped (confidence 23) [2C7F0ECE] (AR v2)
Track 3 accurately ripped (confidence 23) [B73834C5] (AR v2)
Track 4 accurately ripped (confidence 23) [F77F6292] (AR v2)
Track 5 accurately ripped (confidence 23) [3903FF44] (AR v2)
Track 6 accurately ripped (confidence 23) [1CE7D4D4] (AR v2)
Track 7 accurately ripped (confidence 23) [998C1868] (AR v2)
Track 8 accurately ripped (confidence 23) [6F85ED8A] (AR v2)
Track 9 accurately ripped (confidence 23) [C0551571] (AR v2)
Track 10 accurately ripped (confidence 23) [31A71A6F] (AR v2)
Track 11 accurately ripped (confidence 23) [F2AA2DE4] (AR v2)
Track 12 accurately ripped (confidence 23) [BD956564] (AR v2)
Track 13 accurately ripped (confidence 23) [638690F0] (AR v2)
Track 14 accurately ripped (confidence 23) [EA51F2EA] (AR v2)
Track 15 accurately ripped (confidence 23) [BBA449E3] (AR v2)
Track 16 accurately ripped (confidence 23) [3F996FEA] (AR v2)
Track 17 accurately ripped (confidence 23) [FA693D0A] (AR v2)

All tracks accurately ripped

End of status report

–– CUETools DB Plugin V2.1.6

[CTDB TOCID: 6WAohLqlPtIM6NGpv93JLKhsZn8-] found
Submit result: 6WAohLqlPtIM6NGpv93JLKhsZn8- has been confirmed
Track | CTDB Status
1 | (45/45) Accurately ripped
2 | (45/45) Accurately ripped
3 | (45/45) Accurately ripped
4 | (45/45) Accurately ripped
5 | (45/45) Accurately ripped
6 | (45/45) Accurately ripped
7 | (45/45) Accurately ripped
8 | (45/45) Accurately ripped
9 | (45/45) Accurately ripped
10 | (45/45) Accurately ripped
11 | (45/45) Accurately ripped
12 | (45/45) Accurately ripped
13 | (45/45) Accurately ripped
14 | (45/45) Accurately ripped
15 | (45/45) Accurately ripped
16 | (45/45) Accurately ripped
17 | (36/45) Accurately ripped, or (9/45) differs in 2 samples @00:00:05,05:43:12


==== Log checksum F9FE57DFBFE58CE83C1BA91CB3ED452F0782FC48364822B1DEBF29B91CD5CBE5 ====


Exact Audio Copy V1.5 from 20. February 2020

EAC extraction logfile from 1. February 2021, 19:03

Wilhelm Furtwängler / Das Vermächtnis (The Legacy) - CD 98

Used drive : HL-DT-STDVDRAM GH24NS95 Adapter: 1 ID: 0

Read mode : Secure
Utilize accurate stream : Yes
Defeat audio cache : Yes
Make use of C2 pointers : No

Read offset correction : 6
Overread into Lead-In and Lead-Out : No
Fill up missing offset samples with silence : Yes
Delete leading and trailing silent blocks : No
Null samples used in CRC calculations : Yes
Used interface : Native Win32 interface for Win NT & 2000

Used output format : User Defined Encoder
Selected bitrate : 128 kBit/s
Quality : High
Add ID3 tag : No
Command line compressor : C:\Program Files\Exact Audio Copy\Flac\flac.exe
Additional command line options : -V -8 -T "Date=%year%" -T "Genre=%genre%" %source%


TOC of the extracted CD

Track | Start | Length | Start sector | End sector
––––––––––––––––––––––––––––-
1 | 0:00.00 | 18:15.57 | 0 | 82181
2 | 18:15.57 | 10:37.73 | 82182 | 130029
3 | 28:53.55 | 10:42.16 | 130030 | 178195
4 | 39:35.71 | 16:30.59 | 178196 | 252504


Range status and errors

Selected range

Filename C:\ArlegZ\Wilhelm Furtwangler - Das Vermachtnis (The Legacy) - CD 98.wav

Peak level 96.9 %
Extraction speed 1.7 X
Range quality 100.0 %
Test CRC D10D89EA
Copy CRC D10D89EA
Copy OK

No errors occurred


AccurateRip summary

Track 1 accurately ripped (confidence 20) [C8531AAA] (AR v2)
Track 2 accurately ripped (confidence 20) [C92970CD] (AR v2)
Track 3 accurately ripped (confidence 20) [10331D3D] (AR v2)
Track 4 accurately ripped (confidence 19) [6797332D] (AR v2)

All tracks accurately ripped

End of status report

–– CUETools DB Plugin V2.1.6

[CTDB TOCID: 6V.hTE9hDjUW9PUj9XfWxZTvrts-] found
Submit result: 6V.hTE9hDjUW9PUj9XfWxZTvrts- has been confirmed
Track | CTDB Status
1 | (41/41) Accurately ripped
2 | (41/41) Accurately ripped
3 | (41/41) Accurately ripped
4 | (41/41) Accurately ripped


==== Log checksum 2EB8E8652C7306FD8E7C4D509B715C16EC6069316A1334CB30DDAED193D1ADD0 ====


Exact Audio Copy V1.5 from 20. February 2020

EAC extraction logfile from 1. February 2021, 19:55

Wilhelm Furtwängler / Das Vermächtnis (The Legacy) - CD 99

Used drive : HL-DT-STDVDRAM GH24NS95 Adapter: 1 ID: 0

Read mode : Secure
Utilize accurate stream : Yes
Defeat audio cache : Yes
Make use of C2 pointers : No

Read offset correction : 6
Overread into Lead-In and Lead-Out : No
Fill up missing offset samples with silence : Yes
Delete leading and trailing silent blocks : No
Null samples used in CRC calculations : Yes
Used interface : Native Win32 interface for Win NT & 2000

Used output format : User Defined Encoder
Selected bitrate : 128 kBit/s
Quality : High
Add ID3 tag : No
Command line compressor : C:\Program Files\Exact Audio Copy\Flac\flac.exe
Additional command line options : -V -8 -T "Date=%year%" -T "Genre=%genre%" %source%


TOC of the extracted CD

Track | Start | Length | Start sector | End sector
––––––––––––––––––––––––––––-
1 | 0:00.00 | 9:35.36 | 0 | 43160
2 | 9:35.36 | 9:30.01 | 43161 | 85911
3 | 19:05.37 | 2:49.01 | 85912 | 98587
4 | 21:54.38 | 8:21.30 | 98588 | 136192
5 | 30:15.68 | 9:10.29 | 136193 | 177471
6 | 39:26.22 | 7:09.15 | 177472 | 209661


Range status and errors

Selected range

Filename C:\ArlegZ\Wilhelm Furtwangler - Das Vermachtnis (The Legacy) - CD 99.wav

Peak level 97.7 %
Extraction speed 1.6 X
Range quality 100.0 %
Test CRC 5FB25156
Copy CRC 5FB25156
Copy OK

No errors occurred


AccurateRip summary

Track 1 accurately ripped (confidence 19) [B6989F08] (AR v2)
Track 2 accurately ripped (confidence 19) [27421671] (AR v2)
Track 3 accurately ripped (confidence 19) [A3946AA8] (AR v2)
Track 4 accurately ripped (confidence 19) [244CC0BF] (AR v2)
Track 5 accurately ripped (confidence 19) [46984878] (AR v2)
Track 6 accurately ripped (confidence 19) [1D43807E] (AR v2)

All tracks accurately ripped

End of status report

–– CUETools DB Plugin V2.1.6

[CTDB TOCID: GvN7g5VgHJY7g8VgDLROIivPuYU-] found
Submit result: GvN7g5VgHJY7g8VgDLROIivPuYU- has been confirmed
Track | CTDB Status
1 | (40/40) Accurately ripped
2 | (40/40) Accurately ripped
3 | (40/40) Accurately ripped
4 | (40/40) Accurately ripped
5 | (40/40) Accurately ripped
6 | (39/40) Accurately ripped


==== Log checksum E26DEF237FC742700B584F542E936BB8E1858C82A6918B7906CED32F75433EEF ====


Exact Audio Copy V1.5 from 20. February 2020

EAC extraction logfile from 1. February 2021, 20:49

Wilhelm Furtwängler, Berliner Philharmoniker / Das Vermächtnis (The Legacy) - CD 100

Used drive : HL-DT-STDVDRAM GH24NS95 Adapter: 1 ID: 0

Read mode : Secure
Utilize accurate stream : Yes
Defeat audio cache : Yes
Make use of C2 pointers : No

Read offset correction : 6
Overread into Lead-In and Lead-Out : No
Fill up missing offset samples with silence : Yes
Delete leading and trailing silent blocks : No
Null samples used in CRC calculations : Yes
Used interface : Native Win32 interface for Win NT & 2000

Used output format : User Defined Encoder
Selected bitrate : 128 kBit/s
Quality : High
Add ID3 tag : No
Command line compressor : C:\Program Files\Exact Audio Copy\Flac\flac.exe
Additional command line options : -V -8 -T "Date=%year%" -T "Genre=%genre%" %source%


TOC of the extracted CD

Track | Start | Length | Start sector | End sector
––––––––––––––––––––––––––––-
1 | 0:00.00 | 12:32.50 | 0 | 56449
2 | 12:32.50 | 10:12.40 | 56450 | 102389
3 | 22:45.15 | 7:35.73 | 102390 | 136587
4 | 30:21.13 | 7:30.16 | 136588 | 170353
5 | 37:51.29 | 37:42.68 | 170354 | 340071


Range status and errors

Selected range

Filename C:\ArlegZ\Wilhelm Furtwangler - Das Vermachtnis (The Legacy) - CD 100.wav

Peak level 96.6 %
Extraction speed 2.0 X
Range quality 100.0 %
Test CRC 96F4DE24
Copy CRC 96F4DE24
Copy OK

No errors occurred


AccurateRip summary

Track 1 accurately ripped (confidence 20) [C3DCE43F] (AR v2)
Track 2 accurately ripped (confidence 19) [61916A8D] (AR v2)
Track 3 accurately ripped (confidence 20) [084AD534] (AR v2)
Track 4 accurately ripped (confidence 20) [28991A01] (AR v2)
Track 5 accurately ripped (confidence 13) [6FDE28DB] (AR v2)

All tracks accurately ripped

End of status report

–– CUETools DB Plugin V2.1.6

[CTDB TOCID: ZF6hldSpY9AxjbZMiCzMS7SyqKQ-] found
Submit result: ZF6hldSpY9AxjbZMiCzMS7SyqKQ- has been confirmed
Track | CTDB Status
1 | (32/32) Accurately ripped
2 | (32/32) Accurately ripped
3 | (32/32) Accurately ripped
4 | (32/32) Accurately ripped
5 | (31/32) Accurately ripped


==== Log checksum 8472A9BA613B66CA49D3793953E214782BA8F2B20A3CD3D0DCBBFCDA8EC31379 ====


Wilhelm Furtwängler: Das Vermächtnis / The Legacy - Box 11: Honegger, Fothner, Blacher, Berlioz, Verdi & others (2010)