Subcategories
Tags
Language
Tags

Wilhelm Furtwängler: Das Vermächtnis / The Legacy - Box 6: Mendelssohn, Schumann, Weber, Nicolai (2010)

Posted By: ArlegZ
Wilhelm Furtwängler: Das Vermächtnis / The Legacy - Box 6: Mendelssohn, Schumann, Weber, Nicolai (2010)

Wilhelm Furtwängler: Das Vermächtnis / The Legacy - Box 6: Mendelssohn, Schumann, Weber, Nicolai (2010)
EAC | FLAC | Image (Cue & Log) ~ 1.88 Gb | Total time: 07:03:35 | Scans included
Classical | Label: Membran Music | # 233110 | Recorded: 1926-1954

Conductor Wilhelm Furtwangler already enjoyed a worldwide legendary standing during his lifetime - he was considered the German conductor and performances were greeted with rapturous applause. Today, more than 50 years after his death, Wilhelm Furtwangler is still an icon and his work has become an integral part ofthe music scene.
But just what makes up this fascination? And what makes his recordings so special? This edition provides the answers.
These 107 CDs contain all the works Furtwangler ever recorded for release on record - and the "live" recordings he made for radio broadcast. In the case of different versions of the same work having been produced (for example there are 12 recordings of Beethoven's Eroica!.0 the best, most beautiful, or the most exciting interpretations have been chosen for this edition. In addition the numerous bonus CDs and tracks present excerpts taken from alternative recordings.
From his very first recording (Weber's Freischiitz Overture, 1928) to his very last (Wagner's Valkyrie, 1954), this edition features productions of all the Beethoven and Brahms symphonies, the complete Rome recording of Wagner's Ring, recordings of the famous symphonies composed by Schubert, Schumann, Bruckner and Mozart, highlights taken from the Salzburg recordings of Don Giovanni, Magic Flute and Figaro, a live Bayreuth recording of Mastersingers etc. etc. etc.
The edition has been complemented by recordings of rehearsals and interviews. In addition the recording of the famous Salzburg song recital in 1953 reflects on the pianist Wilhelm Furtwangler as accompanist to Elisabeth Schwarzkopf.
Furthermore, the edition contains a DVD with a video clip featuring the famous music critic Prof. Dr. Joachim Kaiser, who provides the answer to the question: why is Wilhelm Furtwangler still the most famous conductor in the world?

Contents:
CD 50:
Felix Mendelssohn Bartholdy (1809-1847)
- Violin Concerto - Yehudi Menuhin, Berlin Philharmonic 06/25-26/1952
- The Hebrides: Concert Overture - Vienna Philharmonic 08/19/1951
- A Midsummer Night's Dream: Overture - Berlin Philharmonic 09/28/1947
Robert Schumann (1810-1856)
- Manfred Overture - Vienna Philharmonic 01/24/1951
CD 51:
- Symphony No. 1 "Spring" - Vienna Philharmonic, 10/20/1951
- Symphony No. 4 - Berlin Philharmonic 05/14/1953
CD 52:
- Piano Concerto Op. 54 - Walter Gieseking piano, Berlin Philharmonic 03/03/1942
- Cello Concerto - Tibor de Machula cello, Berlin Philharmonic 10/28/1942
Carl Maria von Weber (1786-1826)
CD 53-54:
- Der Freischütz - Alfred Poel, Oskar Czerwenka, Elisabeth Grümmer, Rita Streich, Vienna State Opera Choir, Vienna Philharmonic 07/26/1954
CD 55:
- Der Freischütz: Overture - Vienna Philharmonic 03/05/1954
- Euryanthe: Overture - Berlin Philharmonic 05/04/1954
- Oberon: Overture - Vienna Philharmonic 02/01/1950
- Invitation To The Dance - Berlin Philharmonic 1932
Otto Nicolai (1810-1849)
- The Merry Wives Of Windsor: Overture - Vienna Philharmonic 01/18/1951
CD 56:
Carl Maria von Weber
- Der Freischütz: Overture - Berlin Philharmonic 1926
- Der Freischütz: Prelude to Act 3 - Berlin Philharmonic 1935
Felix Mendelssohn Bartholdy
- Violin Concerto: III - Gioconda de Vito violin, RAI Symphony Orchestra of Torino 03/07/1952
Robert Schumann
- Cello Concerto: Finale - Pierre Fournier cello, Berlin Philharmonic 11/13/1943
Felix Mendelssohn Bartholdy
- A Midsummer Night's Dream: Overture - Berlin Philharmonic 1929



Exact Audio Copy V1.5 from 20. February 2020

EAC extraction logfile from 20. January 2021, 20:56

Wilhelm Furtwängler / Das Vermächtnis (The Legacy) - CD 50

Used drive : HL-DT-STDVDRAM GH24NS95 Adapter: 1 ID: 0

Read mode : Secure
Utilize accurate stream : Yes
Defeat audio cache : Yes
Make use of C2 pointers : No

Read offset correction : 6
Overread into Lead-In and Lead-Out : No
Fill up missing offset samples with silence : Yes
Delete leading and trailing silent blocks : No
Null samples used in CRC calculations : Yes
Used interface : Native Win32 interface for Win NT & 2000

Used output format : User Defined Encoder
Selected bitrate : 128 kBit/s
Quality : High
Add ID3 tag : No
Command line compressor : C:\Program Files\Exact Audio Copy\Flac\flac.exe
Additional command line options : -V -8 -T "Date=%year%" -T "Genre=%genre%" %source%


TOC of the extracted CD

Track | Start | Length | Start sector | End sector
––––––––––––––––––––––––––––-
1 | 0:00.00 | 12:27.08 | 0 | 56032
2 | 12:27.08 | 7:53.70 | 56033 | 91577
3 | 20:21.03 | 6:41.26 | 91578 | 121678
4 | 27:02.29 | 10:35.73 | 121679 | 169376
5 | 37:38.27 | 12:58.36 | 169377 | 227762
6 | 50:36.63 | 14:12.53 | 227763 | 291715


Range status and errors

Selected range

Filename C:\ArlegZ\Wilhelm Furtwangler - Das Vermachtnis (The Legacy) - CD 50.wav

Peak level 96.6 %
Extraction speed 1.8 X
Range quality 100.0 %
Test CRC 91BF2CBC
Copy CRC 91BF2CBC
Copy OK

No errors occurred


AccurateRip summary

Track 1 accurately ripped (confidence 21) [24E98CC0] (AR v2)
Track 2 accurately ripped (confidence 21) [6BA81BE5] (AR v2)
Track 3 accurately ripped (confidence 21) [4E5978FC] (AR v2)
Track 4 accurately ripped (confidence 22) [9CB04415] (AR v2)
Track 5 accurately ripped (confidence 22) [09D57B97] (AR v2)
Track 6 accurately ripped (confidence 22) [FE295697] (AR v2)

All tracks accurately ripped

End of status report

–– CUETools DB Plugin V2.1.6

[CTDB TOCID: qhGW8.UeoSmQEFxGA_ryQqJTsa4-] found
Submit result: qhGW8.UeoSmQEFxGA_ryQqJTsa4- has been confirmed
Track | CTDB Status
1 | (49/49) Accurately ripped
2 | (49/49) Accurately ripped
3 | (49/49) Accurately ripped
4 | (49/49) Accurately ripped
5 | (49/49) Accurately ripped
6 | (49/49) Accurately ripped


==== Log checksum 8E987CD4E7CA57D29E954A6D658E12B2A488965C57098052F315047712658DBE ====


Exact Audio Copy V1.5 from 20. February 2020

EAC extraction logfile from 20. January 2021, 22:00

Wilhelm Furtwängler / Das Vermächtnis (The Legacy) - CD 51

Used drive : HL-DT-STDVDRAM GH24NS95 Adapter: 1 ID: 0

Read mode : Secure
Utilize accurate stream : Yes
Defeat audio cache : Yes
Make use of C2 pointers : No

Read offset correction : 6
Overread into Lead-In and Lead-Out : No
Fill up missing offset samples with silence : Yes
Delete leading and trailing silent blocks : No
Null samples used in CRC calculations : Yes
Used interface : Native Win32 interface for Win NT & 2000

Used output format : User Defined Encoder
Selected bitrate : 128 kBit/s
Quality : High
Add ID3 tag : No
Command line compressor : C:\Program Files\Exact Audio Copy\Flac\flac.exe
Additional command line options : -V -8 -T "Date=%year%" -T "Genre=%genre%" %source%


TOC of the extracted CD

Track | Start | Length | Start sector | End sector
––––––––––––––––––––––––––––-
1 | 0:00.00 | 10:58.18 | 0 | 49367
2 | 10:58.18 | 6:39.48 | 49368 | 79340
3 | 17:37.66 | 6:21.54 | 79341 | 107969
4 | 23:59.45 | 9:45.32 | 107970 | 151876
5 | 33:45.02 | 11:51.05 | 151877 | 205206
6 | 45:36.07 | 5:21.13 | 205207 | 229294
7 | 50:57.20 | 5:56.45 | 229295 | 256039
8 | 56:53.65 | 7:51.40 | 256040 | 291404


Range status and errors

Selected range

Filename C:\ArlegZ\Wilhelm Furtwangler - Das Vermachtnis (The Legacy) - CD 51.wav

Peak level 97.7 %
Extraction speed 1.8 X
Range quality 99.9 %
Test CRC B7A4F527
Copy CRC B7A4F527
Copy OK

No errors occurred


AccurateRip summary

Track 1 accurately ripped (confidence 20) [90E34299] (AR v2)
Track 2 accurately ripped (confidence 21) [27AD4363] (AR v2)
Track 3 accurately ripped (confidence 21) [A340A9F3] (AR v2)
Track 4 accurately ripped (confidence 21) [7D72D5C5] (AR v2)
Track 5 accurately ripped (confidence 22) [EAEA3C28] (AR v2)
Track 6 accurately ripped (confidence 22) [9833CDED] (AR v2)
Track 7 accurately ripped (confidence 22) [5C910461] (AR v2)
Track 8 accurately ripped (confidence 22) [78EC8D93] (AR v2)

All tracks accurately ripped

End of status report

–– CUETools DB Plugin V2.1.6

[CTDB TOCID: BzdJhgOPpvFgLgTN__N1N7PKUYg-] found
Submit result: BzdJhgOPpvFgLgTN__N1N7PKUYg- has been confirmed
Track | CTDB Status
1 | (48/48) Accurately ripped
2 | (48/48) Accurately ripped
3 | (48/48) Accurately ripped
4 | (48/48) Accurately ripped
5 | (48/48) Accurately ripped
6 | (48/48) Accurately ripped
7 | (48/48) Accurately ripped
8 | (48/48) Accurately ripped


==== Log checksum 546F21D0D740F7EEFF3D6E779839DC290B1ABB33E1B4D0FCC4D85840D552901E ====


Exact Audio Copy V1.5 from 20. February 2020

EAC extraction logfile from 21. January 2021, 16:55

Wilhelm Furtwängler, Berliner Philharmoniker / Das Vermächtnis (The Legacy) - CD 52

Used drive : HL-DT-STDVDRAM GH24NS95 Adapter: 1 ID: 0

Read mode : Secure
Utilize accurate stream : Yes
Defeat audio cache : Yes
Make use of C2 pointers : No

Read offset correction : 6
Overread into Lead-In and Lead-Out : No
Fill up missing offset samples with silence : Yes
Delete leading and trailing silent blocks : No
Null samples used in CRC calculations : Yes
Used interface : Native Win32 interface for Win NT & 2000

Used output format : User Defined Encoder
Selected bitrate : 128 kBit/s
Quality : High
Add ID3 tag : No
Command line compressor : C:\Program Files\Exact Audio Copy\Flac\flac.exe
Additional command line options : -V -8 -T "Date=%year%" -T "Genre=%genre%" %source%


TOC of the extracted CD

Track | Start | Length | Start sector | End sector
––––––––––––––––––––––––––––-
1 | 0:00.00 | 14:55.60 | 0 | 67184
2 | 14:55.60 | 5:49.05 | 67185 | 93364
3 | 20:44.65 | 9:32.57 | 93365 | 136321
4 | 30:17.47 | 10:40.17 | 136322 | 184338
5 | 40:57.64 | 4:20.18 | 184339 | 203856
6 | 45:18.07 | 7:12.50 | 203857 | 236306


Range status and errors

Selected range

Filename C:\ArlegZ\Wilhelm Furtwangler - Das Vermachtnis (The Legacy) - CD 52.wav

Peak level 97.7 %
Extraction speed 1.7 X
Range quality 100.0 %
Test CRC 7AE36CE6
Copy CRC 7AE36CE6
Copy OK

No errors occurred


AccurateRip summary

Track 1 accurately ripped (confidence 24) [75841F53] (AR v2)
Track 2 accurately ripped (confidence 24) [3AFA83BA] (AR v2)
Track 3 accurately ripped (confidence 24) [BA17CC78] (AR v2)
Track 4 accurately ripped (confidence 25) [E1A502A0] (AR v2)
Track 5 accurately ripped (confidence 25) [20C6D661] (AR v2)
Track 6 accurately ripped (confidence 25) [076CE2AE] (AR v2)

All tracks accurately ripped

End of status report

–– CUETools DB Plugin V2.1.6

[CTDB TOCID: lj4eCylFEVLgYQ.XSM3tQKDRv1A-] found
Submit result: lj4eCylFEVLgYQ.XSM3tQKDRv1A- has been confirmed
Track | CTDB Status
1 | (46/46) Accurately ripped
2 | (46/46) Accurately ripped
3 | (46/46) Accurately ripped
4 | (46/46) Accurately ripped
5 | (46/46) Accurately ripped
6 | (46/46) Accurately ripped


==== Log checksum 84969C4E1FBB398C52939BAC6D984B7E1689024D0293A2092346FC85A7040F64 ====


Exact Audio Copy V1.5 from 20. February 2020

EAC extraction logfile from 21. January 2021, 17:54

Wilhelm Furtwängler, Wiener Philharmoniker / Das Vermächtnis (The Legacy) - CD 53

Used drive : HL-DT-STDVDRAM GH24NS95 Adapter: 1 ID: 0

Read mode : Secure
Utilize accurate stream : Yes
Defeat audio cache : Yes
Make use of C2 pointers : No

Read offset correction : 6
Overread into Lead-In and Lead-Out : No
Fill up missing offset samples with silence : Yes
Delete leading and trailing silent blocks : No
Null samples used in CRC calculations : Yes
Used interface : Native Win32 interface for Win NT & 2000

Used output format : User Defined Encoder
Selected bitrate : 128 kBit/s
Quality : High
Add ID3 tag : No
Command line compressor : C:\Program Files\Exact Audio Copy\Flac\flac.exe
Additional command line options : -V -8 -T "Date=%year%" -T "Genre=%genre%" %source%


TOC of the extracted CD

Track | Start | Length | Start sector | End sector
––––––––––––––––––––––––––––-
1 | 0:00.00 | 11:27.50 | 0 | 51574
2 | 11:27.50 | 1:38.55 | 51575 | 58979
3 | 13:06.30 | 1:35.27 | 58980 | 66131
4 | 14:41.57 | 2:27.68 | 66132 | 77224
5 | 17:09.50 | 3:21.27 | 77225 | 92326
6 | 20:31.02 | 7:34.03 | 92327 | 126379
7 | 28:05.05 | 2:24.20 | 126380 | 137199
8 | 30:29.25 | 8:24.37 | 137200 | 175036
9 | 38:53.62 | 1:29.45 | 175037 | 181756
10 | 40:23.32 | 2:39.28 | 181757 | 193709
11 | 43:02.60 | 4:13.05 | 193710 | 212689
12 | 47:15.65 | 3:57.60 | 212690 | 230524
13 | 51:13.50 | 5:25.57 | 230525 | 254956
14 | 56:39.32 | 0:47.25 | 254957 | 258506
15 | 57:26.57 | 4:33.73 | 258507 | 279054
16 | 62:00.55 | 0:54.65 | 279055 | 283169
17 | 62:55.45 | 10:19.02 | 283170 | 329596
18 | 73:14.47 | 1:50.10 | 329597 | 337856


Range status and errors

Selected range

Filename C:\ArlegZ\Wilhelm Furtwangler - Das Vermachtnis (The Legacy) - CD 53.wav

Peak level 97.7 %
Extraction speed 1.9 X
Range quality 100.0 %
Test CRC 6629FA50
Copy CRC 6629FA50
Copy OK

No errors occurred


AccurateRip summary

Track 1 accurately ripped (confidence 24) [28A9B6FF] (AR v2)
Track 2 accurately ripped (confidence 24) [32B85351] (AR v2)
Track 3 accurately ripped (confidence 24) [334E9603] (AR v2)
Track 4 accurately ripped (confidence 24) [FEB9B7A0] (AR v2)
Track 5 accurately ripped (confidence 24) [87D36821] (AR v2)
Track 6 accurately ripped (confidence 24) [8CBDA19C] (AR v2)
Track 7 accurately ripped (confidence 24) [58BAA06B] (AR v2)
Track 8 accurately ripped (confidence 24) [8CC8C603] (AR v2)
Track 9 accurately ripped (confidence 24) [8FFD2A00] (AR v2)
Track 10 accurately ripped (confidence 24) [72721252] (AR v2)
Track 11 accurately ripped (confidence 24) [A86BC08E] (AR v2)
Track 12 accurately ripped (confidence 24) [2C20B9C6] (AR v2)
Track 13 accurately ripped (confidence 24) [F4FB31ED] (AR v2)
Track 14 accurately ripped (confidence 24) [F4B4CA41] (AR v2)
Track 15 accurately ripped (confidence 24) [84CF709E] (AR v2)
Track 16 accurately ripped (confidence 24) [C9A9F0A3] (AR v2)
Track 17 accurately ripped (confidence 24) [2086BEAE] (AR v2)
Track 18 accurately ripped (confidence 24) [F876AADB] (AR v2)

All tracks accurately ripped

End of status report

–– CUETools DB Plugin V2.1.6

[CTDB TOCID: ikeHNrqX9Bj_.4hKOJzwXApDx5s-] found
Submit result: ikeHNrqX9Bj_.4hKOJzwXApDx5s- has been confirmed
Track | CTDB Status
1 | (51/51) Accurately ripped
2 | (51/51) Accurately ripped
3 | (51/51) Accurately ripped
4 | (51/51) Accurately ripped
5 | (51/51) Accurately ripped
6 | (51/51) Accurately ripped
7 | (51/51) Accurately ripped
8 | (51/51) Accurately ripped
9 | (51/51) Accurately ripped
10 | (51/51) Accurately ripped
11 | (51/51) Accurately ripped
12 | (51/51) Accurately ripped
13 | (51/51) Accurately ripped
14 | (51/51) Accurately ripped
15 | (51/51) Accurately ripped
16 | (51/51) Accurately ripped
17 | (51/51) Accurately ripped
18 | (49/51) Accurately ripped


==== Log checksum 7DC6457650B88164639C0BE44D8BB669CE1B20B73CA3E4513B851CAA72905998 ====


Exact Audio Copy V1.5 from 20. February 2020

EAC extraction logfile from 21. January 2021, 18:47

Wilhelm Furtwängler, Wiener Philharmoniker / Das Vermächtnis (The Legacy) - CD 54

Used drive : HL-DT-STDVDRAM GH24NS95 Adapter: 1 ID: 0

Read mode : Secure
Utilize accurate stream : Yes
Defeat audio cache : Yes
Make use of C2 pointers : No

Read offset correction : 6
Overread into Lead-In and Lead-Out : No
Fill up missing offset samples with silence : Yes
Delete leading and trailing silent blocks : No
Null samples used in CRC calculations : Yes
Used interface : Native Win32 interface for Win NT & 2000

Used output format : User Defined Encoder
Selected bitrate : 128 kBit/s
Quality : High
Add ID3 tag : No
Command line compressor : C:\Program Files\Exact Audio Copy\Flac\flac.exe
Additional command line options : -V -8 -T "Date=%year%" -T "Genre=%genre%" %source%


TOC of the extracted CD

Track | Start | Length | Start sector | End sector
––––––––––––––––––––––––––––-
1 | 0:00.00 | 7:59.43 | 0 | 35967
2 | 7:59.43 | 18:47.05 | 35968 | 120497
3 | 26:46.48 | 2:11.02 | 120498 | 130324
4 | 28:57.50 | 6:59.20 | 130325 | 161769
5 | 35:56.70 | 1:30.25 | 161770 | 168544
6 | 37:27.20 | 7:13.30 | 168545 | 201049
7 | 44:40.50 | 2:39.70 | 201050 | 213044
8 | 47:20.45 | 2:56.08 | 213045 | 226252
9 | 50:16.53 | 2:44.72 | 226253 | 238624
10 | 53:01.50 | 1:37.68 | 238625 | 245967
11 | 54:39.43 | 22:07.15 | 245968 | 345507


Range status and errors

Selected range

Filename C:\ArlegZ\Wilhelm Furtwangler - Das Vermachtnis (The Legacy) - CD 54.wav

Peak level 97.7 %
Extraction speed 2.0 X
Range quality 100.0 %
Test CRC 2A8FBBEF
Copy CRC 2A8FBBEF
Copy OK

No errors occurred


AccurateRip summary

Track 1 accurately ripped (confidence 24) [855CA065] (AR v2)
Track 2 accurately ripped (confidence 24) [87DA5B89] (AR v2)
Track 3 accurately ripped (confidence 24) [CA5D07FC] (AR v2)
Track 4 accurately ripped (confidence 24) [2B6FF080] (AR v2)
Track 5 accurately ripped (confidence 24) [D7C5FE3D] (AR v2)
Track 6 accurately ripped (confidence 24) [D644556B] (AR v2)
Track 7 accurately ripped (confidence 24) [94B9E73F] (AR v2)
Track 8 accurately ripped (confidence 24) [BCE68913] (AR v2)
Track 9 accurately ripped (confidence 24) [DD5120EA] (AR v2)
Track 10 accurately ripped (confidence 24) [3AAC8CB7] (AR v2)
Track 11 accurately ripped (confidence 24) [99060242] (AR v2)

All tracks accurately ripped

End of status report

–– CUETools DB Plugin V2.1.6

[CTDB TOCID: yAVnGOvrLtX1aPpdI2U8Y0W_jK4-] found
Submit result: yAVnGOvrLtX1aPpdI2U8Y0W_jK4- has been confirmed
Track | CTDB Status
1 | (52/52) Accurately ripped
2 | (52/52) Accurately ripped
3 | (52/52) Accurately ripped
4 | (51/52) Accurately ripped
5 | (51/52) Accurately ripped
6 | (52/52) Accurately ripped
7 | (52/52) Accurately ripped
8 | (51/52) Accurately ripped
9 | (51/52) Accurately ripped
10 | (52/52) Accurately ripped
11 | (50/52) Accurately ripped


==== Log checksum A9CDBE39F58EC69795F24E70C8EB387F5AFAEC00D1878C6E9FCDE8CF9D24865F ====


Exact Audio Copy V1.5 from 20. February 2020

EAC extraction logfile from 21. January 2021, 19:29

Wilhelm Furtwängler / Das Vermächtnis (The Legacy) - CD 55

Used drive : HL-DT-STDVDRAM GH24NS95 Adapter: 1 ID: 0

Read mode : Secure
Utilize accurate stream : Yes
Defeat audio cache : Yes
Make use of C2 pointers : No

Read offset correction : 6
Overread into Lead-In and Lead-Out : No
Fill up missing offset samples with silence : Yes
Delete leading and trailing silent blocks : No
Null samples used in CRC calculations : Yes
Used interface : Native Win32 interface for Win NT & 2000

Used output format : User Defined Encoder
Selected bitrate : 128 kBit/s
Quality : High
Add ID3 tag : No
Command line compressor : C:\Program Files\Exact Audio Copy\Flac\flac.exe
Additional command line options : -V -8 -T "Date=%year%" -T "Genre=%genre%" %source%


TOC of the extracted CD

Track | Start | Length | Start sector | End sector
––––––––––––––––––––––––––––-
1 | 0:00.00 | 10:38.63 | 0 | 47912
2 | 10:38.63 | 8:58.43 | 47913 | 88305
3 | 19:37.31 | 9:56.33 | 88306 | 133038
4 | 29:33.64 | 8:28.03 | 133039 | 171141
5 | 38:01.67 | 8:37.06 | 171142 | 209922


Range status and errors

Selected range

Filename C:\ArlegZ\Wilhelm Furtwangler - Das Vermachtnis (The Legacy) - CD 55.wav

Peak level 97.7 %
Extraction speed 1.6 X
Range quality 100.0 %
Test CRC 0D14BDAC
Copy CRC 0D14BDAC
Copy OK

No errors occurred


AccurateRip summary

Track 1 accurately ripped (confidence 22) [0DD5AFF6] (AR v2)
Track 2 accurately ripped (confidence 23) [F91D3D4D] (AR v2)
Track 3 accurately ripped (confidence 23) [7045E358] (AR v2)
Track 4 accurately ripped (confidence 23) [07BED683] (AR v2)
Track 5 accurately ripped (confidence 23) [2A35FBD9] (AR v2)

All tracks accurately ripped

End of status report

–– CUETools DB Plugin V2.1.6

[CTDB TOCID: Fh6OvhBgVNWHt6s2DXRrIF.tJOc-] found
Submit result: Fh6OvhBgVNWHt6s2DXRrIF.tJOc- has been confirmed
Track | CTDB Status
1 | (46/46) Accurately ripped
2 | (46/46) Accurately ripped
3 | (46/46) Accurately ripped
4 | (46/46) Accurately ripped
5 | (46/46) Accurately ripped


==== Log checksum 61507D645F9324964B4F4227F7FD80C49012677C4BEB18E7E58ADCE788CB33CA ====


Exact Audio Copy V1.5 from 20. February 2020

EAC extraction logfile from 21. January 2021, 20:13

Wilhelm Furtwängler, Berliner Philharmoniker / Das Vermächtnis (The Legacy) - CD 56

Used drive : HL-DT-STDVDRAM GH24NS95 Adapter: 1 ID: 0

Read mode : Secure
Utilize accurate stream : Yes
Defeat audio cache : Yes
Make use of C2 pointers : No

Read offset correction : 6
Overread into Lead-In and Lead-Out : No
Fill up missing offset samples with silence : Yes
Delete leading and trailing silent blocks : No
Null samples used in CRC calculations : Yes
Used interface : Native Win32 interface for Win NT & 2000

Used output format : User Defined Encoder
Selected bitrate : 128 kBit/s
Quality : High
Add ID3 tag : No
Command line compressor : C:\Program Files\Exact Audio Copy\Flac\flac.exe
Additional command line options : -V -8 -T "Date=%year%" -T "Genre=%genre%" %source%


TOC of the extracted CD

Track | Start | Length | Start sector | End sector
––––––––––––––––––––––––––––-
1 | 0:00.00 | 9:51.55 | 0 | 44379
2 | 9:51.55 | 3:19.41 | 44380 | 59345
3 | 13:11.21 | 6:55.31 | 59346 | 90501
4 | 20:06.52 | 10:23.22 | 90502 | 137248
5 | 30:29.74 | 12:38.50 | 137249 | 194148


Range status and errors

Selected range

Filename C:\ArlegZ\Wilhelm Furtwangler - Das Vermachtnis (The Legacy) - CD 56.wav

Peak level 97.7 %
Extraction speed 1.6 X
Range quality 100.0 %
Test CRC 27FAA0BF
Copy CRC 27FAA0BF
Copy OK

No errors occurred


AccurateRip summary

Track 1 accurately ripped (confidence 22) [1961B3A1] (AR v2)
Track 2 accurately ripped (confidence 22) [D1D48B09] (AR v2)
Track 3 accurately ripped (confidence 21) [345C5875] (AR v2)
Track 4 accurately ripped (confidence 21) [055E91C1] (AR v2)
Track 5 accurately ripped (confidence 22) [DFF7B4EA] (AR v2)

All tracks accurately ripped

End of status report

–– CUETools DB Plugin V2.1.6

[CTDB TOCID: Ws0fUpU0dQxEK6UHamPt20Csm90-] found
Submit result: Ws0fUpU0dQxEK6UHamPt20Csm90- has been confirmed
Track | CTDB Status
1 | (46/46) Accurately ripped
2 | (46/46) Accurately ripped
3 | (46/46) Accurately ripped
4 | (46/46) Accurately ripped
5 | (46/46) Accurately ripped


==== Log checksum F74E931D0E991C0D63DF7DB231F02659CC91540C24B8A1741C70ADC8EB833003 ====


Wilhelm Furtwängler: Das Vermächtnis / The Legacy - Box 6: Mendelssohn, Schumann, Weber, Nicolai (2010)