Subcategories

Willie Nelson & Friends - Live And Kickin' (2003) [Re-Up]

Posted By: Designol
Willie Nelson & Friends - Live And Kickin' (2003) [Re-Up]

Willie Nelson & Friends - Live And Kickin' (2003)
EAC | FLAC | Image (Cue&Log) ~ 406 Mb | Mp3 (CBR320) ~ 164 Mb | Scans included
Label: Lost Highway/UMG | # 0008817038629 | Time: 00:57:57
Country Pop, Country Rock, Pop/Rock

Live and Kickin' is a 2003 live album by Willie Nelson, featuring music stars of diverse genres like Eric Clapton, Shania Twain, Elvis Costello, Diana Krall, Norah Jones, Ray Charles, Steven Tyler, Wyclef Jean, ZZ Top, Paul Simon.

For his 70th birthday gala, Willie Nelson decided to celebrate by inviting a cast of musical stars to join him in duets on a televised concert. In keeping with Nelson's eclecticism, only a few of the famous participants are country artists (Shania Twain, Toby Keith, and old pal Ray Price). How much is added to his classic "Crazy" by guests Diana Krall and Elvis Costello (then-hot celebrity couple of the moment) is an open question; what's really important is the well-deserved recognition Nelson receives from the musical world's biggest names. If you're a hardcore Willie fan, you've probably already got a couple of earlier live versions of, for example, "Blue Eyes Crying in the Rain," but part of Live and Kickin's purpose is to expose fans of Nelson's duet partners to the magic they've been missing out on for many decades. In that, it's a success.

Review by John Bush, Allmusic.com

Willie Nelson & Friends - Live And Kickin' (2003) [Re-Up]

Willie Nelson & Friends - Live And Kickin' (2003) [Re-Up]



Tracklist:

01. I Didn't Come Here (And I Ain't Leavin') (03:12)
02. Night Life (with Eric Clapton) (04:32)
03. Blue Eyes Crying In The Rain (with Shania Twain) (02:55)
04. Homeward Bound (with Paul Simon) (03:57)
05. Beer For My Horses (with Toby Keith) (03:33)
06. Crazy (with Diana Krall and Elvis Costello) (04:35)
07. To All The Girls I've Loved Before (with Wyclef Jean) (04:25)
08. Wurlitzer Prize (I Don't Want To Get Over You) (with Norah Jones) (02:30)
09. She Loves My Automobile (with ZZ Top) (02:40)
10. Angel Flying Too Close To The Ground (with Shelby Lynne) (04:37)
11. A Song For You (with Leon Russell and Ray Charles) (05:22)
12. I Couldn't Believe It Was True (with John Mellencamp) (02:53)
13. Last Thing I Needed First Thing This Morning (with Kenny Chesney) (04:33)
14. Run That By Me One More Time (with Ray Price) (02:34)
15. One Time Too Many (with Steven Tyler) (05:30)


Exact Audio Copy V1.0 beta 4 from 7. December 2014

Отчёт EAC об извлечении, выполненном 29. марта 2015, 15:45

Willie Nelson & Friends / Live And Kickin'

Дисковод: SONY CD-RW CRX230ED Adapter: 1 ID: 0

Режим чтения : Достоверность
Использование точного потока : Да
Отключение кэша аудио : Да
Использование указателей C2 : Нет

Коррекция смещения при чтении : 6
Способность читать области Lead-in и Lead-out : Нет
Заполнение пропущенных сэмплов тишиной : Да
Удаление блоков с тишиной в начале и конце : Нет
При вычислениях CRC использовались нулевые сэмплы : Да
Интерфейс : Встроенный Win32-интерфейс для Win NT/2000

Выходной формат : Внутренние WAV-операции
Формат сэмплов : 44.100 Гц; 16 бит; стерео


TOC извлечённого CD

Трек | Старт | Длительность | Начальный сектор | Конечный сектор
––––––––––––––––––––––––––––––––––-
1 | 0:00.00 | 3:12.08 | 0 | 14407
2 | 3:12.08 | 4:32.53 | 14408 | 34860
3 | 7:44.61 | 2:55.66 | 34861 | 48051
4 | 10:40.52 | 3:57.72 | 48052 | 65898
5 | 14:38.49 | 3:33.43 | 65899 | 81916
6 | 18:12.17 | 4:35.67 | 81917 | 102608
7 | 22:48.09 | 4:25.69 | 102609 | 122552
8 | 27:14.03 | 2:30.70 | 122553 | 133872
9 | 29:44.73 | 2:40.60 | 133873 | 145932
10 | 32:25.58 | 4:37.68 | 145933 | 166775
11 | 37:03.51 | 5:22.23 | 166776 | 190948
12 | 42:25.74 | 2:53.43 | 190949 | 203966
13 | 45:19.42 | 4:33.42 | 203967 | 224483
14 | 49:53.09 | 2:34.21 | 224484 | 236054
15 | 52:27.30 | 5:30.06 | 236055 | 260810


Характеристики диапазона извлечения и сообщения об ошибках

Выбранный диапазон

Имя файла F:\MusicCD\Torrent\Willie Nelson & Friends - Live And Kickin'\Willie Nelson & Friends - Live And Kickin'.wav

Пиковый уровень 100.0 %
Скорость извлечения 7.8 X
Качество диапазона 100.0 %
CRC теста 918C1F5E
CRC копии 918C1F5E
Копирование… OK

Ошибок не произошло


AccurateRip: сводка

Трек 1 : извлечено точно (доверие 20) [472B2BA8] (AR v2)
Трек 2 : извлечено точно (доверие 20) [53257552] (AR v2)
Трек 3 : извлечено точно (доверие 20) [8B0E76CE] (AR v2)
Трек 4 : извлечено точно (доверие 20) [21EC588A] (AR v2)
Трек 5 : извлечено точно (доверие 20) [530263CD] (AR v2)
Трек 6 : извлечено точно (доверие 20) [24E94272] (AR v2)
Трек 7 : извлечено точно (доверие 20) [F866A7E8] (AR v2)
Трек 8 : извлечено точно (доверие 20) [30E10948] (AR v2)
Трек 9 : извлечено точно (доверие 20) [00555BC6] (AR v2)
Трек 10 : извлечено точно (доверие 20) [760449C2] (AR v2)
Трек 11 : извлечено точно (доверие 20) [09858EB8] (AR v2)
Трек 12 : извлечено точно (доверие 20) [2196A2A0] (AR v2)
Трек 13 : извлечено точно (доверие 20) [A3275FDD] (AR v2)
Трек 14 : извлечено точно (доверие 20) [9F8C2068] (AR v2)
Трек 15 : извлечено точно (доверие 20) [7B704D76] (AR v2)

Все треки извлечены точно

Конец отчёта

–– CUETools DB Plugin V2.1.4

[CTDB TOCID: 8UCUIHXFC01VVUlzOtYcnU0ulcI-] found
Submit result: already submitted
Track | CTDB Status
1 | (20/20) Accurately ripped
2 | (20/20) Accurately ripped
3 | (20/20) Accurately ripped
4 | (20/20) Accurately ripped
5 | (20/20) Accurately ripped
6 | (20/20) Accurately ripped
7 | (20/20) Accurately ripped
8 | (20/20) Accurately ripped
9 | (20/20) Accurately ripped
10 | (20/20) Accurately ripped
11 | (20/20) Accurately ripped
12 | (20/20) Accurately ripped
13 | (20/20) Accurately ripped
14 | (20/20) Accurately ripped
15 | (20/20) Accurately ripped


==== Контрольная сумма отчёта E2AC3AB8BF0DA9BCF7C7D6285571E315E9E2291AD1A22827A1A3BEDFD261C33D ====

foobar2000 1.2 / Dynamic Range Meter 1.1.1
log date: 2015-03-31 13:15:19

––––––––––––––––––––––––––––––––––––––––
Analyzed: Willie Nelson & Friends / Live And Kickin'
––––––––––––––––––––––––––––––––––––––––

DR Peak RMS Duration Track
––––––––––––––––––––––––––––––––––––––––
DR7 0.00 dB -7.88 dB 3:12 01-I Didn't Come Here (And I Ain't Leavin')
DR6 0.00 dB -8.19 dB 4:33 02-Night Life (with Eric Clapton)
DR9 0.00 dB -10.18 dB 2:56 03-Blue Eyes Crying In The Rain (with Shania Twain)
DR11 0.00 dB -14.64 dB 3:58 04-Homeward Bound (with Paul Simon)
DR6 0.00 dB -7.59 dB 3:34 05-Beer For My Horses (with Toby Keith)
DR9 0.00 dB -11.79 dB 4:36 06-Crazy (with Diana Krall and Elvis Costello)
DR10 0.00 dB -12.22 dB 4:26 07-To All The Girls I've Loved Before (with Wyclef Jean)
DR9 0.00 dB -10.59 dB 2:31 08-Wurlitzer Prize (I Don't Want To Get Over You) (with Norah Jones)
DR7 0.00 dB -8.72 dB 2:41 09-She Loves My Automobile (with ZZ Top)
DR7 0.00 dB -10.75 dB 4:38 10-Angel Flying Too Close To The Ground (with Shelby Lynne)
DR9 0.00 dB -10.97 dB 5:22 11-A Song For You (with Leon Russell and Ray Charles)
DR9 0.00 dB -9.57 dB 2:54 12-I Couldn't Believe It Was True (with John Mellencamp)
DR10 0.00 dB -12.64 dB 4:34 13-Last Thing I Needed First Thing This Morning (with Kenny Chesney)
DR8 0.00 dB -9.24 dB 2:34 14-Run That By Me One More Time (with Ray Price)
DR7 0.00 dB -9.40 dB 5:30 15-One Time Too Many (with Steven Tyler)
––––––––––––––––––––––––––––––––––––––––

Number of tracks: 15
Official DR value: DR8

Samplerate: 44100 Hz
Channels: 2
Bits per sample: 16
Bitrate: 905 kbps
Codec: FLAC
================================================================================

Willie Nelson & Friends - Live And Kickin' (2003) [Re-Up]

Willie Nelson & Friends - Live And Kickin' (2003) [Re-Up]

All thanks to original releaser - squirr

More interesting music in My Blog