Subcategories
Tags
Language
Tags

Yes - Roosevelt Stadium 1976 (2003)

Posted By: v3122
Yes - Roosevelt Stadium 1976 (2003)

Yes - Roosevelt Stadium 1976 (2003)
Flac(Image) + Cue & MP3 CBR 320Kbps
2CD | PRRP 009 | ~ 797 or 286 Mb | Artwork(jpg) -> 1.52 Mb
Progressive Rock

~ Live at Roosevelt Stadium, New Jersey, USA 17th June 1976. FM broadcast > Remastered ~

Yes - Roosevelt Stadium 1976 (2003):

Tracklist CD1:

01 . WNEW / WMMB DJ’s Introduction . 1:22
02 . Intro / Apocalypse . 1:17
03 . Siberian Khatru . 9:15
04 . Sound Chaser . 11:04
05 . I've Seen All Good People . 7:18
06 . Gates Of Delirium . 22:18

[CUETools log; Date: 01.05.2021 17:55:08; Version: 2.1.4]
[AccurateRip ID: 00085c96-0031a4d2-420c5306] found.
Track [ CRC | V2 ] Status
01 [2b082370|26bd7c43] (0+0/1) No match
02 [e3d3069f|caee95c2] (0+0/1) No match
03 [9858d22e|5401a99c] (0+0/1) No match
04 [6a5c4e52|e7a64bc5] (0+0/1) No match
05 [d57591bf|26529ec3] (0+0/1) No match
06 [bb926d58|852b7627] (0+0/1) No match
Offsetted by -60:
01 [f031aa02] (1/1) Accurately ripped
02 [8a0d60fc] (1/1) Accurately ripped
03 [40bdcbe5] (1/1) Accurately ripped
04 [65a74718] (1/1) Accurately ripped
05 [4cf824b6] (1/1) Accurately ripped
06 [3e6e67c6] (1/1) Accurately ripped

Track Peak [ CRC32 ] [W/O NULL]
– 95,0 [D665D8BF] [5273891B]
01 50,0 [99BBA77E] [70BF2617]
02 95,0 [94CA7EDC] [8B8A6485]
03 89,8 [9C03CCC6] [9608F6AA]
04 94,1 [8682122E] [7D0A8C29]
05 90,7 [FA15727D] [F4A9F66F]
06 95,0 [5D9CFF56] [4BB53307]


Tracklist CD2:

01 . Long Distance Runaround . 2:17
02 . Patrick Moraz Solo . 4:14
03 . Steve Howe Solo – Clap . 3:39
04 . Jon Anderson Solo – Exerpt From Olias . 3:49
05 . Heart Of The Sunrise . 11:30
06 . Ritual . 25:47
07 . DJ Chatter #1 . 2:13
08 . Roundabout . 8:37
09 . DJ Chatter #2 . 1:28
10 . I'm Down . 3:30
11 . DJ Outro . 1:35

[CUETools log; Date: 01.05.2021 17:58:06; Version: 2.1.4]
[AccurateRip ID: 001d2b5e-01072383-9110180b] found.
Track [ CRC | V2 ] Status
01 [179c83df|cff31bef] (0+0/1) No match
02 [b4d11307|6042b02f] (0+0/1) No match
03 [c21ac61d|9b6a17c6] (0+0/1) No match
04 [f573d858|b972d1dd] (0+0/1) No match
05 [83eb110d|897ee27d] (0+0/1) No match
06 [5c70c47c|39b20681] (0+0/1) No match
07 [b4419e07|ef3110a6] (0+0/1) No match
08 [f86485a9|924191ce] (0+0/1) No match
09 [c09472d3|de313f86] (0+0/1) No match
10 [f7f971bc|ae2efd93] (0+0/1) No match
11 [485a8f2f|7ae8aee2] (0+0/1) No match
Offsetted by -60:
01 [9ccaf26c] (1/1) Accurately ripped
02 [500e6cd2] (1/1) Accurately ripped
03 [c6fc0ffa] (1/1) Accurately ripped
04 [06ed9cdc] (1/1) Accurately ripped
05 [1f4e151d] (1/1) Accurately ripped
06 [5228ee4c] (1/1) Accurately ripped
07 [c9a88807] (1/1) Accurately ripped
08 [3383615d] (1/1) Accurately ripped
09 [c692065b] (1/1) Accurately ripped
10 [158ce9c5] (1/1) Accurately ripped
11 [2d742586] (1/1) Accurately ripped

Track Peak [ CRC32 ] [W/O NULL]
– 95,0 [E92DEB5E] [F119E3A8]
01 62,6 [3E8632A6] [60DDA87A]
02 80,0 [A8A4088D] [0558DC79]
03 80,0 [3A85AF23] [89F9D5C9]
04 79,0 [0DAAA295] [8E0D8B1A]
05 95,0 [5256BA94] [333E8407]
06 95,0 [48B78F57] [90FECA90]
07 50,0 [64BD4D44] [5EC70DBA]
08 95,0 [0B27C493] [31183552]
09 50,0 [28023A8C] [358A3A46]
10 95,0 [D335A1A3] [86A12D8D]
11 50,6 [07203475] [250E1EA5]


Yes - Roosevelt Stadium 1976 (2003)

All thanks go to the original releaser

Yes in my Blog

Download Yes - Roosevelt Stadium 1976 (2003):