Subcategories

Yes - The Studio Albums 1969-1987 [2013, 13CD Box-Set]

Posted By: v3122
Yes - The Studio Albums 1969-1987 [2013, 13CD Box-Set]

Yes - The Studio Albums 1969-1987
EAC | Flac(Image) + Cue + Log & MP3 CBR 320Kbps
13CD | Atlantic/Rhino/Warner, 8122796496 | ~ 6185 or 2322 Mb | Box Art -> 52 Mb
Progressive / Symphonic / Art Rock | 2003, 2004 and 2009 Reissues

The Studio Albums 1969-1987 includes expanded and remastered versions all 12 studio albums released by the prog rock band during this period. They are Yes (1969), Time and a Word (1970), The Yes Album (1971), Fragile (1971), Close to the Edge (1972), Tale from Topographic Oceans (1973), Relayer (1974), Going for the One (1977), Tormato (1978), Drama (1980), 90125 (1983) and Big Generator (1987).

In total, 66 bonus tracks (previously released) feature in this box, including the Love Will Find A Way and Rhythm Of Love remixes that were appended to the Japanese issue of Big Generator.

This set will be packaged in the familiar clamshell style rigid card box, with the 13 CDs packaged in simple ‘vinyl replica’ card sleeves. The set will also feature new Roger Dean artwork.

~ superdeluxeedition
Yes - The Studio Albums 1969-1987:

Yes - The Studio Albums 1969-1987 [2013, 13CD Box-Set]

Yes - Yes (1967)
EAC | Flac(Image) + Cue + Log & MP3 CBR 320Kbps
Atlantic/Rhino/Warner, 8122796496-1 | ~ 496 or 202 Mb | Scans Included | Box Art -> 52 Mb
Progressive / Symphonic / Art Rock | 2003 Reissue

Yes' debut album is surprisingly strong, given the inexperience of all those involved at the time. In an era when psychedelic meanderings were the order of the day, Yes delivered a surprisingly focused and exciting record that covered lots of bases (perhaps too many) in presenting their sound. The album opens boldly, with the fervor of a metal band of the era playing full tilt on "Beyond and Before," but it is with the second number, a cover of the Byrds' "I See You," that they show some of their real range. The song is highlighted by an extraordinary jazz workout from lead guitarist Peter Banks and drummer Bill Bruford that runs circles around the original by Roger McGuinn and company. "Harold Land" was the first song on which Chris Squire's bass playing could be heard in anything resembling the prominence it would eventually assume in their sound and anticipates in its structure the multi-part suites the group would later record, with its extended introduction and its myriad shifts in texture, timbre, and volume. And then there is "Every Little Thing," the most daring Beatles cover ever to appear on an English record, with an apocalyptic introduction and extraordinary shifts in tempo and dynamics, Banks' guitar and Bruford's drums so animated that they seem to be playing several songs at once. This song also hosts an astonishingly charismatic performance by Jon Anderson. There were numerous problems in recording this album, owing to the inexperience of the group, the producer, and the engineer, in addition to the unusual nature of their sound. Many of the numbers give unusual prominence to the guitar and drums, thus making it the most uncharacteristic of all the group's albums.

by Bruce Eder, AMG
Tracklist:

01. Beyond and Before - 4:56
02. I See You - 6:53
03. Yesterday and Today - 2:52
04. Looking Around - 4:20
05. Harold Land - 5:47
06. Every Little Thing - 5:47
07. Sweetness - 4:35
08. Survival - 6:23

Bonus Tracks:

09. Everydays [UK single B-side, October 1969, bonus track] - 6:24
10. Dear Father [Early Version #2, previously unreleased, bonus track] - 5:52
11. Something's Coming [UK single, April 1969, bonus track] - 7:10
12. Everydays [Early version, previously unreleased, bonus track] - 5:19
13. Dear Father [Early version #1, previously unreleased, bonus track] - 5:32
14. Something's Coming [Early version, previously unreleased, bonus track] - 8:02

Exact Audio Copy V1.0 beta 3 from 29. August 2011

EAC extraction logfile from 15. December 2013, 0:34

Yes / Yes

Used drive : ATAPI iHAS124 B Adapter: 2 ID: 0

Read mode : Secure
Utilize accurate stream : Yes
Defeat audio cache : Yes
Make use of C2 pointers : No

Read offset correction : 6
Overread into Lead-In and Lead-Out : No
Fill up missing offset samples with silence : Yes
Delete leading and trailing silent blocks : No
Null samples used in CRC calculations : Yes
Used interface : Native Win32 interface for Win NT & 2000

Used output format : User Defined Encoder
Selected bitrate : 1024 kBit/s
Quality : High
Add ID3 tag : No
Command line compressor : C:\Program Files (x86)\Exact Audio Copy\FLAC\FLAC.EXE
Additional command line options : -8 -V -T "ARTIST=%artist%" -T "TITLE=%title%" -T "ALBUM=%albumtitle%" -T "DATE=%year%" -T "TRACKNUMBER=%tracknr%" -T "GENRE=%genre%" -T "PERFORMER=%albuminterpret%" -T "COMPOSER=%composer%" %haslyrics%–tag-from-file=LYRICS="%lyricsfile%"%haslyrics% -T "ALBUMARTIST=%albumartist%" -T "DISCNUMBER=%cdnumber%" -T "TOTALDISCS=%totalcds%" -T "TOTALTRACKS=%numtracks%" -T "COMMENT=%comment%" %source% -o %dest%


TOC of the extracted CD

Track | Start | Length | Start sector | End sector
––––––––––––––––––––––––––––-
1 | 0:00.00 | 4:55.42 | 0 | 22166
2 | 4:55.42 | 6:52.53 | 22167 | 53119
3 | 11:48.20 | 2:51.42 | 53120 | 65986
4 | 14:39.62 | 4:19.50 | 65987 | 85461
5 | 18:59.37 | 5:46.55 | 85462 | 111466
6 | 24:46.17 | 5:46.48 | 111467 | 137464
7 | 30:32.65 | 4:35.05 | 137465 | 158094
8 | 35:07.70 | 6:22.62 | 158095 | 186806
9 | 41:30.57 | 6:23.60 | 186807 | 215591
10 | 47:54.42 | 5:51.43 | 215592 | 241959
11 | 53:46.10 | 7:09.40 | 241960 | 274174
12 | 60:55.50 | 5:18.55 | 274175 | 298079
13 | 66:14.30 | 5:31.55 | 298080 | 322959
14 | 71:46.10 | 8:02.20 | 322960 | 359129


Range status and errors

Selected range

Filename G:\CD\Yes - Yes.wav

Peak level 96.8 %
Extraction speed 7.2 X
Range quality 99.9 %
Test CRC 10A13A06
Copy CRC 10A13A06
Copy OK

No errors occurred


AccurateRip summary

Track 1 cannot be verified as accurate (confidence 54) [353D7FF8], AccurateRip returned [317B4CF4] (AR v2)
Track 2 cannot be verified as accurate (confidence 53) [6AF3F1CD], AccurateRip returned [8C072ECC] (AR v2)
Track 3 cannot be verified as accurate (confidence 54) [5D6F0D98], AccurateRip returned [A9A77BD6] (AR v2)
Track 4 cannot be verified as accurate (confidence 54) [CF1EB3C6], AccurateRip returned [3C7AA472] (AR v2)
Track 5 cannot be verified as accurate (confidence 52) [761A19D2], AccurateRip returned [CB72BEC3] (AR v2)
Track 6 cannot be verified as accurate (confidence 52) [EEEE547D], AccurateRip returned [0910BD3C] (AR v2)
Track 7 cannot be verified as accurate (confidence 53) [CE9E2ED5], AccurateRip returned [1972B205] (AR v2)
Track 8 cannot be verified as accurate (confidence 56) [44386FB5], AccurateRip returned [A8A60720] (AR v2)
Track 9 cannot be verified as accurate (confidence 55) [1C0D594E], AccurateRip returned [AD7C09D6] (AR v2)
Track 10 cannot be verified as accurate (confidence 52) [BD7AECDC], AccurateRip returned [ED9676C3] (AR v2)
Track 11 cannot be verified as accurate (confidence 52) [8589194F], AccurateRip returned [C8724CB1] (AR v2)
Track 12 cannot be verified as accurate (confidence 53) [BD2B75BE], AccurateRip returned [AE9D5F2E] (AR v2)
Track 13 cannot be verified as accurate (confidence 51) [C653E5BB], AccurateRip returned [07E5EDC0] (AR v2)
Track 14 cannot be verified as accurate (confidence 47) [B239C8F7], AccurateRip returned [42D9FA00] (AR v2)

No tracks could be verified as accurate
You may have a different pressing from the one(s) in the database

End of status report

==========

Yes - The Studio Albums 1969-1987 [2013, 13CD Box-Set]

Yes - Time And A Word (1970)
EAC | Flac(Image) + Cue + Log & MP3 CBR 320Kbps
Atlantic/Rhino/Warner, 8122796496-2 | ~ 403 or 148 Mb | Scans Included | Box Art -> 52 Mb
Progressive / Symphonic / Art Rock | 2003 Reissue

Yes' second (and least successful) album was a transitional effort; the group trying for a more produced and sophisticated sound through the use of an orchestra. Even so, the results weren't conventional, because the group didn't tone down or turn down its sound. Much of Time and a Word relies on bold, highly animated performances by Bill Bruford, Chris Squire, and Tony Kaye. Additionally, by this time the group was developing a much tauter ensemble than was evident on their first LP, so there's no lack of visceral excitement. "No Opportunity Necessary, No Experience Needed" was a bold opening, a highly amplified, frenzied adaptation of the Richie Havens song, melded with Jerome Moross's title music from the movie The Big Country. Somewhat more successful musically is "Then," which keeps the orchestral accompaniment to a minimum and allows Kaye and Banks to stretch out on organ and guitar. "Everydays" is highlighted by Anderson's ethereal vocals and Kaye's dueting with the orchestra. A surprising amount of the material here seems rather tuneless, but the group was solidifying its sound and, in the process, forcing Banks out of the lineup, despite some beautiful moments for him (and Tony Kaye) on the prettiest parts of "The Prophet," a piece that also contains fragments of music that anticipate Yes' work right up through Tales from Topographic Oceans. "Astral Traveller," as a title, anticipates the themes of future group work, though they still don't have the dexterity to pull off the tempo changes they're trying for. By the time the record was completed, Banks was out of the band, which is why Steve Howe, his successor, ended up pictured on the cover of most editions.

by Bruce Eder, AMG
Tracklist:

01. No Opportunity Necessary, No Experience Needed - 4:53
02. Then - 5:50
03. Everydays - 6:12
04. Sweet Dreams - 3:52
05. The Prophet - 6:39
06. Clear Days - 2:09
07. Astral Traveller - 5:57
08. Time And A Word - 4:40
09. Dear Father - 4:15

Bonus Tracks:

10. No Opportunity Necessary, No Experience Needed (Original Mix) - 4:46
11. Sweet Dreams (Original Mix) - 4:21
12. The Prophet (Single Version) - 6:34

Exact Audio Copy V1.0 beta 3 from 29. August 2011

EAC extraction logfile from 15. December 2013, 0:57

Yes / Time And A Word

Used drive : ATAPI iHAS124 B Adapter: 2 ID: 0

Read mode : Secure
Utilize accurate stream : Yes
Defeat audio cache : Yes
Make use of C2 pointers : No

Read offset correction : 6
Overread into Lead-In and Lead-Out : No
Fill up missing offset samples with silence : Yes
Delete leading and trailing silent blocks : No
Null samples used in CRC calculations : Yes
Used interface : Native Win32 interface for Win NT & 2000

Used output format : User Defined Encoder
Selected bitrate : 1024 kBit/s
Quality : High
Add ID3 tag : No
Command line compressor : C:\Program Files (x86)\Exact Audio Copy\FLAC\FLAC.EXE
Additional command line options : -8 -V -T "ARTIST=%artist%" -T "TITLE=%title%" -T "ALBUM=%albumtitle%" -T "DATE=%year%" -T "TRACKNUMBER=%tracknr%" -T "GENRE=%genre%" -T "PERFORMER=%albuminterpret%" -T "COMPOSER=%composer%" %haslyrics%–tag-from-file=LYRICS="%lyricsfile%"%haslyrics% -T "ALBUMARTIST=%albumartist%" -T "DISCNUMBER=%cdnumber%" -T "TOTALDISCS=%totalcds%" -T "TOTALTRACKS=%numtracks%" -T "COMMENT=%comment%" %source% -o %dest%


TOC of the extracted CD

Track | Start | Length | Start sector | End sector
––––––––––––––––––––––––––––-
1 | 0:00.00 | 4:52.65 | 0 | 21964
2 | 4:52.65 | 5:49.65 | 21965 | 48204
3 | 10:42.55 | 6:12.22 | 48205 | 76126
4 | 16:55.02 | 3:51.60 | 76127 | 93511
5 | 20:46.62 | 6:38.53 | 93512 | 123414
6 | 27:25.40 | 2:09.17 | 123415 | 133106
7 | 29:34.57 | 5:56.73 | 133107 | 159879
8 | 35:31.55 | 4:39.50 | 159880 | 180854
9 | 40:11.30 | 4:14.65 | 180855 | 199969
10 | 44:26.20 | 4:46.05 | 199970 | 221424
11 | 49:12.25 | 4:20.70 | 221425 | 240994
12 | 53:33.20 | 6:33.72 | 240995 | 270541


Range status and errors

Selected range

Filename G:\CD\Yes - Time And A Word.wav

Peak level 97.2 %
Extraction speed 6.1 X
Range quality 100.0 %
Test CRC 8267513D
Copy CRC 8267513D
Copy OK

No errors occurred


AccurateRip summary

Track 1 cannot be verified as accurate (confidence 52) [C8782F11], AccurateRip returned [9BC46907] (AR v2)
Track 2 cannot be verified as accurate (confidence 50) [C2107BFC], AccurateRip returned [465D6025] (AR v2)
Track 3 cannot be verified as accurate (confidence 49) [E941B218], AccurateRip returned [78165B85] (AR v2)
Track 4 cannot be verified as accurate (confidence 50) [1A22DA83], AccurateRip returned [6403FAAA] (AR v2)
Track 5 cannot be verified as accurate (confidence 48) [333A59F2], AccurateRip returned [9DA71371] (AR v2)
Track 6 cannot be verified as accurate (confidence 48) [A3E321B1], AccurateRip returned [CD7CE488] (AR v2)
Track 7 cannot be verified as accurate (confidence 50) [E5BCBF6F], AccurateRip returned [E60CA5EB] (AR v2)
Track 8 cannot be verified as accurate (confidence 48) [DF09E6B3], AccurateRip returned [2A6F82C7] (AR v2)
Track 9 cannot be verified as accurate (confidence 48) [9CA24D34], AccurateRip returned [333793BD] (AR v2)
Track 10 cannot be verified as accurate (confidence 47) [278F2085], AccurateRip returned [E5E5FB42] (AR v2)
Track 11 cannot be verified as accurate (confidence 48) [31A09D88], AccurateRip returned [80A9D340] (AR v2)
Track 12 cannot be verified as accurate (confidence 46) [0458455B], AccurateRip returned [A9993D82] (AR v2)

No tracks could be verified as accurate
You may have a different pressing from the one(s) in the database

End of status report

==========

Yes - The Studio Albums 1969-1987 [2013, 13CD Box-Set]

Yes - The Yes Album (1971)
EAC | Flac(Image) + Cue + Log & MP3 CBR 320Kbps
Atlantic/Rhino/Warner, 8122796496-3 | ~ 341 or 136 Mb | Scans Included | Box Art -> 52 Mb
Progressive / Symphonic / Art Rock | 2003 Reissue

he album that first gave shape to the established Yes sound, build around science-fiction concepts, folk melodies, and soaring organ, guitar, and vocal showpieces. "Your Move" actually made the U.S. charts as a single, and "Starship Trooper," "Perpetual Change," and "Yours Is No Disgrace" became much-loved parts of the band's concert repertory for many tours to come. Remastered in 1995, with significantly improved sound.

by Bruce Eder, AMG
Tracklist:

01. Yours Is No Disgrace - 9:41
02. Clap (Live) - 3:17
03. Starship Trooper A) Life Seeker, B) Disillusion, C) Wurm - 9:29
04. I've Seen All Good People A) Your Move, B) All Good People - 6:55
05. A Venture - 3:20
06. Perpetual Change - 8:57

Bonus Tracks:

07. Your Move (Single Version) - 3:00
08. Life Seeker (Single Version) - 3:28
09. Clap (Studio Version) - 4:02

Exact Audio Copy V1.0 beta 3 from 29. August 2011

EAC extraction logfile from 15. December 2013, 8:58

Yes / The Yes Album

Used drive : ATAPI iHAS124 B Adapter: 2 ID: 0

Read mode : Secure
Utilize accurate stream : Yes
Defeat audio cache : Yes
Make use of C2 pointers : No

Read offset correction : 6
Overread into Lead-In and Lead-Out : No
Fill up missing offset samples with silence : Yes
Delete leading and trailing silent blocks : No
Null samples used in CRC calculations : Yes
Used interface : Native Win32 interface for Win NT & 2000

Used output format : User Defined Encoder
Selected bitrate : 1024 kBit/s
Quality : High
Add ID3 tag : No
Command line compressor : C:\Program Files (x86)\Exact Audio Copy\FLAC\FLAC.EXE
Additional command line options : -8 -V -T "ARTIST=%artist%" -T "TITLE=%title%" -T "ALBUM=%albumtitle%" -T "DATE=%year%" -T "TRACKNUMBER=%tracknr%" -T "GENRE=%genre%" -T "PERFORMER=%albuminterpret%" -T "COMPOSER=%composer%" %haslyrics%–tag-from-file=LYRICS="%lyricsfile%"%haslyrics% -T "ALBUMARTIST=%albumartist%" -T "DISCNUMBER=%cdnumber%" -T "TOTALDISCS=%totalcds%" -T "TOTALTRACKS=%numtracks%" -T "COMMENT=%comment%" %source% -o %dest%


TOC of the extracted CD

Track | Start | Length | Start sector | End sector
––––––––––––––––––––––––––––-
1 | 0:00.00 | 9:40.72 | 0 | 43571
2 | 9:40.72 | 3:16.48 | 43572 | 58319
3 | 12:57.45 | 9:28.65 | 58320 | 100984
4 | 22:26.35 | 6:55.17 | 100985 | 132126
5 | 29:21.52 | 3:20.33 | 132127 | 147159
6 | 32:42.10 | 8:57.15 | 147160 | 187449
7 | 41:39.25 | 2:59.52 | 187450 | 200926
8 | 44:39.02 | 3:27.68 | 200927 | 216519
9 | 48:06.70 | 4:01.72 | 216520 | 234666


Range status and errors

Selected range

Filename G:\CD\Yes - The Yes Album.wav

Peak level 97.2 %
Extraction speed 5.6 X
Range quality 100.0 %
Test CRC 0E08C3B5
Copy CRC 0E08C3B5
Copy OK

No errors occurred


AccurateRip summary

Track 1 accurately ripped (confidence 10) [10F4E79A] (AR v2)
Track 2 accurately ripped (confidence 10) [7457DFC3] (AR v2)
Track 3 accurately ripped (confidence 10) [08A3148A] (AR v2)
Track 4 accurately ripped (confidence 10) [5968801B] (AR v2)
Track 5 accurately ripped (confidence 10) [753F660B] (AR v2)
Track 6 accurately ripped (confidence 10) [77612569] (AR v2)
Track 7 accurately ripped (confidence 10) [12D9FC34] (AR v2)
Track 8 accurately ripped (confidence 10) [18BF9A15] (AR v2)
Track 9 accurately ripped (confidence 10) [44DF4C71] (AR v2)

All tracks accurately ripped

End of status report

==========

Yes - The Studio Albums 1969-1987 [2013, 13CD Box-Set]

Yes - Fragile (1971)
EAC | Flac(Image) + Cue + Log & MP3 CBR 320Kbps
Atlantic/Rhino/Warner, 8122796496 | ~ 422 or 160 Mb | Scans Included | Box Art -> 52 Mb
Progressive / Symphonic / Art Rock | 2003 Reissue

Fragile was Yes' breakthrough album, propelling them in a matter of weeks from a cult act to an international phenomenon; not coincidentally, it also marked the point where all of the elements of the music (and more) that would define their success for more than a decade fell into place fully formed. The science-fiction and fantasy elements that had driven the more successful songs on their preceding record, The Yes Album, were pushed much harder here, and not just in the music but in the packaging of the album:the Roger Dean-designed cover was itself a fascinating creation that seemed to relate to the music and drew the purchaser's attention in a manner that few records since the heyday of the psychedelic era could match. Having thrown original keyboard player Tony Kaye overboard early in the sessions – principally over his refusal to accept the need for the Moog synthesizer in lieu of his preferred Hammond organ – the band welcomed Rick Wakeman into its ranks. His use of the Moog, among other instruments, coupled with an overall bolder and more aggressive style of playing, opened the way for a harder, hotter sound by the group as a whole; bassist Chris Squire sounds like he's got his amp turned up to "12," and Steve Howe's electric guitars are not far behind, although the group also displayed subtlety where it was needed. The opening minute of "Roundabout," the album opener – and the basis for the edited single that would reach number 13 on the Billboard charts and get the group onto AM radio in a way that most other prog rock outfits could only look upon with envy – was dominated by Howe's acoustic guitar and Bill Bruford‘s drums, and only in the middle section did the band show some of what they could do with serious amperage. Elsewhere on the record, as on "South Side of the Sky," they would sound as though they were ready to leave the ground (and the planet), between the volume and intensity of their playing. "Long Distance Runaround," which also served as the B-side of the single, was probably the most accessible track here apart from "Roundabout," but they were both ambitious enough to carry most listeners on to the heavier sides at the core of this long player. The solo tracks by the members were actually a necessity: they needed to get Fragile out in a hurry to cover the cost of the keyboards that Wakeman had added to the group's sonic arsenal. But they ended up being more than filler. Each member, in effect, took a "bow" in mostly fairly serious settings, and Squire's "The Fish" and Howe's "Mood For a Day" pointed directly to future, more substantial projects as well as taking on a life of their own on-stage. If not exactly their peak, Fragile was as perfect a record as the group would ever make, and just as flawless in its timing as its content.

by Bruce Eder, AMG
Tracklist:

01. Roundabout - 8:36
02. Cans And Brahms - 1:43
03. We Have Heaven - 1:40
04. South Side Of The Sky - 7:58
05. Five Per Cent Of Nothing - 0:38
06. Long Distance Runaround - 3:30
07. The Fish (Schindleria Praematurus) - 2:42
08. Mood For A Day - 3:03
09. Heart Of The Sunrise - 11:33

Bonus Tracks:

10. America - 10:33
11. Roundabout [Early Rough Mix] - 8:35

Exact Audio Copy V1.0 beta 3 from 29. August 2011

EAC extraction logfile from 15. December 2013, 9:29

Yes / Fragile

Used drive : ATAPI iHAS124 B Adapter: 2 ID: 0

Read mode : Secure
Utilize accurate stream : Yes
Defeat audio cache : Yes
Make use of C2 pointers : No

Read offset correction : 6
Overread into Lead-In and Lead-Out : No
Fill up missing offset samples with silence : Yes
Delete leading and trailing silent blocks : No
Null samples used in CRC calculations : Yes
Used interface : Native Win32 interface for Win NT & 2000

Used output format : User Defined Encoder
Selected bitrate : 1024 kBit/s
Quality : High
Add ID3 tag : No
Command line compressor : C:\Program Files (x86)\Exact Audio Copy\FLAC\FLAC.EXE
Additional command line options : -8 -V -T "ARTIST=%artist%" -T "TITLE=%title%" -T "ALBUM=%albumtitle%" -T "DATE=%year%" -T "TRACKNUMBER=%tracknr%" -T "GENRE=%genre%" -T "PERFORMER=%albuminterpret%" -T "COMPOSER=%composer%" %haslyrics%–tag-from-file=LYRICS="%lyricsfile%"%haslyrics% -T "ALBUMARTIST=%albumartist%" -T "DISCNUMBER=%cdnumber%" -T "TOTALDISCS=%totalcds%" -T "TOTALTRACKS=%numtracks%" -T "COMMENT=%comment%" %source% -o %dest%


TOC of the extracted CD

Track | Start | Length | Start sector | End sector
––––––––––––––––––––––––––––-
1 | 0:00.00 | 8:35.72 | 0 | 38696
2 | 8:35.72 | 1:42.63 | 38697 | 46409
3 | 10:18.60 | 1:39.55 | 46410 | 53889
4 | 11:58.40 | 7:58.05 | 53890 | 89744
5 | 19:56.45 | 0:37.52 | 89745 | 92571
6 | 20:34.22 | 3:30.20 | 92572 | 108341
7 | 24:04.42 | 2:42.08 | 108342 | 120499
8 | 26:46.50 | 3:02.60 | 120500 | 134209
9 | 29:49.35 | 11:32.52 | 134210 | 186161
10 | 41:22.12 | 10:33.25 | 186162 | 233661
11 | 51:55.37 | 8:35.10 | 233662 | 272296


Range status and errors

Selected range

Filename G:\CD\Yes - Fragile.wav

Peak level 100.0 %
Extraction speed 6.3 X
Range quality 100.0 %
Test CRC CED8B771
Copy CRC CED8B771
Copy OK

No errors occurred


AccurateRip summary

Track 1 cannot be verified as accurate (confidence 163) [D7220F88], AccurateRip returned [BBB3EFA0] (AR v2)
Track 2 cannot be verified as accurate (confidence 160) [B6C14688], AccurateRip returned [1BB8EADE] (AR v2)
Track 3 cannot be verified as accurate (confidence 161) [C7A5B6BC], AccurateRip returned [986F3288] (AR v2)
Track 4 cannot be verified as accurate (confidence 161) [0B89167E], AccurateRip returned [972260C9] (AR v2)
Track 5 cannot be verified as accurate (confidence 162) [1F4217E8], AccurateRip returned [6BBBE652] (AR v2)
Track 6 cannot be verified as accurate (confidence 164) [C9D81F43], AccurateRip returned [347AFF39] (AR v2)
Track 7 cannot be verified as accurate (confidence 161) [61B6E585], AccurateRip returned [4C3BBE3E] (AR v2)
Track 8 cannot be verified as accurate (confidence 162) [A827DB0F], AccurateRip returned [CEC2B3F6] (AR v2)
Track 9 cannot be verified as accurate (confidence 160) [93374949], AccurateRip returned [C90C43E4] (AR v2)
Track 10 cannot be verified as accurate (confidence 159) [D956F3D2], AccurateRip returned [68BC947A] (AR v2)
Track 11 cannot be verified as accurate (confidence 150) [C2319F16], AccurateRip returned [949BC973] (AR v2)

No tracks could be verified as accurate
You may have a different pressing from the one(s) in the database

End of status report

==========

Yes - The Studio Albums 1969-1987 [2013, 13CD Box-Set]

Yes - Close To The Edge (1972)
EAC | Flac(Image) + Cue + Log & MP3 CBR 320Kbps
Atlantic/Rhino/Warner, 8122796496-5 | ~ 468 or 175 Mb | Scans Included | Box Art -> 52 Mb
Progressive / Symphonic / Art Rock | 2003 Reissue

With 1971's Fragile having left Yes poised quivering on the brink of what friend and foe acknowledged was the peak of the band's achievement, Close to the Edge was never going to be an easy album to make. Drummer Bill Bruford was already shifting restlessly against Jon Anderson's increasingly mystic/mystifying lyricism, while contemporary reports of the recording sessions depicted bandmate Rick Wakeman, too, as little more than an observer to the vast tapestry that Anderson, Steve Howe, and Chris Squire were creating. For it was vast. Close to the Edge comprised just three tracks, the epic "And You and I" and "Siberian Khatru," plus a side-long title track that represented the musical, lyrical, and sonic culmination of all that Yes had worked toward over the past five years. Close to the Edge would make the Top Five on both sides of the Atlantic, dispatch Yes on the longest tour of its career so far and, if hindsight be the guide, launch the band on a downward swing that only disintegration, rebuilding, and a savage change of direction would cure. The latter, however, was still to come. In 1972, Close to the Edge was a flawless masterpiece.

by Dave Thompson, AMG
Tracklist:

01. Close To The Edge - 18:43
02. And You And I - 10:09
03. Siberian Khatru - 9:01

Bonus Tracks:

04. America [Single Version] - 4:13
05. Total Mass Retain [Single Version] - 3:21
06. And You And I [Alternate Version] - 10:18
07. Siberia [Studio Run-Through Of 'Siberian Khatru'] - 9:20

Exact Audio Copy V1.0 beta 3 from 29. August 2011

EAC extraction logfile from 15. December 2013, 10:18

Yes / Close To The Edge

Used drive : ATAPI iHAS124 B Adapter: 2 ID: 0

Read mode : Secure
Utilize accurate stream : Yes
Defeat audio cache : Yes
Make use of C2 pointers : No

Read offset correction : 6
Overread into Lead-In and Lead-Out : No
Fill up missing offset samples with silence : Yes
Delete leading and trailing silent blocks : No
Null samples used in CRC calculations : Yes
Used interface : Native Win32 interface for Win NT & 2000

Used output format : User Defined Encoder
Selected bitrate : 1024 kBit/s
Quality : High
Add ID3 tag : No
Command line compressor : C:\Program Files (x86)\Exact Audio Copy\FLAC\FLAC.EXE
Additional command line options : -8 -V -T "ARTIST=%artist%" -T "TITLE=%title%" -T "ALBUM=%albumtitle%" -T "DATE=%year%" -T "TRACKNUMBER=%tracknr%" -T "GENRE=%genre%" -T "PERFORMER=%albuminterpret%" -T "COMPOSER=%composer%" %haslyrics%–tag-from-file=LYRICS="%lyricsfile%"%haslyrics% -T "ALBUMARTIST=%albumartist%" -T "DISCNUMBER=%cdnumber%" -T "TOTALDISCS=%totalcds%" -T "TOTALTRACKS=%numtracks%" -T "COMMENT=%comment%" %source% -o %dest%


TOC of the extracted CD

Track | Start | Length | Start sector | End sector
––––––––––––––––––––––––––––-
1 | 0:00.00 | 18:42.48 | 0 | 84197
2 | 18:42.48 | 10:08.55 | 84198 | 129852
3 | 28:51.28 | 9:00.60 | 129853 | 170412
4 | 37:52.13 | 4:12.60 | 170413 | 189372
5 | 42:04.73 | 3:21.32 | 189373 | 204479
6 | 45:26.30 | 10:17.66 | 204480 | 250820
7 | 55:44.21 | 9:19.63 | 250821 | 292808


Range status and errors

Selected range

Filename G:\CD\Yes - Close To The Edge.wav

Peak level 98.8 %
Extraction speed 5.0 X
Range quality 100.0 %
Test CRC 57E11D22
Copy CRC 57E11D22
Copy OK

No errors occurred


AccurateRip summary

Track 1 cannot be verified as accurate (confidence 130) [343D0D05], AccurateRip returned [472E477F] (AR v2)
Track 2 cannot be verified as accurate (confidence 135) [AF1A7942], AccurateRip returned [D2B6AB12] (AR v2)
Track 3 cannot be verified as accurate (confidence 134) [09BBF3B3], AccurateRip returned [F9DC1DB3] (AR v2)
Track 4 cannot be verified as accurate (confidence 128) [CD9D7A5D], AccurateRip returned [58D5943E] (AR v2)
Track 5 cannot be verified as accurate (confidence 86) [4D0F91DB], AccurateRip returned [EA113116] (AR v2)
Track 6 cannot be verified as accurate (confidence 126) [F8D3023C], AccurateRip returned [E823F9D6] (AR v2)
Track 7 cannot be verified as accurate (confidence 120) [D867A5CE], AccurateRip returned [1053005E] (AR v2)

No tracks could be verified as accurate
You may have a different pressing from the one(s) in the database

End of status report

==========

Yes - The Studio Albums 1969-1987 [2013, 13CD Box-Set]

Yes - Tales From Topographic Oceans (1973)
EAC | Flac(Image) + Cue + Log & MP3 CBR 320Kbps
2CD | Atlantic/Rhino/Warner, 8122796496-6 | ~ 805 or 324 Mb | Scans Included | Box Art -> 52 Mb
Progressive / Symphonic / Art Rock | 2003 Reissue

Four decades after its release, this is still the most controversial record in Yes' output. Tales from Topographic Oceans was the place where Yes either fulfilled all of the promise shown on their previous five albums or slid off the rails in a fit of artistic hubris, especially on the part of lead singer Jon Anderson and guitarist Steve Howe, who dominated the composition credits here. Actually, the group probably did a bit of both here across 80 minutes of music on a fully packed double-LP set; the group's musical ambitions were obvious on its face, as it consisted of four long songs (really suites) each taking up a side of an album, and each longer than the previous album's side-long "Close to the Edge." And Tales had a jumping-off point that was as far advanced in complexity and density as Close to the Edge had been out in front of its predecessor, Fragile, – and all of it made The Yes Album seem like basic rock & roll. Anderson, by virtue of his voice and lyrics, is the dominant personality on Tales, and his fascination with Eastern religion is fully manifest, as never before (or since). Confronted by song titles such as "The Revealing Science of God," and a concept derived from the Buddhist Shastric scriptures, the casual listener might have felt in need of both a running start and a sheet of footnotes: Yes keyboard player Rick Wakeman clearly felt something along those lines, as it was while making this record that he decided to exit the group. And, yet, Tales contains some of the most sublimely beautiful musical passages ever to come from the group, and develops a major chunk of that music in depth and degrees in ways that one can only marvel at, though there's a big leap from marvel to enjoy. If one can grab onto it, Tales is a long, sometimes glorious musical ride across landscapes strange and wonderful, thick with enticing musical textures; it offers the Yes fan the chance to be a true "astral traveler." Apart from one percussion break by Alan White that doesn't come off (if there had to be a Yes album with a percussion solo, why couldn't it have come along when Bill Bruford was in the band?), the music never falls flat, and it's a pity that Wakeman couldn't appreciate the richness and vitality he brought to the album. And Anderson and Howe get to work in an extraordinarily wide range of musical voices. In another reality, perhaps the gorgeous, folk-like passages on Tales would have spawned songs of four or five minutes, but here they are, woven into these long-form pieces, and if one can take the plunge into these particular sonic oceans, and comfortably stay under long enough, it's a journey that will reward. But it's not a trip for everyone – or even every Yes fan – to take, especially not too soon after discovering the album.

by Bruce Eder, AMG
Tracklist CD1:

01. The Revealing Science of God . Dance of the Dawn - 22:37
02. The Remembering . High the Memory - 20:53
03. The Ancient . Giants Under the Sun - 18:35

Exact Audio Copy V1.0 beta 3 from 29. August 2011

EAC extraction logfile from 15. December 2013, 18:15

Yes / Tales From Topographic Oceans CD1

Used drive : ATAPI iHAS124 B Adapter: 2 ID: 0

Read mode : Secure
Utilize accurate stream : Yes
Defeat audio cache : Yes
Make use of C2 pointers : No

Read offset correction : 6
Overread into Lead-In and Lead-Out : No
Fill up missing offset samples with silence : Yes
Delete leading and trailing silent blocks : No
Null samples used in CRC calculations : Yes
Used interface : Native Win32 interface for Win NT & 2000

Used output format : User Defined Encoder
Selected bitrate : 1024 kBit/s
Quality : High
Add ID3 tag : No
Command line compressor : C:\Program Files (x86)\Exact Audio Copy\FLAC\FLAC.EXE
Additional command line options : -8 -V -T "ARTIST=%artist%" -T "TITLE=%title%" -T "ALBUM=%albumtitle%" -T "DATE=%year%" -T "TRACKNUMBER=%tracknr%" -T "GENRE=%genre%" -T "PERFORMER=%albuminterpret%" -T "COMPOSER=%composer%" %haslyrics%–tag-from-file=LYRICS="%lyricsfile%"%haslyrics% -T "ALBUMARTIST=%albumartist%" -T "DISCNUMBER=%cdnumber%" -T "TOTALDISCS=%totalcds%" -T "TOTALTRACKS=%numtracks%" -T "COMMENT=%comment%" %source% -o %dest%


TOC of the extracted CD

Track | Start | Length | Start sector | End sector
––––––––––––––––––––––––––––-
1 | 0:00.00 | 22:37.07 | 0 | 101781
2 | 22:37.07 | 20:53.13 | 101782 | 195769
3 | 43:30.20 | 18:35.27 | 195770 | 279421


Range status and errors

Selected range

Filename G:\CD\Yes - Tales From Topographic Oceans CD1.wav

Peak level 94.6 %
Extraction speed 6.2 X
Range quality 100.0 %
Test CRC 2B9D37C0
Copy CRC 2B9D37C0
Copy OK

No errors occurred


AccurateRip summary

Track 1 cannot be verified as accurate (confidence 98) [0F4FEEFC], AccurateRip returned [66C9508E] (AR v2)
Track 2 cannot be verified as accurate (confidence 100) [6994E9FF], AccurateRip returned [83B231BA] (AR v2)
Track 3 cannot be verified as accurate (confidence 98) [E6D783C5], AccurateRip returned [319D6F5A] (AR v2)

No tracks could be verified as accurate
You may have a different pressing from the one(s) in the database

End of status report

Tracklist CD2:

01. Ritual - Nous Sommes Du Soleil - 21:52

Bonus Tracks:

02. Dance Of The Dawn (Studio Runthrough) - 23:36
03. Giants Under The Sun (Studio Runthrough) (Bonus Track) - 17:18

Exact Audio Copy V1.0 beta 3 from 29. August 2011

EAC extraction logfile from 15. December 2013, 19:00

Yes / Tales From Topographic Oceans CD2

Used drive : ATAPI iHAS124 B Adapter: 2 ID: 0

Read mode : Secure
Utilize accurate stream : Yes
Defeat audio cache : Yes
Make use of C2 pointers : No

Read offset correction : 6
Overread into Lead-In and Lead-Out : No
Fill up missing offset samples with silence : Yes
Delete leading and trailing silent blocks : No
Null samples used in CRC calculations : Yes
Used interface : Native Win32 interface for Win NT & 2000

Used output format : User Defined Encoder
Selected bitrate : 1024 kBit/s
Quality : High
Add ID3 tag : No
Command line compressor : C:\Program Files (x86)\Exact Audio Copy\FLAC\FLAC.EXE
Additional command line options : -8 -V -T "ARTIST=%artist%" -T "TITLE=%title%" -T "ALBUM=%albumtitle%" -T "DATE=%year%" -T "TRACKNUMBER=%tracknr%" -T "GENRE=%genre%" -T "PERFORMER=%albuminterpret%" -T "COMPOSER=%composer%" %haslyrics%–tag-from-file=LYRICS="%lyricsfile%"%haslyrics% -T "ALBUMARTIST=%albumartist%" -T "DISCNUMBER=%cdnumber%" -T "TOTALDISCS=%totalcds%" -T "TOTALTRACKS=%numtracks%" -T "COMMENT=%comment%" %source% -o %dest%


TOC of the extracted CD

Track | Start | Length | Start sector | End sector
––––––––––––––––––––––––––––-
1 | 0:00.00 | 21:52.17 | 0 | 98416
2 | 21:52.17 | 23:35.58 | 98417 | 204599
3 | 45:28.00 | 17:17.45 | 204600 | 282419


Range status and errors

Selected range

Filename G:\CD\Yes - Tales From Topographic Oceans CD2.wav

Peak level 94.6 %
Extraction speed 6.5 X
Range quality 100.0 %
Test CRC FC08B6EB
Copy CRC FC08B6EB
Copy OK

No errors occurred


AccurateRip summary

Track 1 cannot be verified as accurate (confidence 99) [A380A854], AccurateRip returned [3A9F8B5C] (AR v2)
Track 2 cannot be verified as accurate (confidence 94) [90E3DB1E], AccurateRip returned [486BF2C9] (AR v2)
Track 3 cannot be verified as accurate (confidence 92) [D629AC72], AccurateRip returned [DB1F9164] (AR v2)

No tracks could be verified as accurate
You may have a different pressing from the one(s) in the database

End of status report

==========

Yes - The Studio Albums 1969-1987 [2013, 13CD Box-Set]

Yes - Relayer (1974)
EAC | Flac(Image) + Cue + Log & MP3 CBR 320Kbps
Atlantic/Rhino/Warner, 8122796496-7 | ~ 500 or 164 Mb | Scans Included | Box Art -> 52 Mb
Progressive / Symphonic / Art Rock | 2003 Reissue

Yes had fallen out of critical favor with Tales from Topographic Oceans, a two-record set of four songs that reviewers found indulgent. But they had not fallen out of the Top Ten, and so they had little incentive to curb their musical ambitiousness. Relayer, released 11 months after Tales, was a single-disc, three-song album, its music organized into suites that alternated abrasive, rhythmically dense instrumental sections featuring solos for the various instruments with delicate vocal and choral sections featuring poetic lyrics devoted to spiritual imagery. Such compositions seemed intended to provide an interesting musical landscape over which the listener might travel, and enough Yes fans did that to make Relayer a Top Ten, gold-selling hit, though critics continued to complain about the lack of concise, coherent song structures.

by William Ruhlmann, AMG
Tracklist:

01. The Gates Of Delirium - 21:56
02. Sound Chaser - 9:27
03. To Be Over - 9:19

Bonus Tracks:

04. Soon [Single Edit] - 4:18
05. Sound Chaser [Single Edit] - 3:14
06. The Gates Of Delirium [Studio Run-Through] - 21:17

Exact Audio Copy V1.0 beta 3 from 29. August 2011

EAC extraction logfile from 15. December 2013, 13:38

Yes / Relayer

Used drive : ATAPI iHAS124 B Adapter: 2 ID: 0

Read mode : Secure
Utilize accurate stream : Yes
Defeat audio cache : Yes
Make use of C2 pointers : No

Read offset correction : 6
Overread into Lead-In and Lead-Out : No
Fill up missing offset samples with silence : Yes
Delete leading and trailing silent blocks : No
Null samples used in CRC calculations : Yes
Used interface : Native Win32 interface for Win NT & 2000

Used output format : User Defined Encoder
Selected bitrate : 1024 kBit/s
Quality : High
Add ID3 tag : No
Command line compressor : C:\Program Files (x86)\Exact Audio Copy\FLAC\FLAC.EXE
Additional command line options : -8 -V -T "ARTIST=%artist%" -T "TITLE=%title%" -T "ALBUM=%albumtitle%" -T "DATE=%year%" -T "TRACKNUMBER=%tracknr%" -T "GENRE=%genre%" -T "PERFORMER=%albuminterpret%" -T "COMPOSER=%composer%" %haslyrics%–tag-from-file=LYRICS="%lyricsfile%"%haslyrics% -T "ALBUMARTIST=%albumartist%" -T "DISCNUMBER=%cdnumber%" -T "TOTALDISCS=%totalcds%" -T "TOTALTRACKS=%numtracks%" -T "COMMENT=%comment%" %source% -o %dest%


TOC of the extracted CD

Track | Start | Length | Start sector | End sector
––––––––––––––––––––––––––––-
1 | 0:00.00 | 21:56.10 | 0 | 98709
2 | 21:56.10 | 9:27.17 | 98710 | 141251
3 | 31:23.27 | 9:19.14 | 141252 | 183190
4 | 40:42.41 | 4:18.10 | 183191 | 202550
5 | 45:00.51 | 3:13.63 | 202551 | 217088
6 | 48:14.39 | 21:16.44 | 217089 | 312832


Range status and errors

Selected range

Filename G:\CD\Yes - Relayer.wav

Peak level 98.8 %
Extraction speed 6.7 X
Range quality 100.0 %
Test CRC 02389401
Copy CRC 02389401
Copy OK

No errors occurred


AccurateRip summary

Track 1 cannot be verified as accurate (confidence 93) [3A475CE8], AccurateRip returned [4FB8A7EB] (AR v2)
Track 2 cannot be verified as accurate (confidence 91) [E2B8C1CF], AccurateRip returned [FACDCE55] (AR v2)
Track 3 cannot be verified as accurate (confidence 91) [CDF2B861], AccurateRip returned [E6A8AD29] (AR v2)
Track 4 cannot be verified as accurate (confidence 87) [5E35C995], AccurateRip returned [F06F28F6] (AR v2)
Track 5 cannot be verified as accurate (confidence 87) [52576DB4], AccurateRip returned [6A30F35E] (AR v2)
Track 6 cannot be verified as accurate (confidence 82) [0DD01DCB], AccurateRip returned [F36C52B1] (AR v2)

No tracks could be verified as accurate
You may have a different pressing from the one(s) in the database

End of status report

==========

Yes - The Studio Albums 1969-1987 [2013, 13CD Box-Set]

Yes - Going For The One (1977)
EAC | Flac(Image) + Cue + Log & MP3 CBR 320Kbps
Atlantic/Rhino/Warner, 8122796496-8 | ~ 543 or 219 Mb | Scans Included | Box Art -> 52 Mb
Progressive / Symphonic / Art Rock | 2003 Reissue

Going for the One is perhaps the most overlooked item in the Yes catalog. It marked Rick Wakeman's return to the band after a three-year absence, and also a return to shorter song forms after the experimentalism of Close to the Edge, Tales from Topographic Oceans, and Relayer. In many ways, this disc could be seen as the follow-up to Fragile. Its five tracks still retain mystical, abstract lyrical images, and the music is grand and melodic, the vocal harmonies perfectly balanced by the stinging guitar work of Steve Howe, Wakeman's keyboards, and the solid rhythms of Alan White and Chris Squire. The title track features Howe on steel guitar (he's the only prog rocker who bothers with the instrument). "Turn of the Century" and the album's single, "Wonderous Stories," are lovely ballads the way only Yes can do them. "Parallels" is the album's big, pompous song, so well done that in later years the band opened concerts with it. Wakeman's stately church organ, recorded at St. Martin's Church, Vevey, Switzerland, sets the tone for this "Roundabout"-ish track. The concluding "Awaken" is the album's nod to the extended suite. Again, the lyrics are spacy in the extreme, but Jon Anderson and Squire are dead-on vocally, and the addition of Anderson's harp and White's tuned percussion round out this evocative track.

by Ross Boissoneau, AMG
Tracklist:

01. Going For The One - 5:32
02. Turn Of The Century - 7:55
03. Parallels - 5:58
04. Wonderous Stories - 3:50
05. Awaken - 15:38

Bonus Tracks:

06. Montreux's Theme - 2:38
07. Vevey (Revisited) - 4:47
08. Amazing Grace - 2:36
09. Going For The One [Rehearsal] - 5:11
10. Parallels [Rehearsal] - 6:21
11. Turn Of The Century [Rehearsal] - 6:59
12. Eastern Numbers [Early Version Of 'Awaken'] - 12:17

Exact Audio Copy V1.0 beta 3 from 29. August 2011

EAC extraction logfile from 15. December 2013, 14:28

Yes / Going For The One

Used drive : ATAPI iHAS124 B Adapter: 2 ID: 0

Read mode : Secure
Utilize accurate stream : Yes
Defeat audio cache : Yes
Make use of C2 pointers : No

Read offset correction : 6
Overread into Lead-In and Lead-Out : No
Fill up missing offset samples with silence : Yes
Delete leading and trailing silent blocks : No
Null samples used in CRC calculations : Yes
Used interface : Native Win32 interface for Win NT & 2000

Used output format : User Defined Encoder
Selected bitrate : 1024 kBit/s
Quality : High
Add ID3 tag : No
Command line compressor : C:\Program Files (x86)\Exact Audio Copy\FLAC\FLAC.EXE
Additional command line options : -8 -V -T "ARTIST=%artist%" -T "TITLE=%title%" -T "ALBUM=%albumtitle%" -T "DATE=%year%" -T "TRACKNUMBER=%tracknr%" -T "GENRE=%genre%" -T "PERFORMER=%albuminterpret%" -T "COMPOSER=%composer%" %haslyrics%–tag-from-file=LYRICS="%lyricsfile%"%haslyrics% -T "ALBUMARTIST=%albumartist%" -T "DISCNUMBER=%cdnumber%" -T "TOTALDISCS=%totalcds%" -T "TOTALTRACKS=%numtracks%" -T "COMMENT=%comment%" %source% -o %dest%


TOC of the extracted CD

Track | Start | Length | Start sector | End sector
––––––––––––––––––––––––––––-
1 | 0:00.00 | 5:32.34 | 0 | 24933
2 | 5:32.34 | 7:55.36 | 24934 | 60594
3 | 13:27.70 | 5:58.08 | 60595 | 87452
4 | 19:26.03 | 3:50.27 | 87453 | 104729
5 | 23:16.30 | 15:38.07 | 104730 | 175086
6 | 38:54.37 | 2:38.30 | 175087 | 186966
7 | 41:32.67 | 4:46.40 | 186967 | 208456
8 | 46:19.32 | 2:36.06 | 208457 | 220162
9 | 48:55.38 | 5:10.63 | 220163 | 243475
10 | 54:06.26 | 6:21.02 | 243476 | 272052
11 | 60:27.28 | 6:58.59 | 272053 | 303461
12 | 67:26.12 | 12:16.70 | 303462 | 358731


Range status and errors

Selected range

Filename G:\CD\Yes - Going For The One.wav

Peak level 96.1 %
Extraction speed 5.5 X
Range quality 99.9 %
Test CRC 8CE60301
Copy CRC 8CE60301
Copy OK

No errors occurred


AccurateRip summary

Track 1 cannot be verified as accurate (confidence 67) [5A14646E], AccurateRip returned [4605BE2F] (AR v2)
Track 2 cannot be verified as accurate (confidence 67) [8E0B7B91], AccurateRip returned [DEF98B3C] (AR v2)
Track 3 cannot be verified as accurate (confidence 67) [5C57F4FF], AccurateRip returned [6964F4E4] (AR v2)
Track 4 cannot be verified as accurate (confidence 67) [9F37068F], AccurateRip returned [54B5C2CD] (AR v2)
Track 5 cannot be verified as accurate (confidence 67) [B2C679AF], AccurateRip returned [A4E031F8] (AR v2)
Track 6 cannot be verified as accurate (confidence 67) [98F938B5], AccurateRip returned [F2AAACB8] (AR v2)
Track 7 cannot be verified as accurate (confidence 67) [5EA01815], AccurateRip returned [60DA79BA] (AR v2)
Track 8 cannot be verified as accurate (confidence 66) [20ED8349], AccurateRip returned [B35EC6A0] (AR v2)
Track 9 cannot be verified as accurate (confidence 66) [799D607F], AccurateRip returned [BACF4849] (AR v2)
Track 10 cannot be verified as accurate (confidence 66) [304EF3D0], AccurateRip returned [95F758D8] (AR v2)
Track 11 cannot be verified as accurate (confidence 66) [4B2AF2EE], AccurateRip returned [740E20B9] (AR v2)
Track 12 cannot be verified as accurate (confidence 64) [0950CC63], AccurateRip returned [9916AB9E] (AR v2)

No tracks could be verified as accurate
You may have a different pressing from the one(s) in the database

End of status report

==========

Yes - The Studio Albums 1969-1987 [2013, 13CD Box-Set]

Yes - Tormato (1978)
EAC | Flac(Image) + Cue + Log & MP3 CBR 320Kbps
Atlantic/Rhino/Warner, 8122796496-9 | ~ 537 or 201 Mb | Scans Included | Box Art -> 52 Mb
Progressive / Symphonic / Art Rock | 2004 Reissue

The '70s model of Yes runs out of gas. Recorded in a morale slump and an impending haze of drink, Tormato's decent tunes are sabotaged by Rick Wakeman's increasing penchant for cheesy textures and the band's thin overall sound. "Don't Kill the Whale" was their last successful single for years; the soaring "Onward" almost but not quite redeems the twee silliness of "Arriving UFO" and "Circus of Heaven." Of special interest is the pounding "On the Silent Wings of Freedom," which pushes Chris Squire and Alan White to the front of the mix, establishing the kind of aggressive and straightforward rhythms that would propel the band through the '80s. Bass freaks, take note: this tune also marks one of the few appearances of the Dipthong pedal, accounting for Squire's distinctive "bow bow bow" sound.

by Paul Collins, AMG
Tracklist:

01. A.) Future Times B.) Rejoice - 6:47
02. Don't Kill The Whale - 3:58
03. Madrigal - 2:27
04. Release, Release - 5:49
05. Arriving UFO - 6:09
06. Circus Of Heaven - 4:32
07. Onward - 4:05
08. On The Silent Wings Of Freedom - 7:52

Bonus Tracks:

09. Abilene (B-Side To 'Don't Kill The Whale' Single) - 4:03
10. Money - 3:15
11. Picasso (Previously Unissued) - 2:12
12. Some Are Born (Previously Unissued) - 5:43
13. You Can Be Saved (Previously Unissued) - 4:20
14. High (Previously Unissued) - 4:30
15. Days (Demo) - 1:00
16. Countryside (Previously Unissued) - 3:12
17. Everybody's Song (Early Version Of 'Does It Really Happen) - 6:48
18. Onward (Orchestral Version) - 3:06

Exact Audio Copy V1.0 beta 3 from 29. August 2011

EAC extraction logfile from 15. December 2013, 14:56

Yes / Tormato

Used drive : ATAPI iHAS124 B Adapter: 2 ID: 0

Read mode : Secure
Utilize accurate stream : Yes
Defeat audio cache : Yes
Make use of C2 pointers : No

Read offset correction : 6
Overread into Lead-In and Lead-Out : No
Fill up missing offset samples with silence : Yes
Delete leading and trailing silent blocks : No
Null samples used in CRC calculations : Yes
Used interface : Native Win32 interface for Win NT & 2000

Used output format : User Defined Encoder
Selected bitrate : 1024 kBit/s
Quality : High
Add ID3 tag : No
Command line compressor : C:\Program Files (x86)\Exact Audio Copy\FLAC\FLAC.EXE
Additional command line options : -8 -V -T "ARTIST=%artist%" -T "TITLE=%title%" -T "ALBUM=%albumtitle%" -T "DATE=%year%" -T "TRACKNUMBER=%tracknr%" -T "GENRE=%genre%" -T "PERFORMER=%albuminterpret%" -T "COMPOSER=%composer%" %haslyrics%–tag-from-file=LYRICS="%lyricsfile%"%haslyrics% -T "ALBUMARTIST=%albumartist%" -T "DISCNUMBER=%cdnumber%" -T "TOTALDISCS=%totalcds%" -T "TOTALTRACKS=%numtracks%" -T "COMMENT=%comment%" %source% -o %dest%


TOC of the extracted CD

Track | Start | Length | Start sector | End sector
––––––––––––––––––––––––––––-
1 | 0:00.00 | 6:46.55 | 0 | 30504
2 | 6:46.55 | 3:58.13 | 30505 | 48367
3 | 10:44.68 | 2:27.18 | 48368 | 59410
4 | 13:12.11 | 5:48.61 | 59411 | 85571
5 | 19:00.72 | 6:08.66 | 85572 | 113237
6 | 25:09.63 | 4:32.19 | 113238 | 133656
7 | 29:42.07 | 4:05.09 | 133657 | 152040
8 | 33:47.16 | 7:52.28 | 152041 | 187468
9 | 41:39.44 | 4:02.72 | 187469 | 205690
10 | 45:42.41 | 3:14.53 | 205691 | 220293
11 | 48:57.19 | 2:12.01 | 220294 | 230194
12 | 51:09.20 | 5:42.50 | 230195 | 255894
13 | 56:51.70 | 4:20.21 | 255895 | 275415
14 | 61:12.16 | 4:30.17 | 275416 | 295682
15 | 65:42.33 | 1:00.37 | 295683 | 300219
16 | 66:42.70 | 3:11.53 | 300220 | 314597
17 | 69:54.48 | 6:48.08 | 314598 | 345205
18 | 76:42.56 | 3:06.08 | 345206 | 359163


Range status and errors

Selected range

Filename G:\CD\Yes - Tormato.wav

Peak level 98.8 %
Extraction speed 7.3 X
Range quality 100.0 %
Test CRC A41EB513
Copy CRC A41EB513
Copy OK

No errors occurred


AccurateRip summary

Track 1 accurately ripped (confidence 53) [9B14DD9D] (AR v2)
Track 2 accurately ripped (confidence 52) [D0D22429] (AR v2)
Track 3 accurately ripped (confidence 54) [25F3B7FC] (AR v2)
Track 4 accurately ripped (confidence 54) [2775CABB] (AR v2)
Track 5 accurately ripped (confidence 53) [1D7F6942] (AR v2)
Track 6 accurately ripped (confidence 54) [C396AE04] (AR v2)
Track 7 accurately ripped (confidence 53) [C49E4908] (AR v2)
Track 8 accurately ripped (confidence 53) [F3D9C4B9] (AR v2)
Track 9 accurately ripped (confidence 53) [BCDA5552] (AR v2)
Track 10 accurately ripped (confidence 51) [7C08808E] (AR v2)
Track 11 accurately ripped (confidence 52) [56DF6368] (AR v2)
Track 12 accurately ripped (confidence 52) [85876D12] (AR v2)
Track 13 accurately ripped (confidence 52) [C9CCBC87] (AR v2)
Track 14 accurately ripped (confidence 51) [E00A1BF1] (AR v2)
Track 15 accurately ripped (confidence 50) [CE04FF80] (AR v2)
Track 16 accurately ripped (confidence 52) [E5C2008B] (AR v2)
Track 17 accurately ripped (confidence 52) [EB228F09] (AR v2)
Track 18 accurately ripped (confidence 51) [4CDC4B6F] (AR v2)

All tracks accurately ripped

End of status report

==========

Yes - The Studio Albums 1969-1987 [2013, 13CD Box-Set]

Yes - Drama (1980)
EAC | Flac(Image) + Cue + Log & MP3 CBR 320Kbps
Atlantic/Rhino/Warner, 8122796496-10 | ~568 or 208 Mb | Scans Included | Box Art -> 52 Mb
Progressive / Symphonic / Art Rock | 2004 Reissue

For this one album, ex-Buggles Geoffrey Downes and Trevor Horn were drafted in to replace Jon Anderson and Rick Wakeman. It rocks harder than other Yes albums, and for classically inclined fans, it was a jarring departure; but it was a harbinger of Yes and Asia albums to come. A newly emboldened Chris Squire lays down aggressive rhythms with Alan White, and Steve Howe eschews his usual acoustic rags and flamenco licks for a more metallic approach, opting for sheets of electric sound. Prime cuts include the doom-laden "Machine Messiah" and the manic ska inflections of "Tempus Fugit." Despite the promise of this new material, the band soon fell apart; Horn went into production, Howe and Downes joined Asia, and Squire and White toyed and then gave up on a pair-up with Robert Plant and Jimmy Page, which was to be titled XYZ (i.e., Ex-Yes and Zeppelin).

by Paul Collins, AMG
Tracklist:

01. Machine Messiah - 10:28
02. White Car - 1:21
03. Does It Really Happen? - 6:36
04. Into The Lens - 8:32
05. Run Though The Light - 4:43
06. Tempus Fugit - 5:22

Bonus Tracks:

07. Into The Lens (I Am a Camera) (Single Version) - 3:48
08. Run Through The Light (Single Version) - 4:31
09. Have We Really Got To Go Through This - 3:43
10. Song No. 4 (Satellite) - 7:32
11. Tempus Fugit (Tracking Session) - 5:40
12. White Car (Tracking Session) - 1:11
13. Dancing Through The Light - 3:17
14. Golden Age - 5:58
15. In The Tower - 2:55
16. Friend Of A Friend - 3:38

Exact Audio Copy V1.0 beta 3 from 29. August 2011

EAC extraction logfile from 15. December 2013, 16:48

Yes / Drama

Used drive : ATAPI iHAS124 B Adapter: 2 ID: 0

Read mode : Secure
Utilize accurate stream : Yes
Defeat audio cache : Yes
Make use of C2 pointers : No

Read offset correction : 6
Overread into Lead-In and Lead-Out : No
Fill up missing offset samples with silence : Yes
Delete leading and trailing silent blocks : No
Null samples used in CRC calculations : Yes
Used interface : Native Win32 interface for Win NT & 2000

Used output format : User Defined Encoder
Selected bitrate : 1024 kBit/s
Quality : High
Add ID3 tag : No
Command line compressor : C:\Program Files (x86)\Exact Audio Copy\FLAC\FLAC.EXE
Additional command line options : -8 -V -T "ARTIST=%artist%" -T "TITLE=%title%" -T "ALBUM=%albumtitle%" -T "DATE=%year%" -T "TRACKNUMBER=%tracknr%" -T "GENRE=%genre%" -T "PERFORMER=%albuminterpret%" -T "COMPOSER=%composer%" %haslyrics%–tag-from-file=LYRICS="%lyricsfile%"%haslyrics% -T "ALBUMARTIST=%albumartist%" -T "DISCNUMBER=%cdnumber%" -T "TOTALDISCS=%totalcds%" -T "TOTALTRACKS=%numtracks%" -T "COMMENT=%comment%" %source% -o %dest%


TOC of the extracted CD

Track | Start | Length | Start sector | End sector
––––––––––––––––––––––––––––-
1 | 0:00.00 | 10:27.38 | 0 | 47062
2 | 10:27.38 | 1:21.17 | 47063 | 53154
3 | 11:48.55 | 6:35.59 | 53155 | 82838
4 | 18:24.39 | 8:32.25 | 82839 | 121263
5 | 26:56.64 | 4:42.46 | 121264 | 142459
6 | 31:39.35 | 5:21.68 | 142460 | 166602
7 | 37:01.28 | 3:47.45 | 166603 | 183672
8 | 40:48.73 | 4:31.26 | 183673 | 204023
9 | 45:20.24 | 3:43.26 | 204024 | 220774
10 | 49:03.50 | 7:31.51 | 220775 | 254650
11 | 56:35.26 | 5:39.54 | 254651 | 280129
12 | 62:15.05 | 1:11.30 | 280130 | 285484
13 | 63:26.35 | 3:16.63 | 285485 | 300247
14 | 66:43.23 | 5:57.67 | 300248 | 327089
15 | 72:41.15 | 2:54.71 | 327090 | 340210
16 | 75:36.11 | 3:38.37 | 340211 | 356597


Range status and errors

Selected range

Filename G:\CD\Yes - Drama.wav

Peak level 98.8 %
Extraction speed 3.7 X
Range quality 100.0 %
Test CRC 9C74211B
Copy CRC 9C74211B
Copy OK

No errors occurred


AccurateRip summary

Track 1 accurately ripped (confidence 46) [6FF08D38] (AR v2)
Track 2 accurately ripped (confidence 48) [93F9D3F5] (AR v2)
Track 3 accurately ripped (confidence 48) [A464EC7A] (AR v2)
Track 4 accurately ripped (confidence 46) [DEAAA1A6] (AR v2)
Track 5 accurately ripped (confidence 46) [3F03AB84] (AR v2)
Track 6 accurately ripped (confidence 47) [0B7978F3] (AR v2)
Track 7 accurately ripped (confidence 45) [3F48A234] (AR v2)
Track 8 accurately ripped (confidence 45) [AAEEF099] (AR v2)
Track 9 accurately ripped (confidence 47) [0DF8890D] (AR v2)
Track 10 accurately ripped (confidence 47) [D7178687] (AR v2)
Track 11 accurately ripped (confidence 46) [D4B4C035] (AR v2)
Track 12 accurately ripped (confidence 47) [F623462F] (AR v2)
Track 13 accurately ripped (confidence 48) [27B491BE] (AR v2)
Track 14 accurately ripped (confidence 48) [6EE9AC5F] (AR v2)
Track 15 accurately ripped (confidence 48) [6CED4A88] (AR v2)
Track 16 accurately ripped (confidence 47) [040F60F3] (AR v2)

All tracks accurately ripped

End of status report

==========

Yes - The Studio Albums 1969-1987 [2013, 13CD Box-Set]

Yes - 90125 (1983)
EAC | Flac(Image) + Cue + Log & MP3 CBR 320Kbps
Atlantic/Rhino/Warner, 8122796496-11 | ~ 567 or 197 Mb | Scans Included | Box Art -> 52 Mb
Progressive / Symphonic / Art Rock | 2004 Reissue

A stunning self-reinvention by a band that many had given up for dead, 90125 is the album that introduced a whole new generation of listeners to Yes. Begun as Cinema, a new band by Chris Squire and Alan White, the project grew to include the slick production of Trevor Horn, the new blood (and distinctly '80s guitar sound) of Trevor Rabin, and eventually the trademark vocals of returning founder Jon Anderson. His late entry insured that Rabin and Horn had a heavy influence on the sound. The album also marked the return of prodigal keyboardist Tony Kaye, whose crisp synth work on "Changes" marked the band's definitive break with its art rock roots. "Owner of a Lonely Heart" was a huge crossover hit, and its orchestral break has been relentlessly sampled by rappers ever since. The vocal harmonies of "Leave It" and the beautifully sprawling "Hearts" are additional high points, but there's nary a duff track on the album.

by Paul Collins, AMG
Tracklist:

01. Owner Of A Lonely Heart - 4:30
02. Hold On - 5:18
03. It Can Happen - 5:30
04. Changes - 6:20
05. Cinema - 2:08
06. Leave It - 4:14
07. Our Song - 4:18
08. City Of Love - 4:52
09. Hearts - 7:43

Bonus Tracks:

10. Leave It [Single Remix] - 3:57
11. Make It Easy - 6:12
12. It Can Happen [Cinema Version] - 6:05
13. It's Over - 5:41
14. Owner Of A Lonely Heart [Extended Remix] - 7:05
15. Leave It [A Capella Version] - 3:19

Exact Audio Copy V1.0 beta 3 from 29. August 2011

EAC extraction logfile from 15. December 2013, 17:23

Yes / 90125

Used drive : ATAPI iHAS124 B Adapter: 2 ID: 0

Read mode : Secure
Utilize accurate stream : Yes
Defeat audio cache : Yes
Make use of C2 pointers : No

Read offset correction : 6
Overread into Lead-In and Lead-Out : No
Fill up missing offset samples with silence : Yes
Delete leading and trailing silent blocks : No
Null samples used in CRC calculations : Yes
Used interface : Native Win32 interface for Win NT & 2000

Used output format : User Defined Encoder
Selected bitrate : 1024 kBit/s
Quality : High
Add ID3 tag : No
Command line compressor : C:\Program Files (x86)\Exact Audio Copy\FLAC\FLAC.EXE
Additional command line options : -8 -V -T "ARTIST=%artist%" -T "TITLE=%title%" -T "ALBUM=%albumtitle%" -T "DATE=%year%" -T "TRACKNUMBER=%tracknr%" -T "GENRE=%genre%" -T "PERFORMER=%albuminterpret%" -T "COMPOSER=%composer%" %haslyrics%–tag-from-file=LYRICS="%lyricsfile%"%haslyrics% -T "ALBUMARTIST=%albumartist%" -T "DISCNUMBER=%cdnumber%" -T "TOTALDISCS=%totalcds%" -T "TOTALTRACKS=%numtracks%" -T "COMMENT=%comment%" %source% -o %dest%


TOC of the extracted CD

Track | Start | Length | Start sector | End sector
––––––––––––––––––––––––––––-
1 | 0:00.00 | 4:30.17 | 0 | 20266
2 | 4:30.17 | 5:18.24 | 20267 | 44140
3 | 9:48.41 | 5:29.38 | 44141 | 68853
4 | 15:18.04 | 6:20.09 | 68854 | 97362
5 | 21:38.13 | 2:07.74 | 97363 | 106961
6 | 23:46.12 | 4:13.60 | 106962 | 125996
7 | 27:59.72 | 4:18.13 | 125997 | 145359
8 | 32:18.10 | 4:52.09 | 145360 | 167268
9 | 37:10.19 | 7:43.29 | 167269 | 202022
10 | 44:53.48 | 3:56.51 | 202023 | 219773
11 | 48:50.24 | 6:12.04 | 219774 | 247677
12 | 55:02.28 | 6:05.28 | 247678 | 275080
13 | 61:07.56 | 5:41.32 | 275081 | 300687
14 | 66:49.13 | 7:05.05 | 300688 | 332567
15 | 73:54.18 | 3:18.49 | 332568 | 347466


Range status and errors

Selected range

Filename G:\CD\Yes - 90125.wav

Peak level 98.8 %
Extraction speed 4.1 X
Range quality 100.0 %
Test CRC CE5C1405
Copy CRC CE5C1405
Copy OK

No errors occurred


AccurateRip summary

Track 1 accurately ripped (confidence 98) [A140163F] (AR v2)
Track 2 accurately ripped (confidence 98) [0217F03D] (AR v2)
Track 3 accurately ripped (confidence 99) [249E4521] (AR v2)
Track 4 accurately ripped (confidence 99) [EEE18E46] (AR v2)
Track 5 accurately ripped (confidence 99) [4B9F55BE] (AR v2)
Track 6 accurately ripped (confidence 99) [E62EE9A0] (AR v2)
Track 7 accurately ripped (confidence 99) [14E2CCEF] (AR v2)
Track 8 accurately ripped (confidence 97) [9D0C2074] (AR v2)
Track 9 accurately ripped (confidence 97) [A1399A1F] (AR v2)
Track 10 accurately ripped (confidence 94) [5EC8FB06] (AR v2)
Track 11 accurately ripped (confidence 94) [67BAF3C9] (AR v2)
Track 12 accurately ripped (confidence 93) [5732AC4B] (AR v2)
Track 13 accurately ripped (confidence 93) [8BFDAE94] (AR v2)
Track 14 accurately ripped (confidence 89) [B2AB109D] (AR v2)
Track 15 accurately ripped (confidence 92) [47EE8784] (AR v2)

All tracks accurately ripped

End of status report

==========

Yes - The Studio Albums 1969-1987 [2013, 13CD Box-Set]

Yes - Big Generator (1987)
EAC | Flac(Image) + Cue + Log & MP3 CBR 320Kbps
Atlantic/Rhino/Warner, 8122796496-12 | ~ 535 or 188 Mb | Scans Included | Box Art -> 52 Mb
Progressive / Symphonic / Art Rock | 2009 Reissue

The four-years-in-the-making follow-up to Yes' comeback album, 90125, Big Generator was also a million-selling hit, although not as successful as its predecessor, probably because the singles "Love Will Find a Way" (number 30) and "Rhythm of Love" (number 40) couldn't match "Owner of a Lonely Heart" from the previous LP, even if they were favorites on AOR radio at the time. Actually, it was the title track that was a carbon copy of "Owner," so maybe that was the problem. More likely, though, "Owner" was a one-shot (courtesy of producer Trevor Horn), and as Yes asserted itself more here, the band reverted more to its old style, making for some confusion. Nevertheless, this album was Yes' last major hit.

by William Ruhlmann, AMG
Tracklist:

01. Rhythm Of Love - 4:48
02. Big Generator - 4:34
03. Shoot High Aim Low - 7:03
04. Almost Like Love - 5:01
05. Love Will Find A Way - 4:51
06. Final Eyes - 6:26
07. I'm Running - 7:38
08. Holy Lamb (Song For Harmonic Convergence) - 3:24

Bonus Tracks:

09. Love Will Find A Way (Edited Version) - 4:18
10. Love Will Find A Way (Extended Version) - 7:12
11. Rhythm Of Love (Dance To The Rhythm Mix) - 6:55
12. Rhythm Of Love (Move To The Rhythm Mix) - 4:26
13. Rhythm Of Love (The Rhythm Of Dub) - 7:51

Exact Audio Copy V1.0 beta 3 from 29. August 2011

EAC extraction logfile from 15. December 2013, 20:26

Yes / Big Generator

Used drive : Optiarc BD RW BD-5300S Adapter: 0 ID: 1

Read mode : Secure
Utilize accurate stream : Yes
Defeat audio cache : Yes
Make use of C2 pointers : No

Read offset correction : 6
Overread into Lead-In and Lead-Out : No
Fill up missing offset samples with silence : Yes
Delete leading and trailing silent blocks : No
Null samples used in CRC calculations : Yes
Used interface : Native Win32 interface for Win NT & 2000

Used output format : User Defined Encoder
Selected bitrate : 1024 kBit/s
Quality : High
Add ID3 tag : No
Command line compressor : C:\Program Files (x86)\Exact Audio Copy\FLAC\FLAC.EXE
Additional command line options : -8 -V -T "ARTIST=%artist%" -T "TITLE=%title%" -T "ALBUM=%albumtitle%" -T "DATE=%year%" -T "TRACKNUMBER=%tracknr%" -T "GENRE=%genre%" -T "PERFORMER=%albuminterpret%" -T "COMPOSER=%composer%" %haslyrics%–tag-from-file=LYRICS="%lyricsfile%"%haslyrics% -T "ALBUMARTIST=%albumartist%" -T "DISCNUMBER=%cdnumber%" -T "TOTALDISCS=%totalcds%" -T "TOTALTRACKS=%numtracks%" -T "COMMENT=%comment%" %source% -o %dest%


TOC of the extracted CD

Track | Start | Length | Start sector | End sector
––––––––––––––––––––––––––––-
1 | 0:00.00 | 4:47.66 | 0 | 21590
2 | 4:47.66 | 4:34.21 | 21591 | 42161
3 | 9:22.12 | 7:02.48 | 42162 | 73859
4 | 16:24.60 | 5:00.68 | 73860 | 96427
5 | 21:25.53 | 4:50.42 | 96428 | 118219
6 | 26:16.20 | 6:25.64 | 118220 | 147158
7 | 32:42.09 | 7:37.72 | 147159 | 181505
8 | 40:20.06 | 3:23.64 | 181506 | 196794
9 | 43:43.70 | 4:18.27 | 196795 | 216171
10 | 48:02.22 | 7:11.60 | 216172 | 248556
11 | 55:14.07 | 6:55.22 | 248557 | 279703
12 | 62:09.29 | 4:26.22 | 279704 | 299675
13 | 66:35.51 | 7:50.48 | 299676 | 334973


Range status and errors

Selected range

Filename G:\CD\Yes - Big Generator.wav

Peak level 100.0 %
Extraction speed 8.4 X
Range quality 100.0 %
Test CRC D8366012
Copy CRC D8366012
Copy OK

No errors occurred


AccurateRip summary

Track 1 cannot be verified as accurate (confidence 15) [612C19B5], AccurateRip returned [2701EAF3] (AR v2)
Track 2 cannot be verified as accurate (confidence 15) [970EBFF3], AccurateRip returned [4C039D0C] (AR v2)
Track 3 cannot be verified as accurate (confidence 15) [AEDCE5EB], AccurateRip returned [4724ACBB] (AR v2)
Track 4 cannot be verified as accurate (confidence 15) [7423EFB7], AccurateRip returned [00DBEB46] (AR v2)
Track 5 cannot be verified as accurate (confidence 15) [A543CCC8], AccurateRip returned [74A817D5] (AR v2)
Track 6 cannot be verified as accurate (confidence 15) [C1C9DA58], AccurateRip returned [0813DF1A] (AR v2)
Track 7 cannot be verified as accurate (confidence 15) [2C5ECC06], AccurateRip returned [61998463] (AR v2)
Track 8 cannot be verified as accurate (confidence 15) [4A2C99C1], AccurateRip returned [8396D121] (AR v2)
Track 9 cannot be verified as accurate (confidence 14) [D5A20E0E], AccurateRip returned [2896A826] (AR v2)
Track 10 cannot be verified as accurate (confidence 14) [464B2007], AccurateRip returned [78567B8D] (AR v2)
Track 11 cannot be verified as accurate (confidence 14) [393A9EA7], AccurateRip returned [06020966] (AR v2)
Track 12 cannot be verified as accurate (confidence 14) [457D4787], AccurateRip returned [486214DF] (AR v2)
Track 13 cannot be verified as accurate (confidence 14) [6D537942], AccurateRip returned [6BD88060] (AR v2)

No tracks could be verified as accurate
You may have a different pressing from the one(s) in the database

End of status report

Yes - The Studio Albums 1969-1987 [2013, 13CD Box-Set]

––––-

All thanks go to gerrV

Download Yes - The Studio Albums 1969-1987: