Tags
Language
Tags

Yevgeny Mravinsky conducts the Leningrad Philharmonic Orchestra (2007) 12 CD Box Set

Posted By: Designol
Yevgeny Mravinsky conducts the Leningrad Philharmonic Orchestra (2007) 12 CD Box Set

Yevgeny Mravinsky conducts the Leningrad Philharmonic Orchestra (2007) 12 CD Box Set
Beethoven - Shostakovich - Wagner - Mozart - Tchaikovsky - Mussorgsky - Glinka - Glazunov

EAC | FLAC | Tracks (Cue&Log) ~ 2.5 Gb | Scans included | Time: 09:57:02
Genre: Classical, Orchestral | Label: Erato | # 2564-69890-5

This compilation covers 20 years of live recordings made by conductor Yevgeny Mravinsky and the then-named Leningrad Philharmonic Orchestra for Erato. Mravinsky led that orchestra for nearly 50 years, from 1938 until his death. His last recording was that of Shostakovich's Symphony No. 12, made in 1984, found on Disc 3 here. His interpretations of Shostakovich and Tchaikovsky were highly regarded, so it's not surprising that several of their symphonies are here. There are also symphonies by Mozart and Beethoven in this set; tone poems by Tchaikovsky and Mussorgsky; and orchestral excerpts from operas by Wagner, Glinka, and Glazunov. The final disc contains a rare recording of a rehearsal led by Mravinsky, something few outsiders were ever allowed to witness. Even though he was an elder statesman of Russian music at the time of these recordings, there is still precision and energy in his interpretations.

Review by Patsy Morita, Allmusic.com

This box set demonstrates the immense interpretative and commanding powers of the great Evgeny Mravinsky, certainly one of the legendary conductors of his generation. It's a good pen portrait of the conductor in some of his best loved works such as the Tchaikovsky 5th and Shostakovich's massive 12th symphony (here dispatched in an astonishingly quick timing of just under 28 minutes).

But there are also other treasures including some odd numbered Beethoven symphonies and the 'Pastoral' which truly spring to life out of the pages, the finales of the 5th and 7th are certainly cases in point. Mravinsky's Mozart is slightly heavy handed although one cannot begrudge the nobility and pathos which permeates #39. There are also some intriguing excerpts from Glazunov's rarely heard ballet, Raymonda and other short pieces such as Glinka's 'Russlan and Lyudmilla' overture and Mussorgsky's 'Dawn over the Moscow River' by Mussorgsky. I also greatly enjoyed the Wagner excerpts and the set of rehearsals and interview which make up the final disc.

Definitely a set for the Mravinsky enthusiast although the only qualm I have is the rather short timings on almost all discs which rarely go above 50 minutes. However this is definitely a fine memorial to one of the greatest conductors of all time and is amply proved here, not just in the repertoire with which he is mostly associated.

Review by Gerald Fenech, Classical.Net


The Leningrad Philharmonic Orchestra's reputation has long been out of all proportion to its representation on record, at least in the West. Even today it is easy to gain a lopsided impression. Yes, we have the classic DG stereo set of Tchaikovsky's last three symphonies (8/87), but where are the earlier mono recordings of Nos. 5 and 6 which some rate even more highly [scheduled for next month—Ed], where is the no less classic Shostakovich Sixth once available on EMI, where is the historic 1938 Shostakovich Fifth (reissued in Japan, but not here) and so on?

Instead we have to make do with such things as the Philips reissue of a 1982 Shostakovich Eighth, recorded at the wrong pitch (6/89), and a five-disc Olympia compilation whose artistic quality is decidedly mixed (8/88). And here now are Erato putting out a set whose timings are stingy, whose recording quality is only fair and whose performances are again variable. One can only lament the fact that as Russian recording quality emerges from the Dark Ages so their orchestras are struggling to maintain standards in the face of diminishing resources and emigration of their best players.

The repertoire on the Erato set, consisting mostly of familiar Mravinsky favourites, may also give a misleading impression. He was indeed notorious for scheduling numerous rehearsals even for pieces he and the orchestra knew backwards, but his repertoire was wider than commonly imagined, and there is some unsuspected treasure in his discography. Olympia picked out one of the gems when they released Salmanov's Fourth Symphony (3/89), and I have been listening with much pleasure to Mravinsky's Melodiya LPs of the previous three symphonies by this intriguing composer. Given Erato's apparent interest in less well-known Soviet repertoire it is difficult to suppress disappointment at its absence here. Maybe the Sovtelexport agency is no better supplied these days than Russia's food shops.

If the range of the music-making itself also seems circumscribed, it is so first of all because of the Russian instrumental tradition. On the one hand the quality of the string playing is the stuff of legend. It is marked out not just by virtuosity and weight of tone (there was a time when the Leningrad Philharmonic could have supplied front-desk players to virtually every other top-class orchestra in the world) but also by an astonishing unity of expressive purpose. Always the sound is superbly focused, the inflexion unanimous; it may be lean, but it's never thin. Contrast this with the woodwind who often seem to be fighting gamely against insubordinate instruments and recalcitrant reeds, their difficulties surely exacerbated by lack of contact with the West, where orchestral wind playing has gone from strength to strength.

The second factor is the personality of the man who was the Leningraders' 'permanent director' from 1938 until his death 50 years later. This can already be guessed at from the demonic intensity of his most famous recordings, and it is confirmed by first-hand reports. ''A dreadful tyrant'' is the verdict of Lev Markiz, founder-conductor of the Moscow Soloists—''the whole orchestra began to tune their instruments an hour before the rehearsal was due to start, and 30 minutes later they sat there with instruments tuned, ready to begin''. Those were the days.

At its best the combination is uniquely potent—a controlled conflagration which almost scorches the ear, a sense of communicative intensity not as an optional extra, or even as something to be striven for, but as a constant presence, only waiting to be channelled in the right direction.

All that is clear enough from the recordings already available, and even those made in Mravinsky's eighties retain an Ancient Mariner-like, spellbinding quality. Unfortunately Erato's rehearsal disc, only available as part of the complete set of 12, is no such thing—three or four comments on timing and articulation at the beginning of the Tannhauser Overture are followed by a complete run-through of that and the Meistersinger Prelude (both splendid performances) and topped off by a brief personal reminiscence of little apparent relevance. Fortunately the other discs are available separately, though some are of considerably more interest than others.

Any view of Shostakovich is seriously incomplete without knowledge of Mravinsky's recordings. He it was who premiered Symphonies Nos. 5, 6, 8, 9 and 10 (the Erato booklet claims 4, 5, 8, 9, 10 and 11) and although relations between composer and conductor cooled markedly in later years, for reasons not, I think, fully explained, the authority of the performances is undiminished.
Goodness knows how many times Mravinsky must have conducted the Fifth Symphony after its emotional premiere on November 21st, 1937 (Shostakovich's rehabilitation after the Lady Macbeth affair, in the middle of the Stalin purges). It does sound as though some of the rhythmic inflexions have lost their spontaneity and solidified into mannerisms (they had already done so by the time of the 1978 Vienna Festival account once available on EMI). The 1984 performance starts with dodgy ensemble, and one can almost imagine the glint in Mravinsky's eye at the mis-tuning of the first note in the main violin theme. Among many symptoms of an orchestra past its peak are cracks in the trumpets at crucial points and a ropey violin solo in the second movement. Despite this the finale still manages to ride on a wave bigger than any individual personality, bigger than the music itself. This performance is not to be dismissed, especially given the paradoxical scarcity of fine recordings of an apparently over-recorded work.

The Shostakovich Tenth is not to be preferred to Mravinsky's 1954 Saga recording (reviewed on page 48), but it is still sufficiently different to be of interest. The very opening is a little more subdued, effectively so, there are minor readjustments of pace in the middle of the first movement, and the second movement is now even more careering than before at 3'59'', but the woodwind are noticeably more sophisticated. Drawbacks include some scrambled passages here and there, a false violin entry at 20'57'' in the first movement, a recording with distracting low hum, poor microphone placement and a bronchial audience. For my money the 1954 version has more edge to it.

Mravinsky is the only conductor I have ever heard make Shostakovich's Twelfth Symphony remotely convincing. The orchestra swarms over the first movement like killer bees, and the fierceness of the finale redeems it from suspicions of empty triumphalism. It's not so much a question of pushing the music as finding the way to let it pull the listener through. Recording quality is once again hardly subtle, but it is far more vivid than the 1962 version once available on EMI; beware a glitch in the second movement at 1'21'' which causes a fraction of a beat to be lost, possibly in order to edit out a particularly hacking cough.

As before, Mravinsky's Tchaikovsky Fifth is utterly compelling in its desperate urgency and irresistible momentum; like the 1963 Olympia version (8/88) it is a fraction less fanatical, more humane than the famous DG issues. I have to admit to hankering after the crackling energy of the latter at the Allegro vivace in the finale (2'43'')—here, by contrast, it comes stealing in, in flagrant contradiction of the score. As elsewhere some of the pauses between movements sound artificially curtailed; ditto the resonance of the final notes, which as throughout the set is cut off before the applause.

Again, a slightly less extreme view of the Pathetique than before, but one of blazing integrity, a feeling of impossible-to-be-otherwise. Hear the first movement at 9'55'' for one of the most shocking outbursts of emotional agony captured on record. Apart from anything else Mravinsky emphasizes the forward-looking aspect of Tchaikovsky's music at the end of his life—without this, no Mahler Sixth, no ''Danse de la terre'' from Stravinsky's Rite (never mind the obvious influence of the second movement trio section on Sibelius's First Symphony).

More lacerating intensity in Francesca da Rimini, where no one can deny its appropriateness—it's the kind of performance which makes you feel that nobody is entitled to express an opinion of the music until they have heard it. A beautifully atmospheric Khovanshchina Prelude, a predictably turbo-charged Ruslan and Ludmila Overture, and a sleek Raymonda Suite complete an attractive compilation.

Mozart might seem unlikely territory for this orchestra, even if he was Tchaikovsky's favourite composer, and the B flat Symphony is an unlikely choice even for seasoned Mozartians. The opening Allegro assai is light and airy and would raise few eyebrows even in the style-conscious 1990s, but the following movements are respectively too sleepy, too hearty and too metallic for comfort. Nor can I feel that the far finer E flat Symphony has much to commend it as a performance, beyond its solid assurance and resilient rhythm. Turning down the treble helps to control fizziness in the violin sound.

Poor woodwind intonation at the opening and some skew-whiff synchronization later on let down this Beethoven First Symphony. Inner vitality shines through nevertheless, and although the manner is severe, the performance knows its own mind in a way that never comes across as routine. There is more dicey woodwind intonation in the Eroica, and the oboe tone in the Funeral March curdles alarmingly. Again the overall
approach is Spartan in its self-denying austerity and yet has a wholly characteristic eagle-eyed intensity. I find it difficult to live with such a regimented approach to the first movement, however.

A voracious Beethoven Fifth, with an element of aggression that comes entirely from within and which would probably be absurd if anyone tried to re-create it. Mravinsky's attitude to dynamics seems to be on the lines of 'no gradual inflexion unless explicit instructions are given to the contrary'. The result is a curious reminder of the old-fashioned 'terraced dynamics' approach to baroque music, which some may find offputting. For me this is a mighty rendition of the score and all the more inspiring for the impression that its power is tapped from within. The Seventh, however, is reined back to the point of stodginess, at least until the white-hot finale and even there one of the trumpets forgets himself in the last three bars.

Perhaps against expectations the Pastoral receives a performance of radiant, vernal openheartedness. It is a straight-down-the-middle view of the work, and given the number of rough edges I have to wonder whether it has anything more to offer than a dozen more successfully recorded alternatives.

Mravinsky's bleeding chunks of Wagner should be among the highlights of the set. Sadly, they are vitiated by technical problems. Woodwind intonation is rank at the beginning of the Tristan Prelude and also makes much of the first Lohengrin Prelude a trial; the Tannhauser Overture is for the most part glorious, despite short-winded trombones, but like the Shostakovich Tenth Symphony it is marred by low hum on the recording. Most surprising of all is The Ride of the Valkyries, whose main dotted rhythm is swallowed up, trivializing its character; nor do I find that the silent-movie tempo and pinched recording quality do much for the Lohengrin Act 3 Prelude. I would be sorry not to hear Mravinsky's incandescent performance of Siegfried's Funeral March again, but that is also available on Olympia, and as a whole the Erato Wagner disc is difficult to recommend.

For those cursed with absolute pitch I should say that all these recordings are distinctly on the sharp side of A440 concert pitch—sometimes by nearly as much as a quarter-tone.'

Review by Gramophone Magazine


Yevgeny Mravinsky conducts the Leningrad Philharmonic Orchestra (2007) 12 CD Box Set



Tracklist:

CD1 (44:21):
Dmitri SHOSTAKOVICH (1906-1975)
Symphony No.5 in D minor, Op.47
01. I. Moderato (15:05)
02. II. Allegretto (05:13)
03. III. Largo (13:12)
04. IV. Allegro non troppo (10:50)


CD2 (48:23):
Dmitri SHOSTAKOVICH
Symphony No.10 in E minor, Op.93
01. I. Moderato (22:08)
02. II. Allegro (04:04)
03. III. Allegretto (11:01)
04. IV. Andante - Allegro (11:08)


CD3 (38:32):
Dmitri SHOSTAKOVICH
Symphony No.12 in D minor, Op.112 'The Year 1917'
01. I. Revolutionary Petrograd (12:02)
02. II. Razliv (11:24)
03. III. Aurora (04:47)
04. IV. The dawn of humanity (10:18)


CD4 (42:50):
Pyotr Ilyich TCHAIKOVSKY (1840-1893)
Symphony No.5 in E minor, Op.64
01. I. Adagio - Allegro con anima (14:00)
02. II. Andante cantabile con alcuna licenza (11:49)
03. III. Allegro moderato (05:36)
04. IV. Andante maestoso - Allegro vivace (11:25)


CD5 (44:55):
Pyotr Ilyich TCHAIKOVSKY
Symphony No.6 in B minor, Op.74 'Path'etique'
01. I. Adagio - Allegro non troppo (17:52)
02. II. Allegro con grazia (08:21)
03. III. Allegro molto vivace (08:52)
04. IV. Adagio lamentoso (09:48)


CD06 (58:50):
Pyotr Ilyich TCHAIKOVSKY
01. Francesca da Rimini, op.32 (24:12)

Modest Petrovich MUSSORGSKY (1839-1881)
02. Dawn on the Moscow River (Prelude to Act One of Khovanshchina) (05:26)

Mikhail Ivanovich GLINKA (1804-1857)
03. Overture to Ruslan and Lyudmila (05:12)

Alexander Konstantinovich GLAZUNOV (1865-1936)
Suite from "Raymonda"
04. I. Tableau (Introduction to Act One) (04:57)
05. II. Tableau (Act One, Scene 1) (01:51)
06. III. Grande Valse (Act One, Scene 6) (02:59)
07. IV. Pizzicato (Pas de Raymonda) (01:05)
08. V. Valse - reprise (01:18)
09. VI. Pr'elude (Raymonda joue le luth) (01:59)
10. VII. Pr'elude et Variation (01:16)
11. VIII. Entr'acte (03:29)
12. IX. Entr'acte (Act Three) (03:21)
13. X. Grand pas espagnol (Act Two) (01:38)


CD7 (49:03):
Wolfgang Amadeus MOZART (1756-1791)
Symphony No.33 in B flat major, K319
01. I. Allegro assai (07:50)
02. II. Andante moderato (05:13)
03. III. Menuetto (02:50)
04. IV. Allegro assai (07:16)
Symphony No.39 in E flat major, K543
05. I. Adagio (08:11)
06. II. Andante con moto (08:31)
07. III. Menuetto. Allegretto (03:52)
08. IV. Finale. Allegro (05:17)


CD8 (73:15):
Ludwig van BEETHOVEN (1770-1827)
Symphony No.1 in C major, op.21
01. I. Adagio molto - Allegro con brio (09:41)
02. II. Andante cantabile con moto (07:51)
03. III. Menuetto. Allegro molto e vivace (03:54)
04. IV. Finale. Adagio - Allegro molto e vivace (05:55)
Symphony No.3 in E flat major, op.55 'Eroica'
05. I. Allegro con brio (13:43)
06. II. Marcia funebre. Adagio assai (15:11)
07. III. Scherzo. Allegro vivace (05:22)
08. IV. Finale. Allegro molto (11:35)


CD9 (67:42):
Ludwig van BEETHOVEN
Symphony No.5 in C minor, Op.67
01. I. Allegro con brio (07:26)
02. II. Andante con moto (09:30)
03. III. Allegro (04:57)
04. IV. Allegro (08:49)
Symphony No.7 in A major, Op.92
05. I. Poco sostenuto - Vivace (13:27)
06. II. Allegretto (08:14)
07. III. Presto (08:27)
08. IV. Allegro con brio (06:49)


CD10 (39:58):
Ludwig van BEETHOVEN
Symphony No.6 in F major, op.68 'Pastoral'
01. I. Allegro ma non troppo (09:47)
02. II. Andante molto mosso (12:10)
03. III. Allegro (05:29)
04. IV. Allegro (03:30)
05. V. Allegretto (09:00)


CD11 (53:53):
Richard WAGNER (1813-1883)
01. Siegfried's Funeral March - Gotterdammerung (07:49)
02. Prelude and Liebestod - Tristan und Isolde (17:03)
03. The Ride of the Valkyries - Die Walkure (04:18)
04. Overture - Tannhauser (13:54)
05. Prelude to Act One - Lohengrin (08:09)
06. Prelude to Act Three - Lohengrin (02:38)


CD12 (35:13):
Richard WAGNER
01. Overture - Tannhauser (Orchestral rehearsal) (19:51)
02. Prelude - Die Meistersinger (Orchestral rehearsal) (09:59)

03. Evgeny Mravinsky on Life and Nature (05:22)


Exact Audio Copy V0.99 prebeta 5 from 4. May 2009

EAC extraction logfile from 27. January 2010, 10:41

Leningrad Philharmonic Orchestra & Evgeny Mravinsky / Evgeny Mravinsky conducts the Leningrad Philharmonic Orchestra (Disc 1)

Used drive : PLEXTOR DVDR PX-800A Adapter: 1 ID: 0

Read mode : Secure
Utilize accurate stream : Yes
Defeat audio cache : Yes
Make use of C2 pointers : No

Read offset correction : 48
Overread into Lead-In and Lead-Out : No
Fill up missing offset samples with silence : Yes
Delete leading and trailing silent blocks : No
Null samples used in CRC calculations : No
Used interface : Native Win32 interface for Win NT & 2000
Gap handling : Appended to previous track

Used output format : User Defined Encoder
Selected bitrate : 1024 kBit/s
Quality : High
Add ID3 tag : No
Command line compressor : C:\Program Files\Exact Audio Copy\FLAC\FLAC.EXE
Additional command line options : -6 -V -T "ARTIST=%a" -T "TITLE=%t" -T "ALBUM=%g" -T "DATE=%y" -T "TRACKNUMBER=%n" -T "GENRE=%m" -T "COMMENT=%e" %s -o %d


TOC of the extracted CD

Track | Start | Length | Start sector | End sector
––––––––––––––––––––––––––––-
1 | 0:00.00 | 15:05.03 | 0 | 67877
2 | 15:05.03 | 5:13.45 | 67878 | 91397
3 | 20:18.48 | 13:12.12 | 91398 | 150809
4 | 33:30.60 | 10:50.65 | 150810 | 199624


Track 1

Filename E:\1111\Evgeni_Mravinsky_Edition.12CD\CD01\01 - Shostakovich Symphony No.5 in D minor, Op.47 - I. Moderato.wav

Pre-gap length 0:00:02.00

Peak level 85.3 %
Track quality 100.0 %
Test CRC DBD24BA6
Copy CRC DBD24BA6
Accurately ripped (confidence 3) [04FBA99F]
Copy OK

Track 2

Filename E:\1111\Evgeni_Mravinsky_Edition.12CD\CD01\02 - Shostakovich Symphony No.5 in D minor, Op.47 - II. Allegretto.wav

Pre-gap length 0:00:04.23

Peak level 81.0 %
Track quality 100.0 %
Test CRC 8B1CCAE3
Copy CRC 8B1CCAE3
Accurately ripped (confidence 3) [3D397DB1]
Copy OK

Track 3

Filename E:\1111\Evgeni_Mravinsky_Edition.12CD\CD01\03 - Shostakovich Symphony No.5 in D minor, Op.47 - III. Largo.wav

Pre-gap length 0:00:04.18

Peak level 71.1 %
Track quality 100.0 %
Test CRC EA28AF5A
Copy CRC EA28AF5A
Accurately ripped (confidence 3) [D7E0FDE0]
Copy OK

Track 4

Filename E:\1111\Evgeni_Mravinsky_Edition.12CD\CD01\04 - Shostakovich Symphony No.5 in D minor, Op.47 - IV. Allegro non troppo.wav

Pre-gap length 0:00:03.32

Peak level 100.0 %
Track quality 99.9 %
Test CRC 3C9894DE
Copy CRC 3C9894DE
Accurately ripped (confidence 4) [EA06F02B]
Copy OK


All tracks accurately ripped

No errors occurred

End of status report

foobar2000 1.2 / Dynamic Range Meter 1.1.1
log date: 2017-01-19 16:46:06

––––––––––––––––––––––––––––––––––––––––
Analyzed: Leningrad Philharmonic Orchestra & Evgeny Mravinsky / Evgeny Mravinsky conducts the Leningrad Philharmonic Orchestra (Disc 1)
––––––––––––––––––––––––––––––––––––––––

DR Peak RMS Duration Track
––––––––––––––––––––––––––––––––––––––––
DR13 -1.38 dB -20.58 dB 15:05 01-Shostakovich Symphony No.5 in D minor, Op.47 - I. Moderato
DR13 -1.82 dB -20.37 dB 5:14 02-Shostakovich Symphony No.5 in D minor, Op.47 - II. Allegretto
DR13 -2.95 dB -21.94 dB 13:12 03-Shostakovich Symphony No.5 in D minor, Op.47 - III. Largo
DR13 0.00 dB -17.56 dB 10:51 04-Shostakovich Symphony No.5 in D minor, Op.47 - IV. Allegro non troppo
––––––––––––––––––––––––––––––––––––––––

Number of tracks: 4
Official DR value: DR13

Samplerate: 44100 Hz
Channels: 2
Bits per sample: 16
Bitrate: 757 kbps
Codec: FLAC
================================================================================


Exact Audio Copy V0.99 prebeta 5 from 4. May 2009

EAC extraction logfile from 27. January 2010, 13:19

Leningrad Philharmonic Orchestra & Evgeny Mravinsky / Evgeny Mravinsky conducts the Leningrad Philharmonic Orchestra (Disc 2)

Used drive : PLEXTOR DVDR PX-800A Adapter: 1 ID: 0

Read mode : Secure
Utilize accurate stream : Yes
Defeat audio cache : Yes
Make use of C2 pointers : No

Read offset correction : 48
Overread into Lead-In and Lead-Out : No
Fill up missing offset samples with silence : Yes
Delete leading and trailing silent blocks : No
Null samples used in CRC calculations : No
Used interface : Native Win32 interface for Win NT & 2000
Gap handling : Appended to previous track

Used output format : User Defined Encoder
Selected bitrate : 1024 kBit/s
Quality : High
Add ID3 tag : No
Command line compressor : C:\Program Files\Exact Audio Copy\FLAC\FLAC.EXE
Additional command line options : -6 -V -T "ARTIST=%a" -T "TITLE=%t" -T "ALBUM=%g" -T "DATE=%y" -T "TRACKNUMBER=%n" -T "GENRE=%m" -T "COMMENT=%e" %s -o %d


TOC of the extracted CD

Track | Start | Length | Start sector | End sector
––––––––––––––––––––––––––––-
1 | 0:00.00 | 22:08.53 | 0 | 99652
2 | 22:08.53 | 4:04.72 | 99653 | 118024
3 | 26:13.50 | 11:01.18 | 118025 | 167617
4 | 37:14.68 | 11:08.74 | 167618 | 217791


Track 1

Filename E:\1111\Evgeni_Mravinsky_Edition.12CD\CD02\01 - Shostakovich Symphony No.10 in E minor, Op.93 - I. Moderato.wav

Pre-gap length 0:00:02.00

Peak level 85.3 %
Track quality 100.0 %
Test CRC AB42AE37
Copy CRC AB42AE37
Accurately ripped (confidence 3) [57E8E71A]
Copy OK

Track 2

Filename E:\1111\Evgeni_Mravinsky_Edition.12CD\CD02\02 - Shostakovich Symphony No.10 in E minor, Op.93 - II. Allegro.wav

Pre-gap length 0:00:05.03

Peak level 85.9 %
Track quality 100.0 %
Test CRC 0B950EEE
Copy CRC 0B950EEE
Accurately ripped (confidence 3) [65F4862C]
Copy OK

Track 3

Filename E:\1111\Evgeni_Mravinsky_Edition.12CD\CD02\03 - Shostakovich Symphony No.10 in E minor, Op.93 - III. Allegretto.wav

Pre-gap length 0:00:05.72

Peak level 85.2 %
Track quality 100.0 %
Test CRC 9D861522
Copy CRC 9D861522
Accurately ripped (confidence 3) [2A7020DE]
Copy OK

Track 4

Filename E:\1111\Evgeni_Mravinsky_Edition.12CD\CD02\04 - Shostakovich Symphony No.10 in E minor, Op.93 - IV. Andante - Allegro.wav

Pre-gap length 0:00:05.13

Peak level 91.9 %
Track quality 100.0 %
Test CRC 9087E055
Copy CRC 9087E055
Accurately ripped (confidence 3) [2503368E]
Copy OK


All tracks accurately ripped

No errors occurred

End of status report

foobar2000 1.2 / Dynamic Range Meter 1.1.1
log date: 2017-01-19 16:46:22

––––––––––––––––––––––––––––––––––––––––
Analyzed: Leningrad Philharmonic Orchestra & Evgeny Mravinsky / Evgeny Mravinsky conducts the Leningrad Philharmonic Orchestra (Disc 2)
––––––––––––––––––––––––––––––––––––––––

DR Peak RMS Duration Track
––––––––––––––––––––––––––––––––––––––––
DR12 -1.38 dB -19.65 dB 22:09 01-Shostakovich Symphony No.10 in E minor, Op.93 - I. Moderato
DR10 -1.31 dB -16.41 dB 4:05 02-Shostakovich Symphony No.10 in E minor, Op.93 - II. Allegro
DR12 -1.39 dB -22.33 dB 11:01 03-Shostakovich Symphony No.10 in E minor, Op.93 - III. Allegretto
DR11 -0.73 dB -19.42 dB 11:09 04-Shostakovich Symphony No.10 in E minor, Op.93 - IV. Andante - Allegro
––––––––––––––––––––––––––––––––––––––––

Number of tracks: 4
Official DR value: DR11

Samplerate: 44100 Hz
Channels: 2
Bits per sample: 16
Bitrate: 643 kbps
Codec: FLAC
================================================================================


Exact Audio Copy V0.99 prebeta 5 from 4. May 2009

EAC extraction logfile from 27. January 2010, 13:36

Leningrad Philharmonic Orchestra & Evgeny Mravinsky / Evgeny Mravinsky conducts the Leningrad Philharmonic Orchestra (Disc 3)

Used drive : PLEXTOR DVDR PX-800A Adapter: 1 ID: 0

Read mode : Secure
Utilize accurate stream : Yes
Defeat audio cache : Yes
Make use of C2 pointers : No

Read offset correction : 48
Overread into Lead-In and Lead-Out : No
Fill up missing offset samples with silence : Yes
Delete leading and trailing silent blocks : No
Null samples used in CRC calculations : No
Used interface : Native Win32 interface for Win NT & 2000
Gap handling : Appended to previous track

Used output format : User Defined Encoder
Selected bitrate : 1024 kBit/s
Quality : High
Add ID3 tag : No
Command line compressor : C:\Program Files\Exact Audio Copy\FLAC\FLAC.EXE
Additional command line options : -6 -V -T "ARTIST=%a" -T "TITLE=%t" -T "ALBUM=%g" -T "DATE=%y" -T "TRACKNUMBER=%n" -T "GENRE=%m" -T "COMMENT=%e" %s -o %d


TOC of the extracted CD

Track | Start | Length | Start sector | End sector
––––––––––––––––––––––––––––-
1 | 0:00.00 | 12:02.73 | 0 | 54222
2 | 12:02.73 | 11:24.00 | 54223 | 105522
3 | 23:26.73 | 4:47.65 | 105523 | 127112
4 | 28:14.63 | 10:18.04 | 127113 | 173466


Track 1

Filename E:\1111\Evgeni_Mravinsky_Edition.12CD\CD03\01 - Shostakovich Symphony No.12 in D minor, Op.112 'The Year 1917' - I. Revolutionary Petrograd.wav

Pre-gap length 0:00:02.00

Peak level 97.5 %
Track quality 100.0 %
Test CRC 0B6A18AB
Copy CRC 0B6A18AB
Accurately ripped (confidence 3) [DAB132E6]
Copy OK

Track 2

Filename E:\1111\Evgeni_Mravinsky_Edition.12CD\CD03\02 - Shostakovich Symphony No.12 in D minor, Op.112 'The Year 1917' - II. Razliv.wav

Peak level 74.7 %
Track quality 100.0 %
Test CRC 33206B0E
Copy CRC 33206B0E
Accurately ripped (confidence 3) [E7450930]
Copy OK

Track 3

Filename E:\1111\Evgeni_Mravinsky_Edition.12CD\CD03\03 - Shostakovich Symphony No.12 in D minor, Op.112 'The Year 1917' - III. Aurora.wav

Peak level 77.4 %
Track quality 99.9 %
Test CRC 66AE2C96
Copy CRC 66AE2C96
Accurately ripped (confidence 3) [D1EA31B5]
Copy OK

Track 4

Filename E:\1111\Evgeni_Mravinsky_Edition.12CD\CD03\04 - Shostakovich Symphony No.12 in D minor, Op.112 'The Year 1917' - IV. The dawn of humanity.wav

Peak level 91.0 %
Track quality 100.0 %
Test CRC A56FDED7
Copy CRC A56FDED7
Accurately ripped (confidence 3) [E951157A]
Copy OK


All tracks accurately ripped

No errors occurred

End of status report

foobar2000 1.2 / Dynamic Range Meter 1.1.1
log date: 2017-01-19 16:46:35

––––––––––––––––––––––––––––––––––––––––
Analyzed: Leningrad Philharmonic Orchestra & Evgeny Mravinsky / Evgeny Mravinsky conducts the Leningrad Philharmonic Orchestra (Disc 3)
––––––––––––––––––––––––––––––––––––––––

DR Peak RMS Duration Track
––––––––––––––––––––––––––––––––––––––––
DR13 -0.22 dB -17.89 dB 12:03 01-Shostakovich Symphony No.12 in D minor, Op.112 'The Year 1917' - I. Revolutionary Petrograd
DR15 -2.53 dB -24.64 dB 11:24 02-Shostakovich Symphony No.12 in D minor, Op.112 'The Year 1917' - II. Razliv
DR12 -2.22 dB -19.72 dB 4:48 03-Shostakovich Symphony No.12 in D minor, Op.112 'The Year 1917' - III. Aurora
DR12 -0.81 dB -17.86 dB 10:18 04-Shostakovich Symphony No.12 in D minor, Op.112 'The Year 1917' - IV. The dawn of humanity
––––––––––––––––––––––––––––––––––––––––

Number of tracks: 4
Official DR value: DR13

Samplerate: 44100 Hz
Channels: 2
Bits per sample: 16
Bitrate: 753 kbps
Codec: FLAC
================================================================================


Exact Audio Copy V0.99 prebeta 5 from 4. May 2009

EAC extraction logfile from 27. January 2010, 14:45

Leningrad Philharmonic Orchestra & Evgeny Mravinsky / Evgeny Mravinsky conducts the Leningrad Philharmonic Orchestra (Disc 4)

Used drive : PLEXTOR DVDR PX-800A Adapter: 1 ID: 0

Read mode : Secure
Utilize accurate stream : Yes
Defeat audio cache : Yes
Make use of C2 pointers : No

Read offset correction : 48
Overread into Lead-In and Lead-Out : No
Fill up missing offset samples with silence : Yes
Delete leading and trailing silent blocks : No
Null samples used in CRC calculations : No
Used interface : Native Win32 interface for Win NT & 2000
Gap handling : Appended to previous track

Used output format : User Defined Encoder
Selected bitrate : 1024 kBit/s
Quality : High
Add ID3 tag : No
Command line compressor : C:\Program Files\Exact Audio Copy\FLAC\FLAC.EXE
Additional command line options : -6 -V -T "ARTIST=%a" -T "TITLE=%t" -T "ALBUM=%g" -T "DATE=%y" -T "TRACKNUMBER=%n" -T "GENRE=%m" -T "COMMENT=%e" %s -o %d


TOC of the extracted CD

Track | Start | Length | Start sector | End sector
––––––––––––––––––––––––––––-
1 | 0:00.00 | 14:00.13 | 0 | 63012
2 | 14:00.13 | 11:49.00 | 63013 | 116187
3 | 25:49.13 | 5:36.22 | 116188 | 141409
4 | 31:25.35 | 11:25.34 | 141410 | 192818


Track 1

Filename E:\1111\Evgeni_Mravinsky_Edition.12CD\CD04\01 - Tchaikovsky Symphony No.5 in E minor, Op.64 - I. Adagio - Allegro con anima.wav

Pre-gap length 0:00:02.00

Peak level 86.2 %
Track quality 100.0 %
Test CRC 972351A7
Copy CRC 972351A7
Accurately ripped (confidence 3) [6CED40F4]
Copy OK

Track 2

Filename E:\1111\Evgeni_Mravinsky_Edition.12CD\CD04\02 - Tchaikovsky Symphony No.5 in E minor, Op.64 - II. Andante cantabile con alcuna licenza.wav

Pre-gap length 0:00:02.43

Peak level 82.9 %
Track quality 100.0 %
Test CRC F6B998F8
Copy CRC F6B998F8
Accurately ripped (confidence 3) [D924690F]
Copy OK

Track 3

Filename E:\1111\Evgeni_Mravinsky_Edition.12CD\CD04\03 - Tchaikovsky Symphony No.5 in E minor, Op.64 - III. Allegro moderato.wav

Pre-gap length 0:00:02.68

Peak level 77.8 %
Track quality 100.0 %
Test CRC 3F1A1A4F
Copy CRC 3F1A1A4F
Accurately ripped (confidence 3) [5AB35DAD]
Copy OK

Track 4

Filename E:\1111\Evgeni_Mravinsky_Edition.12CD\CD04\04 - Tchaikovsky Symphony No.5 in E minor, Op.64 - IV. Andante maestoso - Allegro vivace.wav

Peak level 84.1 %
Track quality 100.0 %
Test CRC 2DF7CDF5
Copy CRC 2DF7CDF5
Accurately ripped (confidence 3) [176F07FC]
Copy OK


All tracks accurately ripped

No errors occurred

End of status report

foobar2000 1.2 / Dynamic Range Meter 1.1.1
log date: 2017-01-19 16:46:49

––––––––––––––––––––––––––––––––––––––––
Analyzed: Leningrad Philharmonic Orchestra & Evgeny Mravinsky / Evgeny Mravinsky conducts the Leningrad Philharmonic Orchestra (Disc 4)
––––––––––––––––––––––––––––––––––––––––

DR Peak RMS Duration Track
––––––––––––––––––––––––––––––––––––––––
DR13 -1.28 dB -20.10 dB 14:00 01-Tchaikovsky Symphony No.5 in E minor, Op.64 - I. Adagio - Allegro con anima
DR12 -1.63 dB -20.75 dB 11:49 02-Tchaikovsky Symphony No.5 in E minor, Op.64 - II. Andante cantabile con alcuna licenza
DR17 -2.18 dB -25.33 dB 5:36 03-Tchaikovsky Symphony No.5 in E minor, Op.64 - III. Allegro moderato
DR12 -1.50 dB -18.80 dB 11:25 04-Tchaikovsky Symphony No.5 in E minor, Op.64 - IV. Andante maestoso - Allegro vivace
––––––––––––––––––––––––––––––––––––––––

Number of tracks: 4
Official DR value: DR14

Samplerate: 44100 Hz
Channels: 2
Bits per sample: 16
Bitrate: 667 kbps
Codec: FLAC
================================================================================


Exact Audio Copy V0.99 prebeta 5 from 4. May 2009

EAC extraction logfile from 29. January 2010, 11:20

Leningrad Philharmonic Orchestra & Evgeny Mravinsky / Evgeny Mravinsky conducts the Leningrad Philharmonic Orchestra (Disc 5)

Used drive : PLEXTOR DVDR PX-800A Adapter: 1 ID: 0

Read mode : Secure
Utilize accurate stream : Yes
Defeat audio cache : Yes
Make use of C2 pointers : No

Read offset correction : 48
Overread into Lead-In and Lead-Out : No
Fill up missing offset samples with silence : Yes
Delete leading and trailing silent blocks : No
Null samples used in CRC calculations : No
Used interface : Native Win32 interface for Win NT & 2000
Gap handling : Appended to previous track

Used output format : User Defined Encoder
Selected bitrate : 1024 kBit/s
Quality : High
Add ID3 tag : No
Command line compressor : C:\Program Files\Exact Audio Copy\FLAC\FLAC.EXE
Additional command line options : -6 -V -T "ARTIST=%a" -T "TITLE=%t" -T "ALBUM=%g" -T "DATE=%y" -T "TRACKNUMBER=%n" -T "GENRE=%m" -T "COMMENT=%e" %s -o %d


TOC of the extracted CD

Track | Start | Length | Start sector | End sector
––––––––––––––––––––––––––––-
1 | 0:00.00 | 17:52.05 | 0 | 80404
2 | 17:52.05 | 8:21.53 | 80405 | 118032
3 | 26:13.58 | 8:52.47 | 118033 | 157979
4 | 35:06.30 | 9:48.68 | 157980 | 202147


Track 1

Filename E:\1111\Evgeni_Mravinsky_Edition.12CD\CD05\01 - Tchaikovsky Symphony No.6 in B minor, Op.74 'Path'etique' - I. Adagio - Allegro non troppo.wav

Pre-gap length 0:00:02.00

Peak level 100.0 %
Track quality 100.0 %
Test CRC B744EBB5
Copy CRC B744EBB5
Accurately ripped (confidence 3) [2CB87BB7]
Copy OK

Track 2

Filename E:\1111\Evgeni_Mravinsky_Edition.12CD\CD05\02 - Tchaikovsky Symphony No.6 in B minor, Op.74 'Path'etique' - II. Allegro con grazia.wav

Pre-gap length 0:00:01.57

Peak level 52.5 %
Track quality 100.0 %
Test CRC 680D63DB
Copy CRC 680D63DB
Accurately ripped (confidence 3) [7FEE8334]
Copy OK

Track 3

Filename E:\1111\Evgeni_Mravinsky_Edition.12CD\CD05\03 - Tchaikovsky Symphony No.6 in B minor, Op.74 'Path'etique' - III. Allegro molto vivace.wav

Pre-gap length 0:00:01.63

Peak level 100.0 %
Track quality 99.9 %
Test CRC F77EEA58
Copy CRC F77EEA58
Accurately ripped (confidence 3) [25A50B89]
Copy OK

Track 4

Filename E:\1111\Evgeni_Mravinsky_Edition.12CD\CD05\04 - Tchaikovsky Symphony No.6 in B minor, Op.74 'Path'etique' - IV. Adagio lamentoso.wav

Pre-gap length 0:00:01.70

Peak level 99.3 %
Track quality 100.0 %
Test CRC 6B5DC503
Copy CRC 6B5DC503
Accurately ripped (confidence 3) [5358632B]
Copy OK


All tracks accurately ripped

No errors occurred

End of status report

foobar2000 1.2 / Dynamic Range Meter 1.1.1
log date: 2017-01-19 16:47:05

––––––––––––––––––––––––––––––––––––––––
Analyzed: Leningrad Philharmonic Orchestra & Evgeny Mravinsky / Evgeny Mravinsky conducts the Leningrad Philharmonic Orchestra (Disc 5)
––––––––––––––––––––––––––––––––––––––––

DR Peak RMS Duration Track
––––––––––––––––––––––––––––––––––––––––
DR13 0.00 dB -19.38 dB 17:52 01-Tchaikovsky Symphony No.6 in B minor, Op.74 'Path'etique' - I. Adagio - Allegro non troppo
DR14 -5.58 dB -25.42 dB 8:22 02-Tchaikovsky Symphony No.6 in B minor, Op.74 'Path'etique' - II. Allegro con grazia
DR12 0.00 dB -17.01 dB 8:53 03-Tchaikovsky Symphony No.6 in B minor, Op.74 'Path'etique' - III. Allegro molto vivace
DR14 -0.06 dB -20.96 dB 9:49 04-Tchaikovsky Symphony No.6 in B minor, Op.74 'Path'etique' - IV. Adagio lamentoso
––––––––––––––––––––––––––––––––––––––––

Number of tracks: 4
Official DR value: DR13

Samplerate: 44100 Hz
Channels: 2
Bits per sample: 16
Bitrate: 551 kbps
Codec: FLAC
================================================================================


Exact Audio Copy V0.99 prebeta 5 from 4. May 2009

EAC extraction logfile from 29. January 2010, 13:42

Leningrad Philharmonic Orchestra & Evgeny Mravinsky / Evgeny Mravinsky conducts the Leningrad Philharmonic Orchestra (Disc 6)

Used drive : PLEXTOR DVDR PX-800A Adapter: 1 ID: 0

Read mode : Secure
Utilize accurate stream : Yes
Defeat audio cache : Yes
Make use of C2 pointers : No

Read offset correction : 48
Overread into Lead-In and Lead-Out : No
Fill up missing offset samples with silence : Yes
Delete leading and trailing silent blocks : No
Null samples used in CRC calculations : No
Used interface : Native Win32 interface for Win NT & 2000
Gap handling : Appended to previous track

Used output format : User Defined Encoder
Selected bitrate : 1024 kBit/s
Quality : High
Add ID3 tag : No
Command line compressor : C:\Program Files\Exact Audio Copy\FLAC\FLAC.EXE
Additional command line options : -6 -V -T "ARTIST=%a" -T "TITLE=%t" -T "ALBUM=%g" -T "DATE=%y" -T "TRACKNUMBER=%n" -T "GENRE=%m" -T "COMMENT=%e" %s -o %d


TOC of the extracted CD

Track | Start | Length | Start sector | End sector
––––––––––––––––––––––––––––-
1 | 0:00.00 | 24:12.70 | 0 | 108969
2 | 24:12.70 | 5:26.65 | 108970 | 133484
3 | 29:39.60 | 5:12.60 | 133485 | 156944
4 | 34:52.45 | 4:57.10 | 156945 | 179229
5 | 39:49.55 | 1:51.28 | 179230 | 187582
6 | 41:41.08 | 2:59.45 | 187583 | 201052
7 | 44:40.53 | 1:05.40 | 201053 | 205967
8 | 45:46.18 | 1:18.57 | 205968 | 211874
9 | 47:05.00 | 1:59.50 | 211875 | 220849
10 | 49:04.50 | 1:16.10 | 220850 | 226559
11 | 50:20.60 | 3:29.10 | 226560 | 242244
12 | 53:49.70 | 3:21.50 | 242245 | 257369
13 | 57:11.45 | 1:38.63 | 257370 | 264782


Track 1

Filename E:\1111\Evgeni_Mravinsky_Edition.12CD\CD06\01 - Tchaikovsky Francesca da Rimini, op.32.wav

Pre-gap length 0:00:02.00

Peak level 99.3 %
Track quality 100.0 %
Test CRC A378EE06
Copy CRC A378EE06
Accurately ripped (confidence 3) [137BDBCB]
Copy OK

Track 2

Filename E:\1111\Evgeni_Mravinsky_Edition.12CD\CD06\02 - Mussorgsky Dawn on the Moscow River (Prelude to Act One of Khovanshchina).wav

Pre-gap length 0:00:04.50

Peak level 35.1 %
Track quality 100.0 %
Test CRC C6C72ACB
Copy CRC C6C72ACB
Accurately ripped (confidence 3) [F8673E49]
Copy OK

Track 3

Filename E:\1111\Evgeni_Mravinsky_Edition.12CD\CD06\03 - Glinka Overture to Rusian and Lyudmila.wav

Pre-gap length 0:00:04.72

Peak level 96.0 %
Track quality 99.9 %
Test CRC 3F5656BE
Copy CRC 3F5656BE
Accurately ripped (confidence 3) [F691232D]
Copy OK

Track 4

Filename E:\1111\Evgeni_Mravinsky_Edition.12CD\CD06\04 - Glazunov Suite from Raymonda - I. Tableau (Introduction to Act One).wav

Pre-gap length 0:00:03.17

Peak level 95.1 %
Track quality 100.0 %
Test CRC BB821FE5
Copy CRC BB821FE5
Accurately ripped (confidence 3) [B4AE6BA3]
Copy OK

Track 5

Filename E:\1111\Evgeni_Mravinsky_Edition.12CD\CD06\05 - Glazunov Suite from Raymonda - II. Tableau (Act One, Scene 1).wav

Pre-gap length 0:00:04.27

Peak level 83.0 %
Track quality 100.0 %
Test CRC 3B1BA1E4
Copy CRC 3B1BA1E4
Accurately ripped (confidence 3) [B4E317D5]
Copy OK

Track 6

Filename E:\1111\Evgeni_Mravinsky_Edition.12CD\CD06\06 - Glazunov Suite from Raymonda - III. Grande Valse (Act One, Scene 6).wav

Pre-gap length 0:00:03.20

Peak level 96.2 %
Track quality 100.0 %
Test CRC 089866D6
Copy CRC 089866D6
Accurately ripped (confidence 3) [F58D21DD]
Copy OK

Track 7

Filename E:\1111\Evgeni_Mravinsky_Edition.12CD\CD06\07 - Glazunov Suite from Raymonda - IV. Pizzicato (Pas de Raymonda).wav

Peak level 59.1 %
Track quality 100.0 %
Test CRC D717172F
Copy CRC D717172F
Accurately ripped (confidence 3) [5AA7ED99]
Copy OK

Track 8

Filename E:\1111\Evgeni_Mravinsky_Edition.12CD\CD06\08 - Glazunov Suite from Raymonda - V. Valse - reprise.wav

Peak level 72.0 %
Track quality 100.0 %
Test CRC 497C732D
Copy CRC 497C732D
Accurately ripped (confidence 3) [7451D31E]
Copy OK

Track 9

Filename E:\1111\Evgeni_Mravinsky_Edition.12CD\CD06\09 - Glazunov Suite from Raymonda - VI. Pr'elude (Raymonda joue le luth).wav

Pre-gap length 0:00:01.40

Peak level 57.6 %
Track quality 100.0 %
Test CRC 70A45BDB
Copy CRC 70A45BDB
Accurately ripped (confidence 3) [B6F4A7F2]
Copy OK

Track 10

Filename E:\1111\Evgeni_Mravinsky_Edition.12CD\CD06\10 - Glazunov Suite from Raymonda - VII. Pr'elude et Variation.wav

Pre-gap length 0:00:00.65

Peak level 40.8 %
Track quality 100.0 %
Test CRC 7826C978
Copy CRC 7826C978
Accurately ripped (confidence 3) [672414E4]
Copy OK

Track 11

Filename E:\1111\Evgeni_Mravinsky_Edition.12CD\CD06\11 - Glazunov Suite from Raymonda - VIII. Entr'acte.wav

Pre-gap length 0:00:01.47

Peak level 78.5 %
Track quality 100.0 %
Test CRC 217BD1A6
Copy CRC 217BD1A6
Accurately ripped (confidence 3) [7A3A0F87]
Copy OK

Track 12

Filename E:\1111\Evgeni_Mravinsky_Edition.12CD\CD06\12 - Glazunov Suite from Raymonda - IX. Entr'acte (Act Three).wav

Pre-gap length 0:00:03.25

Peak level 88.8 %
Track quality 100.0 %
Test CRC 22D6ED2F
Copy CRC 22D6ED2F
Accurately ripped (confidence 3) [FD64F534]
Copy OK

Track 13

Filename E:\1111\Evgeni_Mravinsky_Edition.12CD\CD06\13 - Glazunov Suite from Raymonda - X. Grand pas espagnol (Act Two).wav

Pre-gap length 0:00:06.21

Peak level 96.3 %
Track quality 100.0 %
Test CRC 1C47C7F4
Copy CRC 1C47C7F4
Accurately ripped (confidence 3) [A016EAF6]
Copy OK


All tracks accurately ripped

No errors occurred

End of status report

foobar2000 1.2 / Dynamic Range Meter 1.1.1
log date: 2017-01-19 16:47:23

––––––––––––––––––––––––––––––––––––––––
Analyzed: Leningrad Philharmonic Orchestra & Evgeny Mravinsky / Evgeny Mravinsky conducts the Leningrad Philharmonic Orchestra (Disc 6)
––––––––––––––––––––––––––––––––––––––––

DR Peak RMS Duration Track
––––––––––––––––––––––––––––––––––––––––
DR14 -0.06 dB -19.59 dB 24:13 01-Tchaikovsky Francesca da Rimini, op.32
DR13 -9.07 dB -28.17 dB 5:27 02-Mussorgsky Dawn on the Moscow River (Prelude to Act One of Khovanshchina)
DR14 -0.35 dB -19.70 dB 5:13 03-Glinka Overture to Rusian and Lyudmila
DR12 -0.43 dB -17.32 dB 4:57 04-Glazunov Suite from Raymonda - I. Tableau (Introduction to Act One)
DR13 -1.61 dB -18.85 dB 1:51 05-Glazunov Suite from Raymonda - II. Tableau (Act One, Scene 1)
DR12 -0.33 dB -20.49 dB 3:00 06-Glazunov Suite from Raymonda - III. Grande Valse (Act One, Scene 6)
DR14 -4.56 dB -24.46 dB 1:06 07-Glazunov Suite from Raymonda - IV. Pizzicato (Pas de Raymonda)
DR11 -2.84 dB -17.55 dB 1:19 08-Glazunov Suite from Raymonda - V. Valse - reprise
DR12 -4.79 dB -22.82 dB 2:00 09-Glazunov Suite from Raymonda - VI. Pr'elude (Raymonda joue le luth)
DR12 -7.78 dB -24.34 dB 1:16 10-Glazunov Suite from Raymonda - VII. Pr'elude et Variation
DR11 -2.10 dB -19.04 dB 3:29 11-Glazunov Suite from Raymonda - VIII. Entr'acte
DR12 -1.02 dB -16.56 dB 3:22 12-Glazunov Suite from Raymonda - IX. Entr'acte (Act Three)
DR12 -0.32 dB -16.92 dB 1:39 13-Glazunov Suite from Raymonda - X. Grand pas espagnol (Act Two)
––––––––––––––––––––––––––––––––––––––––

Number of tracks: 13
Official DR value: DR12

Samplerate: 44100 Hz
Channels: 2
Bits per sample: 16
Bitrate: 442 kbps
Codec: FLAC
================================================================================


Exact Audio Copy V0.99 prebeta 5 from 4. May 2009

EAC extraction logfile from 29. January 2010, 14:59

Leningrad Philharmonic Orchestra & Evgeny Mravinsky / Evgeny Mravinsky conducts the Leningrad Philharmonic Orchestra (Disc 7)

Used drive : PLEXTOR DVDR PX-800A Adapter: 1 ID: 0

Read mode : Secure
Utilize accurate stream : Yes
Defeat audio cache : Yes
Make use of C2 pointers : No

Read offset correction : 48
Overread into Lead-In and Lead-Out : No
Fill up missing offset samples with silence : Yes
Delete leading and trailing silent blocks : No
Null samples used in CRC calculations : No
Used interface : Native Win32 interface for Win NT & 2000
Gap handling : Appended to previous track

Used output format : User Defined Encoder
Selected bitrate : 1024 kBit/s
Quality : High
Add ID3 tag : No
Command line compressor : C:\Program Files\Exact Audio Copy\FLAC\FLAC.EXE
Additional command line options : -6 -V -T "ARTIST=%a" -T "TITLE=%t" -T "ALBUM=%g" -T "DATE=%y" -T "TRACKNUMBER=%n" -T "GENRE=%m" -T "COMMENT=%e" %s -o %d


TOC of the extracted CD

Track | Start | Length | Start sector | End sector
––––––––––––––––––––––––––––-
1 | 0:00.00 | 7:50.57 | 0 | 35306
2 | 7:50.57 | 5:13.18 | 35307 | 58799
3 | 13:04.00 | 2:50.47 | 58800 | 71596
4 | 15:54.47 | 7:16.33 | 71597 | 104329
5 | 23:11.05 | 8:11.37 | 104330 | 141191
6 | 31:22.42 | 8:31.15 | 141192 | 179531
7 | 39:53.57 | 3:52.63 | 179532 | 196994
8 | 43:46.45 | 5:17.02 | 196995 | 220771


Track 1

Filename E:\1111\Evgeni_Mravinsky_Edition.12CD\CD07\01 - Mozart Symphony No.33 in B flat major, K319 - I. Allegro assai.wav

Pre-gap length 0:00:02.00

Peak level 66.1 %
Track quality 100.0 %
Test CRC 35DBACCA
Copy CRC 35DBACCA
Accurately ripped (confidence 3) [EDB6861F]
Copy OK

Track 2

Filename E:\1111\Evgeni_Mravinsky_Edition.12CD\CD07\02 - Mozart Symphony No.33 in B flat major, K319 - II. Andante moderato.wav

Pre-gap length 0:00:02.27

Peak level 39.2 %
Track quality 100.0 %
Test CRC 9244D5F6
Copy CRC 9244D5F6
Accurately ripped (confidence 3) [62E1545A]
Copy OK

Track 3

Filename E:\1111\Evgeni_Mravinsky_Edition.12CD\CD07\03 - Mozart Symphony No.33 in B flat major, K319 - III. Menuetto.wav

Pre-gap length 0:00:02.08

Peak level 68.4 %
Track quality 100.0 %
Test CRC D69C8C33
Copy CRC D69C8C33
Accurately ripped (confidence 3) [D1DF026A]
Copy OK

Track 4

Filename E:\1111\Evgeni_Mravinsky_Edition.12CD\CD07\04 - Mozart Symphony No.33 in B flat major, K319 - IV. Allegro assai.wav

Peak level 66.8 %
Track quality 100.0 %
Test CRC 5435960A
Copy CRC 5435960A
Accurately ripped (confidence 3) [07BFA0C8]
Copy OK

Track 5

Filename E:\1111\Evgeni_Mravinsky_Edition.12CD\CD07\05 - Mozart Symphony No.39 in E flat major, K543 - I. Adagio.wav

Pre-gap length 0:00:10.15

Peak level 75.3 %
Track quality 100.0 %
Test CRC 90941D22
Copy CRC 90941D22
Accurately ripped (confidence 3) [59580948]
Copy OK

Track 6

Filename E:\1111\Evgeni_Mravinsky_Edition.12CD\CD07\06 - Mozart Symphony No.39 in E flat major, K543 - II. Andante con moto.wav

Pre-gap length 0:00:02.17

Peak level 64.4 %
Track quality 100.0 %
Test CRC 8A276482
Copy CRC 8A276482
Accurately ripped (confidence 3) [AED7ED2A]
Copy OK

Track 7

Filename E:\1111\Evgeni_Mravinsky_Edition.12CD\CD07\07 - Mozart Symphony No.39 in E flat major, K543 - III. Menuetto. Allegretto.wav

Pre-gap length 0:00:01.02

Peak level 70.4 %
Track quality 100.0 %
Test CRC 89DD3F2A
Copy CRC 89DD3F2A
Accurately ripped (confidence 3) [DE1AB1A2]
Copy OK

Track 8

Filename E:\1111\Evgeni_Mravinsky_Edition.12CD\CD07\08 - Mozart Symphony No.39 in E flat major, K543 - IV. Finale. Allegro.wav

Pre-gap length 0:00:04.14

Peak level 89.2 %
Track quality 100.0 %
Test CRC 42B70EEF
Copy CRC 42B70EEF
Accurately ripped (confidence 3) [2D83D397]
Copy OK


All tracks accurately ripped

No errors occurred

End of status report

foobar2000 1.2 / Dynamic Range Meter 1.1.1
log date: 2017-01-19 16:47:37

––––––––––––––––––––––––––––––––––––––––
Analyzed: Leningrad Philharmonic Orchestra & Evgeny Mravinsky / Evgeny Mravinsky conducts the Leningrad Philharmonic Orchestra (Disc 7)
––––––––––––––––––––––––––––––––––––––––

DR Peak RMS Duration Track
––––––––––––––––––––––––––––––––––––––––
DR14 -3.59 dB -22.98 dB 7:51 01-Mozart Symphony No.33 in B flat major, K319 - I. Allegro assai
DR14 -8.12 dB -27.83 dB 5:13 02-Mozart Symphony No.33 in B flat major, K319 - II. Andante moderato
DR14 -3.29 dB -22.83 dB 2:51 03-Mozart Symphony No.33 in B flat major, K319 - III. Menuetto
DR13 -3.50 dB -22.90 dB 7:16 04-Mozart Symphony No.33 in B flat major, K319 - IV. Allegro assai
DR12 -2.46 dB -19.36 dB 8:11 05-Mozart Symphony No.39 in E flat major, K543 - I. Adagio
DR13 -3.82 dB -22.00 dB 8:31 06-Mozart Symphony No.39 in E flat major, K543 - II. Andante con moto
DR13 -3.05 dB -20.12 dB 3:53 07-Mozart Symphony No.39 in E flat major, K543 - III. Menuetto. Allegretto
DR14 -0.99 dB -19.40 dB 5:17 08-Mozart Symphony No.39 in E flat major, K543 - IV. Finale. Allegro
––––––––––––––––––––––––––––––––––––––––

Number of tracks: 8
Official DR value: DR13

Samplerate: 44100 Hz
Channels: 2
Bits per sample: 16
Bitrate: 396 kbps
Codec: FLAC
================================================================================


Exact Audio Copy V0.99 prebeta 5 from 4. May 2009

EAC extraction logfile from 29. January 2010, 15:40

Leningrad Philharmonic Orchestra & Evgeny Mravinsky / Evgeny Mravinsky conducts the Leningrad Philharmonic Orchestra (Disc 8)

Used drive : PLEXTOR DVDR PX-800A Adapter: 1 ID: 0

Read mode : Secure
Utilize accurate stream : Yes
Defeat audio cache : Yes
Make use of C2 pointers : No

Read offset correction : 48
Overread into Lead-In and Lead-Out : No
Fill up missing offset samples with silence : Yes
Delete leading and trailing silent blocks : No
Null samples used in CRC calculations : No
Used interface : Native Win32 interface for Win NT & 2000
Gap handling : Appended to previous track

Used output format : User Defined Encoder
Selected bitrate : 1024 kBit/s
Quality : High
Add ID3 tag : No
Command line compressor : C:\Program Files\Exact Audio Copy\FLAC\FLAC.EXE
Additional command line options : -6 -V -T "ARTIST=%a" -T "TITLE=%t" -T "ALBUM=%g" -T "DATE=%y" -T "TRACKNUMBER=%n" -T "GENRE=%m" -T "COMMENT=%e" %s -o %d


TOC of the extracted CD

Track | Start | Length | Start sector | End sector
––––––––––––––––––––––––––––-
1 | 0:00.00 | 9:41.60 | 0 | 43634
2 | 9:41.60 | 7:51.37 | 43635 | 78996
3 | 17:33.22 | 3:54.03 | 78997 | 96549
4 | 21:27.25 | 5:55.50 | 96550 | 123224
5 | 27:23.00 | 13:43.27 | 123225 | 184976
6 | 41:06.27 | 15:11.08 | 184977 | 253309
7 | 56:17.35 | 5:22.35 | 253310 | 277494
8 | 61:39.70 | 11:35.59 | 277495 | 329678


Track 1

Filename E:\1111\Evgeni_Mravinsky_Edition.12CD\CD08\01 - Beethoven Symphony No.1 in C major, op.21 - I. Adagio molto - Allegro con brio.wav

Pre-gap length 0:00:02.00

Peak level 74.3 %
Track quality 100.0 %
Test CRC 21396DAE
Copy CRC 21396DAE
Accurately ripped (confidence 2) [00E70BA7]
Copy OK

Track 2

Filename E:\1111\Evgeni_Mravinsky_Edition.12CD\CD08\02 - Beethoven Symphony No.1 in C major, op.21 - II. Andante cantabile con moto.wav

Pre-gap length 0:00:01.60

Peak level 65.5 %
Track quality 100.0 %
Test CRC 6E65356B
Copy CRC 6E65356B
Accurately ripped (confidence 2) [FADCF1EE]
Copy OK

Track 3

Filename E:\1111\Evgeni_Mravinsky_Edition.12CD\CD08\03 - Beethoven Symphony No.1 in C major, op.21 - III. Menuetto. Allegro molto e vivace.wav

Pre-gap length 0:00:01.00

Peak level 83.1 %
Track quality 100.0 %
Test CRC 55426FE0
Copy CRC 55426FE0
Accurately ripped (confidence 2) [02893FC0]
Copy OK

Track 4

Filename E:\1111\Evgeni_Mravinsky_Edition.12CD\CD08\04 - Beethoven Symphony No.1 in C major, op.21 - IV. Finale. Adagio - Allegro molto e vivace.wav

Peak level 76.4 %
Track quality 100.0 %
Test CRC B9D01577
Copy CRC B9D01577
Accurately ripped (confidence 2) [7BA79AF8]
Copy OK

Track 5

Filename E:\1111\Evgeni_Mravinsky_Edition.12CD\CD08\05 - Beethoven Symphony No.3 in E flat major, op.55 'Eroica' - I. Allegro con brio.wav

Pre-gap length 0:00:07.68

Peak level 100.0 %
Track quality 100.0 %
Test CRC 92D4F0F5
Copy CRC 92D4F0F5
Accurately ripped (confidence 2) [2208A7F8]
Copy OK

Track 6

Filename E:\1111\Evgeni_Mravinsky_Edition.12CD\CD08\06 - Beethoven Symphony No.3 in E flat major, op.55 'Eroica' - II. Marcia funebre. Adagio assai.wav

Pre-gap length 0:00:05.37

Peak level 100.0 %
Track quality 100.0 %
Test CRC 54386B58
Copy CRC 54386B58
Accurately ripped (confidence 2) [8A1815DC]
Copy OK

Track 7

Filename E:\1111\Evgeni_Mravinsky_Edition.12CD\CD08\07 - Beethoven Symphony No.3 in E flat major, op.55 'Eroica' - III. Scherzo. Allegro vivace.wav

Pre-gap length 0:00:04.45

Peak level 98.9 %
Track quality 100.0 %
Test CRC D5B81C6D
Copy CRC D5B81C6D
Accurately ripped (confidence 2) [F4ED45E4]
Copy OK

Track 8

Filename E:\1111\Evgeni_Mravinsky_Edition.12CD\CD08\08 - Beethoven Symphony No.3 in E flat major, op.55 'Eroica' - IV. Finale. Allegro molto.wav

Peak level 96.6 %
Track quality 100.0 %
Test CRC 0425989A
Copy CRC 0425989A
Accurately ripped (confidence 2) [68D87577]
Copy OK


All tracks accurately ripped

No errors occurred

End of status report

foobar2000 1.2 / Dynamic Range Meter 1.1.1
log date: 2017-01-19 16:48:00

––––––––––––––––––––––––––––––––––––––––
Analyzed: Leningrad Philharmonic Orchestra & Evgeny Mravinsky / Evgeny Mravinsky conducts the Leningrad Philharmonic Orchestra (Disc 8)
––––––––––––––––––––––––––––––––––––––––

DR Peak RMS Duration Track
––––––––––––––––––––––––––––––––––––––––
DR15 -2.57 dB -22.59 dB 9:42 01-Beethoven Symphony No.1 in C major, op.21 - I. Adagio molto - Allegro con brio
DR15 -3.67 dB -24.31 dB 7:51 02-Beethoven Symphony No.1 in C major, op.21 - II. Andante cantabile con moto
DR13 -1.61 dB -21.05 dB 3:54 03-Beethoven Symphony No.1 in C major, op.21 - III. Menuetto. Allegro molto e vivace
DR13 -2.33 dB -20.42 dB 5:56 04-Beethoven Symphony No.1 in C major, op.21 - IV. Finale. Adagio - Allegro molto e vivace
DR15 0.00 dB -19.53 dB 13:43 05-Beethoven Symphony No.3 in E flat major, op.55 'Eroica' - I. Allegro con brio
DR14 0.00 dB -19.59 dB 15:11 06-Beethoven Symphony No.3 in E flat major, op.55 'Eroica' - II. Marcia funebre. Adagio assai
DR13 -0.09 dB -19.62 dB 5:22 07-Beethoven Symphony No.3 in E flat major, op.55 'Eroica' - III. Scherzo. Allegro vivace
DR14 -0.30 dB -19.31 dB 11:36 08-Beethoven Symphony No.3 in E flat major, op.55 'Eroica' - IV. Finale. Allegro molto
––––––––––––––––––––––––––––––––––––––––

Number of tracks: 8
Official DR value: DR14

Samplerate: 44100 Hz
Channels: 2
Bits per sample: 16
Bitrate: 422 kbps
Codec: FLAC
================================================================================


Exact Audio Copy V0.99 prebeta 5 from 4. May 2009

EAC extraction logfile from 1. February 2010, 13:51

Leningrad Philharmonic Orchestra & Evgeny Mravinsky / Evgeny Mravinsky conducts the Leningrad Philharmonic Orchestra (Disc 9)

Used drive : PLEXTOR DVDR PX-800A Adapter: 1 ID: 0

Read mode : Secure
Utilize accurate stream : Yes
Defeat audio cache : Yes
Make use of C2 pointers : No

Read offset correction : 48
Overread into Lead-In and Lead-Out : No
Fill up missing offset samples with silence : Yes
Delete leading and trailing silent blocks : No
Null samples used in CRC calculations : No
Used interface : Native Win32 interface for Win NT & 2000
Gap handling : Appended to previous track

Used output format : User Defined Encoder
Selected bitrate : 1024 kBit/s
Quality : High
Add ID3 tag : No
Command line compressor : C:\Program Files\Exact Audio Copy\FLAC\FLAC.EXE
Additional command line options : -6 -V -T "ARTIST=%a" -T "TITLE=%t" -T "ALBUM=%g" -T "DATE=%y" -T "TRACKNUMBER=%n" -T "GENRE=%m" -T "COMMENT=%e" %s -o %d


TOC of the extracted CD

Track | Start | Length | Start sector | End sector
––––––––––––––––––––––––––––-
1 | 0:00.00 | 7:26.30 | 0 | 33479
2 | 7:26.30 | 9:30.03 | 33480 | 76232
3 | 16:56.33 | 4:57.30 | 76233 | 98537
4 | 21:53.63 | 8:49.05 | 98538 | 138217
5 | 30:42.68 | 13:27.60 | 138218 | 198802
6 | 44:10.53 | 8:14.17 | 198803 | 235869
7 | 52:24.70 | 8:27.55 | 235870 | 273949
8 | 60:52.50 | 6:49.27 | 273950 | 304651


Track 1

Filename E:\1111\Evgeni_Mravinsky_Edition.12CD\CD09\01 - Beethoven Symphony No.5 in C minor, Op.67 - I. Allegro con brio.wav

Pre-gap length 0:00:02.00

Peak level 87.9 %
Track quality 100.0 %
Test CRC 9CB24510
Copy CRC 9CB24510
Accurately ripped (confidence 3) [B01364EC]
Copy OK

Track 2

Filename E:\1111\Evgeni_Mravinsky_Edition.12CD\CD09\02 - Beethoven Symphony No.5 in C minor, Op.67 - II. Andante con moto.wav

Pre-gap length 0:00:02.40

Peak level 89.4 %
Track quality 100.0 %
Test CRC D64DBBCA
Copy CRC D64DBBCA
Accurately ripped (confidence 3) [23BB42FE]
Copy OK

Track 3

Filename E:\1111\Evgeni_Mravinsky_Edition.12CD\CD09\03 - Beethoven Symphony No.5 in C minor, Op.67 - III. Allegro.wav

Pre-gap length 0:00:04.03

Peak level 77.0 %
Track quality 100.0 %
Test CRC BE01802C
Copy CRC BE01802C
Accurately ripped (confidence 3) [7016CCC7]
Copy OK

Track 4

Filename E:\1111\Evgeni_Mravinsky_Edition.12CD\CD09\04 - Beethoven Symphony No.5 in C minor, Op.67 - IV. Allegro.wav

Peak level 95.9 %
Track quality 100.0 %
Test CRC 74E8A3CE
Copy CRC 74E8A3CE
Accurately ripped (confidence 3) [E26B2421]
Copy OK

Track 5

Filename E:\1111\Evgeni_Mravinsky_Edition.12CD\CD09\05 - Beethoven Symphony No.7 in A major, Op.92 - I. Poco sostenuto - Vivace.wav

Pre-gap length 0:00:07.65

Peak level 84.7 %
Track quality 100.0 %
Test CRC 31E2FE08
Copy CRC 31E2FE08
Accurately ripped (confidence 3) [036CC6D1]
Copy OK

Track 6

Filename E:\1111\Evgeni_Mravinsky_Edition.12CD\CD09\06 - Beethoven Symphony No.7 in A major, Op.92 - II. Allegretto.wav

Pre-gap length 0:00:04.10

Peak level 85.8 %
Track quality 100.0 %
Test CRC B7370DAF
Copy CRC B7370DAF
Accurately ripped (confidence 3) [C1969351]
Copy OK

Track 7

Filename E:\1111\Evgeni_Mravinsky_Edition.12CD\CD09\07 - Beethoven Symphony No.7 in A major, Op.92 - III. Presto.wav

Pre-gap length 0:00:04.37

Peak level 81.2 %
Track quality 99.9 %
Test CRC 58918504
Copy CRC 58918504
Accurately ripped (confidence 3) [096C4B94]
Copy OK

Track 8

Filename E:\1111\Evgeni_Mravinsky_Edition.12CD\CD09\08 - Beethoven Symphony No.7 in A major, Op.92 - IV. Allegro con brio.wav

Pre-gap length 0:00:03.47

Peak level 89.0 %
Track quality 100.0 %
Test CRC FA700FDE
Copy CRC FA700FDE
Accurately ripped (confidence 3) [40F97A85]
Copy OK


All tracks accurately ripped

No errors occurred

End of status report

foobar2000 1.2 / Dynamic Range Meter 1.1.1
log date: 2017-01-19 16:48:18

––––––––––––––––––––––––––––––––––––––––
Analyzed: Leningrad Philharmonic Orchestra & Evgeny Mravinsky / Evgeny Mravinsky conducts the Leningrad Philharmonic Orchestra (Disc 9)
––––––––––––––––––––––––––––––––––––––––

DR Peak RMS Duration Track
––––––––––––––––––––––––––––––––––––––––
DR12 -1.12 dB -18.29 dB 7:26 01-Beethoven Symphony No.5 in C minor, Op.67 - I. Allegro con brio
DR13 -0.97 dB -19.80 dB 9:30 02-Beethoven Symphony No.5 in C minor, Op.67 - II. Andante con moto
DR12 -2.50 dB -20.05 dB 4:57 03-Beethoven Symphony No.5 in C minor, Op.67 - III. Allegro
DR12 -0.36 dB -16.99 dB 8:49 04-Beethoven Symphony No.5 in C minor, Op.67 - IV. Allegro
DR10 -1.44 dB -16.31 dB 13:28 05-Beethoven Symphony No.7 in A major, Op.92 - I. Poco sostenuto - Vivace
DR12 -1.33 dB -19.57 dB 8:14 06-Beethoven Symphony No.7 in A major, Op.92 - II. Allegretto
DR10 -1.80 dB -17.43 dB 8:28 07-Beethoven Symphony No.7 in A major, Op.92 - III. Presto
DR10 -1.01 dB -14.90 dB 6:49 08-Beethoven Symphony No.7 in A major, Op.92 - IV. Allegro con brio
––––––––––––––––––––––––––––––––––––––––

Number of tracks: 8
Official DR value: DR11

Samplerate: 44100 Hz
Channels: 2
Bits per sample: 16
Bitrate: 430 kbps
Codec: FLAC
================================================================================


Exact Audio Copy V0.99 prebeta 5 from 4. May 2009

EAC extraction logfile from 1. February 2010, 14:20

Leningrad Philharmonic Orchestra & Evgeny Mravinsky / Evgeny Mravinsky conducts the Leningrad Philharmonic Orchestra (Disc 10)

Used drive : PLEXTOR DVDR PX-800A Adapter: 1 ID: 0

Read mode : Secure
Utilize accurate stream : Yes
Defeat audio cache : Yes
Make use of C2 pointers : No

Read offset correction : 48
Overread into Lead-In and Lead-Out : No
Fill up missing offset samples with silence : Yes
Delete leading and trailing silent blocks : No
Null samples used in CRC calculations : No
Used interface : Native Win32 interface for Win NT & 2000
Gap handling : Appended to previous track

Used output format : User Defined Encoder
Selected bitrate : 1024 kBit/s
Quality : High
Add ID3 tag : No
Command line compressor : C:\Program Files\Exact Audio Copy\FLAC\FLAC.EXE
Additional command line options : -6 -V -T "ARTIST=%a" -T "TITLE=%t" -T "ALBUM=%g" -T "DATE=%y" -T "TRACKNUMBER=%n" -T "GENRE=%m" -T "COMMENT=%e" %s -o %d


TOC of the extracted CD

Track | Start | Length | Start sector | End sector
––––––––––––––––––––––––––––-
1 | 0:00.00 | 9:47.50 | 0 | 44074
2 | 9:47.50 | 12:10.32 | 44075 | 98856
3 | 21:58.07 | 5:29.38 | 98857 | 123569
4 | 27:27.45 | 3:30.27 | 123570 | 139346
5 | 30:57.72 | 9:00.28 | 139347 | 179874


Track 1

Filename E:\1111\Evgeni_Mravinsky_Edition.12CD\CD10\01 - Beethoven Symphony No.6 in F major, op.68 'Pastoral' - I. Allegro ma non troppo.wav

Pre-gap length 0:00:02.00

Peak level 66.1 %
Track quality 100.0 %
Test CRC EEFBC0F3
Copy CRC EEFBC0F3
Accurately ripped (confidence 3) [0CFBE87E]
Copy OK

Track 2

Filename E:\1111\Evgeni_Mravinsky_Edition.12CD\CD10\02 - Beethoven Symphony No.6 in F major, op.68 'Pastoral' - II. Andante molto mosso.wav

Pre-gap length 0:00:05.60

Peak level 62.3 %
Track quality 100.0 %
Test CRC 719770A3
Copy CRC 719770A3
Accurately ripped (confidence 3) [3319E04F]
Copy OK

Track 3

Filename E:\1111\Evgeni_Mravinsky_Edition.12CD\CD10\03 - Beethoven Symphony No.6 in F major, op.68 'Pastoral' - III. Allegro.wav

Peak level 62.5 %
Track quality 100.0 %
Test CRC 0714BC77
Copy CRC 0714BC77
Accurately ripped (confidence 3) [AED6EBF5]
Copy OK

Track 4

Filename E:\1111\Evgeni_Mravinsky_Edition.12CD\CD10\04 - Beethoven Symphony No.6 in F major, op.68 'Pastoral' - IV. Allegro.wav

Peak level 97.0 %
Track quality 100.0 %
Test CRC CFDA4BC3
Copy CRC CFDA4BC3
Accurately ripped (confidence 3) [7805C844]
Copy OK

Track 5

Filename E:\1111\Evgeni_Mravinsky_Edition.12CD\CD10\05 - Beethoven Symphony No.6 in F major, op.68 'Pastoral' - V. Allegretto.wav

Peak level 100.0 %
Track quality 100.0 %
Test CRC BBA76340
Copy CRC BBA76340
Accurately ripped (confidence 3) [C57D8C59]
Copy OK


All tracks accurately ripped

No errors occurred

End of status report

foobar2000 1.2 / Dynamic Range Meter 1.1.1
log date: 2017-01-19 16:48:31

––––––––––––––––––––––––––––––––––––––––
Analyzed: Leningrad Philharmonic Orchestra & Evgeny Mravinsky / Evgeny Mravinsky conducts the Leningrad Philharmonic Orchestra (Disc 10)
––––––––––––––––––––––––––––––––––––––––

DR Peak RMS Duration Track
––––––––––––––––––––––––––––––––––––––––
DR13 -3.59 dB -21.83 dB 9:48 01-Beethoven Symphony No.6 in F major, op.68 'Pastoral' - I. Allegro ma non troppo
DR14 -4.11 dB -25.11 dB 12:10 02-Beethoven Symphony No.6 in F major, op.68 'Pastoral' - II. Andante molto mosso
DR13 -4.08 dB -21.03 dB 5:30 03-Beethoven Symphony No.6 in F major, op.68 'Pastoral' - III. Allegro
DR12 -0.26 dB -18.31 dB 3:30 04-Beethoven Symphony No.6 in F major, op.68 'Pastoral' - IV. Allegro
DR14 0.00 dB -18.75 dB 9:00 05-Beethoven Symphony No.6 in F major, op.68 'Pastoral' - V. Allegretto
––––––––––––––––––––––––––––––––––––––––

Number of tracks: 5
Official DR value: DR13

Samplerate: 44100 Hz
Channels: 2
Bits per sample: 16
Bitrate: 689 kbps
Codec: FLAC
================================================================================


Exact Audio Copy V0.99 prebeta 5 from 4. May 2009

EAC extraction logfile from 1. February 2010, 16:38

Leningrad Philharmonic Orchestra & Evgeny Mravinsky / Evgeny Mravinsky conducts the Leningrad Philharmonic Orchestra (Disc 11)

Used drive : PLEXTOR DVDR PX-800A Adapter: 1 ID: 0

Read mode : Secure
Utilize accurate stream : Yes
Defeat audio cache : Yes
Make use of C2 pointers : No

Read offset correction : 48
Overread into Lead-In and Lead-Out : No
Fill up missing offset samples with silence : Yes
Delete leading and trailing silent blocks : No
Null samples used in CRC calculations : No
Used interface : Native Win32 interface for Win NT & 2000
Gap handling : Appended to previous track

Used output format : User Defined Encoder
Selected bitrate : 1024 kBit/s
Quality : High
Add ID3 tag : No
Command line compressor : C:\Program Files\Exact Audio Copy\FLAC\FLAC.EXE
Additional command line options : -6 -V -T "ARTIST=%a" -T "TITLE=%t" -T "ALBUM=%g" -T "DATE=%y" -T "TRACKNUMBER=%n" -T "GENRE=%m" -T "COMMENT=%e" %s -o %d


TOC of the extracted CD

Track | Start | Length | Start sector | End sector
––––––––––––––––––––––––––––-
1 | 0:00.00 | 7:49.60 | 0 | 35234
2 | 7:49.60 | 17:03.05 | 35235 | 111964
3 | 24:52.65 | 4:18.10 | 111965 | 131324
4 | 29:11.00 | 13:54.63 | 131325 | 193937
5 | 43:05.63 | 8:09.15 | 193938 | 230627
6 | 51:15.03 | 2:38.13 | 230628 | 242490


Track 1

Filename E:\1111\Evgeni_Mravinsky_Edition.12CD\CD11\01 - Wagner Siegfried's Funeral March - Gotterdammerung.wav

Pre-gap length 0:00:02.00

Peak level 100.0 %
Track quality 100.0 %
Test CRC 0CB8B465
Copy CRC 0CB8B465
Accurately ripped (confidence 4) [C440987F]
Copy OK

Track 2

Filename E:\1111\Evgeni_Mravinsky_Edition.12CD\CD11\02 - Wagner Prelude and Liebestod - Tristan und Isolde.wav

Pre-gap length 0:00:04.65

Peak level 84.5 %
Track quality 99.9 %
Test CRC 9F171F49
Copy CRC 9F171F49
Accurately ripped (confidence 4) [2DFDAACB]
Copy OK

Track 3

Filename E:\1111\Evgeni_Mravinsky_Edition.12CD\CD11\03 - Wagner The Ride of the Valkyries - Die Walkure.wav

Pre-gap length 0:00:05.45

Peak level 99.8 %
Track quality 100.0 %
Test CRC B528B036
Copy CRC B528B036
Accurately ripped (confidence 4) [40239DA8]
Copy OK

Track 4

Filename E:\1111\Evgeni_Mravinsky_Edition.12CD\CD11\04 - Wagner Overture - Tannhauser.wav

Pre-gap length 0:00:04.55

Peak level 86.3 %
Track quality 100.0 %
Test CRC 345BA209
Copy CRC 345BA209
Accurately ripped (confidence 4) [E4D95A75]
Copy OK

Track 5

Filename E:\1111\Evgeni_Mravinsky_Edition.12CD\CD11\05 - Wagner Prelude to Act One - Lohengrin.wav

Pre-gap length 0:00:04.23

Peak level 88.4 %
Track quality 100.0 %
Test CRC B5A91FDF
Copy CRC B5A91FDF
Accurately ripped (confidence 4) [05482E1A]
Copy OK

Track 6

Filename E:\1111\Evgeni_Mravinsky_Edition.12CD\CD11\06 - Wagner Prelude to Act Three - Lohengrin.wav

Pre-gap length 0:00:04.30

Peak level 94.0 %
Track quality 100.0 %
Test CRC D975F2E2
Copy CRC D975F2E2
Accurately ripped (confidence 4) [0EF778EB]
Copy OK


All tracks accurately ripped

No errors occurred

End of status report

foobar2000 1.2 / Dynamic Range Meter 1.1.1
log date: 2017-01-19 16:48:50

––––––––––––––––––––––––––––––––––––––––
Analyzed: Leningrad Philharmonic Orchestra & Evgeny Mravinsky / Evgeny Mravinsky conducts the Leningrad Philharmonic Orchestra (Disc 11)
––––––––––––––––––––––––––––––––––––––––

DR Peak RMS Duration Track
––––––––––––––––––––––––––––––––––––––––
DR12 0.00 dB -17.90 dB 7:50 01-Wagner Siegfried's Funeral March - Gotterdammerung
DR13 -1.46 dB -20.95 dB 17:03 02-Wagner Prelude and Liebestod - Tristan und Isolde
DR12 -0.01 dB -15.44 dB 4:18 03-Wagner The Ride of the Valkyries - Die Walkure
DR12 -1.28 dB -19.22 dB 13:55 04-Wagner Overture - Tannhauser
DR13 -1.07 dB -20.68 dB 8:09 05-Wagner Prelude to Act One - Lohengrin
DR12 -0.53 dB -15.70 dB 2:38 06-Wagner Prelude to Act Three - Lohengrin
––––––––––––––––––––––––––––––––––––––––

Number of tracks: 6
Official DR value: DR12

Samplerate: 44100 Hz
Channels: 2
Bits per sample: 16
Bitrate: 428 kbps
Codec: FLAC
================================================================================


Exact Audio Copy V0.99 prebeta 5 from 4. May 2009

EAC extraction logfile from 2. February 2010, 10:32

Leningrad Philharmonic Orchestra & Evgeny Mravinsky / Evgeny Mravinsky conducts the Leningrad Philharmonic Orchestra (Disc 12)

Used drive : PLEXTOR DVDR PX-800A Adapter: 1 ID: 0

Read mode : Secure
Utilize accurate stream : Yes
Defeat audio cache : Yes
Make use of C2 pointers : No

Read offset correction : 48
Overread into Lead-In and Lead-Out : No
Fill up missing offset samples with silence : Yes
Delete leading and trailing silent blocks : No
Null samples used in CRC calculations : No
Used interface : Native Win32 interface for Win NT & 2000
Gap handling : Appended to previous track

Used output format : User Defined Encoder
Selected bitrate : 1024 kBit/s
Quality : High
Add ID3 tag : No
Command line compressor : C:\Program Files\Exact Audio Copy\FLAC\FLAC.EXE
Additional command line options : -6 -V -T "ARTIST=%a" -T "TITLE=%t" -T "ALBUM=%g" -T "DATE=%y" -T "TRACKNUMBER=%n" -T "GENRE=%m" -T "COMMENT=%e" %s -o %d


TOC of the extracted CD

Track | Start | Length | Start sector | End sector
––––––––––––––––––––––––––––-
1 | 0:00.00 | 19:51.55 | 0 | 89379
2 | 19:51.55 | 9:59.18 | 89380 | 134322
3 | 29:50.73 | 5:22.65 | 134323 | 158537


Track 1

Filename E:\1111\Evgeni_Mravinsky_Edition.12CD\CD12\01 - Wagner Overture - Tannhauser (Orchestral rehearsal).wav

Pre-gap length 0:00:02.00

Peak level 90.0 %
Track quality 100.0 %
Test CRC 0E344270
Copy CRC 0E344270
Accurately ripped (confidence 3) [1C24C7FB]
Copy OK

Track 2

Filename E:\1111\Evgeni_Mravinsky_Edition.12CD\CD12\02 - Wagner Prelude - Die Meistersinger (Orchestral rehearsal).wav

Pre-gap length 0:00:05.17

Peak level 92.2 %
Track quality 100.0 %
Test CRC 04477890
Copy CRC 04477890
Accurately ripped (confidence 3) [014F9C1B]
Copy OK

Track 3

Filename E:\1111\Evgeni_Mravinsky_Edition.12CD\CD12\03 - Evgeny Mravinsky on Life and Nature.wav

Pre-gap length 0:00:10.15

Peak level 72.1 %
Track quality 100.0 %
Test CRC 66DB4AD6
Copy CRC 66DB4AD6
Accurately ripped (confidence 3) [4DB5CDFB]
Copy OK


All tracks accurately ripped

No errors occurred

End of status report

foobar2000 1.2 / Dynamic Range Meter 1.1.1
log date: 2017-01-19 16:49:01

––––––––––––––––––––––––––––––––––––––––
Analyzed: Leningrad Philharmonic Orchestra & Evgeny Mravinsky / Evgeny Mravinsky conducts the Leningrad Philharmonic Orchestra (Disc 12)
––––––––––––––––––––––––––––––––––––––––

DR Peak RMS Duration Track
––––––––––––––––––––––––––––––––––––––––
DR10 -0.91 dB -18.03 dB 19:52 01-Wagner Overture - Tannhauser (Orchestral rehearsal)
DR10 -0.70 dB -14.69 dB 9:59 02-Wagner Prelude - Die Meistersinger (Orchestral rehearsal)
DR16 -2.83 dB -23.40 dB 5:23 03-Evgeny Mravinsky on Life and Nature
––––––––––––––––––––––––––––––––––––––––

Number of tracks: 3
Official DR value: DR12

Samplerate: 44100 Hz
Channels: 2
Bits per sample: 16
Bitrate: 546 kbps
Codec: FLAC
================================================================================

Yevgeny Mravinsky conducts the Leningrad Philharmonic Orchestra (2007) 12 CD Box Set

All thanks to original releaser - PANOVNIK

More interesting music in My Blog


Password: designol