Tags
Language
Tags

After Dinner - Souvenir Cassette And Further Live Adventures (1988/2019)

Posted By:
After Dinner - Souvenir Cassette And Further Live Adventures (1988/2019)

After Dinner - Souvenir Cassette And Further Live Adventures (1988/2019)
EAC Rip | FLAC (tracks+log+.cue) - 376 Mb | MP3 CBR 320 kbps - 177 Mb | Covers inlcuded | 01:07:42
Avant-Garde Rock, Female Vocal | Label: ReR Megacorp

A Limited Edition reissue of the original commemorative cassette released only to subscribers of the first Recommended After Dinner LP – a collection of exquisite live interpretations of the songs, recorded on the band’s first European tour (itself a technically innovative event in which they essentially set up a 5.1 sound system at every concert. Great songs and great performances, full LP length. This CD edition, also includes all the Tokyo recordings released on the ReR Quartlerly 0104 in 1986 and a previously unreleased song, from the 1989 European tour. With full documentation, many new photographs, technical diagrams and an introduction by Haco, who oversaw the whole project. All re-mastered by Bob Drake.
Tracklist:
1. After Dinner (05:12)
2. Kitchen Life (03:26)
3. The Room of Hair Mobiles (03:43)
4. A Walnut (03:30)
5. An Accelerating Etude (04:25)
6. Sepia-Ture (05:04)
7. Cymbals at Dawn (04:04)
8. A Man of Marble (02:53)
9. Glass Tube (10:23)
10. Soknya-Doll (03:54)
11. Silence (00:11)
12. A Boy in the Boiled Egg (02:39)
13. Silence (00:11)
14. After Dinner (02:56)
15. A Walnut (03:04)
16. RE (04:39)
17. A Man of Marble (02:49)
18. Glass Tube (04:39)

Exact Audio Copy V1.3 from 2. September 2016

EAC extraction logfile from 21. December 2019, 0:41

After Dinner / The Souvenir Cassette and Further Live Adventures

Used drive : ATAPI DVD A DH24AFSH Adapter: 1 ID: 0

Read mode : Secure
Utilize accurate stream : Yes
Defeat audio cache : Yes
Make use of C2 pointers : No

Read offset correction : 6
Overread into Lead-In and Lead-Out : No
Fill up missing offset samples with silence : Yes
Delete leading and trailing silent blocks : No
Null samples used in CRC calculations : Yes
Used interface : Native Win32 interface for Win NT & 2000
Gap handling : Appended to previous track

Used output format : User Defined Encoder
Selected bitrate : 1024 kBit/s
Quality : High
Add ID3 tag : No
Command line compressor : C:\Program Files (x86)\Exact Audio Copy\Flac\flac.exe
Additional command line options : -8 -V -T "ARTIST=%artist%" -T "TITLE=%title%" -T "ALBUM=%albumtitle%" -T "DATE=%year%" -T "TRACKNUMBER=%tracknr%" -T "GENRE=%genre%" -T "PERFORMER=%albuminterpret%" -T "COMPOSER=%composer%" %haslyrics%–tag-from-file=LYRICS="%lyricsfile%"%haslyrics% -T "ALBUMARTIST=%albumartist%" -T "DISCNUMBER=%cdnumber%" -T "TOTALDISCS=%totalcds%" -T "TOTALTRACKS=%numtracks%" -T "COMMENT=%comment%" %source% -o %dest%


TOC of the extracted CD

Track | Start | Length | Start sector | End sector
––––––––––––––––––––––––––––-
1 | 0:00.00 | 5:11.69 | 0 | 23393
2 | 5:11.69 | 3:25.44 | 23394 | 38812
3 | 8:37.38 | 3:43.05 | 38813 | 55542
4 | 12:20.43 | 3:29.74 | 55543 | 71291
5 | 15:50.42 | 4:25.22 | 71292 | 91188
6 | 20:15.64 | 5:04.09 | 91189 | 113997
7 | 25:19.73 | 4:04.27 | 113998 | 132324
8 | 29:24.25 | 2:53.09 | 132325 | 145308
9 | 32:17.34 | 10:22.54 | 145309 | 192012
10 | 42:40.13 | 3:54.15 | 192013 | 209577
11 | 46:34.28 | 0:10.61 | 209578 | 210388
12 | 46:45.14 | 2:38.58 | 210389 | 222296
13 | 49:23.72 | 0:11.01 | 222297 | 223122
14 | 49:34.73 | 2:55.64 | 223123 | 236311
15 | 52:30.62 | 3:03.44 | 236312 | 250080
16 | 55:34.31 | 4:39.02 | 250081 | 271007
17 | 60:13.33 | 2:49.34 | 271008 | 283716
18 | 63:02.67 | 4:39.32 | 283717 | 304673


Track 1

Filename O:\EAC\The Souvenir Cassette and Further Live Adventures\01 - After Dinner.wav

Pre-gap length 0:00:02.00

Peak level 96.6 %
Extraction speed 5.4 X
Track quality 100.0 %
Test CRC 19603DA4
Copy CRC 19603DA4
Accurately ripped (confidence 2) [5431000F] (AR v2)
Copy OK

Track 2

Filename O:\EAC\The Souvenir Cassette and Further Live Adventures\02 - Kitchen Life.wav

Peak level 70.5 %
Extraction speed 5.8 X
Track quality 100.0 %
Test CRC 9C27C25A
Copy CRC 9C27C25A
Accurately ripped (confidence 2) [510D7A8B] (AR v2)
Copy OK

Track 3

Filename O:\EAC\The Souvenir Cassette and Further Live Adventures\03 - The Room of Hair Mobiles.wav

Peak level 63.4 %
Extraction speed 5.3 X
Track quality 99.9 %
Test CRC 7563B13B
Copy CRC 7563B13B
Accurately ripped (confidence 2) [7D1D1369] (AR v2)
Copy OK

Track 4

Filename O:\EAC\The Souvenir Cassette and Further Live Adventures\04 - A Walnut.wav

Peak level 88.7 %
Extraction speed 6.8 X
Track quality 100.0 %
Test CRC 8FC4C95E
Copy CRC 8FC4C95E
Accurately ripped (confidence 2) [7411B67A] (AR v2)
Copy OK

Track 5

Filename O:\EAC\The Souvenir Cassette and Further Live Adventures\05 - An Accelerating Etude.wav

Peak level 58.2 %
Extraction speed 5.0 X
Track quality 99.9 %
Test CRC 83D77950
Copy CRC 83D77950
Accurately ripped (confidence 2) [2FBDAFD5] (AR v2)
Copy OK

Track 6

Filename O:\EAC\The Souvenir Cassette and Further Live Adventures\06 - Sepia-Ture.wav

Peak level 64.0 %
Extraction speed 5.1 X
Track quality 99.9 %
Test CRC B3049729
Copy CRC B3049729
Accurately ripped (confidence 2) [93AED129] (AR v2)
Copy OK

Track 7

Filename O:\EAC\The Souvenir Cassette and Further Live Adventures\07 - Cymbals at Dawn.wav

Peak level 58.9 %
Extraction speed 4.9 X
Track quality 99.9 %
Test CRC F09CA105
Copy CRC F09CA105
Accurately ripped (confidence 2) [11EBD645] (AR v2)
Copy OK

Track 8

Filename O:\EAC\The Souvenir Cassette and Further Live Adventures\08 - A Man of Marble.wav

Peak level 68.3 %
Extraction speed 4.1 X
Track quality 99.9 %
Test CRC 0864E51F
Copy CRC 0864E51F
Accurately ripped (confidence 2) [C7D2E5B9] (AR v2)
Copy OK

Track 9

Filename O:\EAC\The Souvenir Cassette and Further Live Adventures\09 - Glass Tube.wav

Peak level 91.1 %
Extraction speed 5.8 X
Track quality 99.9 %
Test CRC 9D523776
Copy CRC 9D523776
Accurately ripped (confidence 2) [3F6BAF93] (AR v2)
Copy OK

Track 10

Filename O:\EAC\The Souvenir Cassette and Further Live Adventures\10 - Soknya-Doll.wav

Peak level 70.6 %
Extraction speed 4.9 X
Track quality 99.9 %
Test CRC FB6E1432
Copy CRC FB6E1432
Accurately ripped (confidence 2) [AD8733B0] (AR v2)
Copy OK

Track 11

Filename O:\EAC\The Souvenir Cassette and Further Live Adventures\11 - Silence.wav

Peak level 0.0 %
Extraction speed 1.2 X
Track quality 100.0 %
Test CRC A9ED5311
Copy CRC A9ED5311
Track not present in AccurateRip database
Copy OK

Track 12

Filename O:\EAC\The Souvenir Cassette and Further Live Adventures\12 - A Boy in the Boiled Egg.wav

Peak level 83.5 %
Extraction speed 5.3 X
Track quality 100.0 %
Test CRC 7555C337
Copy CRC 7555C337
Accurately ripped (confidence 2) [98E4E343] (AR v2)
Copy OK

Track 13

Filename O:\EAC\The Souvenir Cassette and Further Live Adventures\13 - Silence.wav

Peak level 0.0 %
Extraction speed 0.8 X
Track quality 100.0 %
Test CRC 97521BE3
Copy CRC 97521BE3
Track not present in AccurateRip database
Copy OK

Track 14

Filename O:\EAC\The Souvenir Cassette and Further Live Adventures\14 - After Dinner.wav

Peak level 96.6 %
Extraction speed 5.6 X
Track quality 99.9 %
Test CRC 6317ED27
Copy CRC 6317ED27
Accurately ripped (confidence 2) [1147C04B] (AR v2)
Copy OK

Track 15

Filename O:\EAC\The Souvenir Cassette and Further Live Adventures\15 - A Walnut.wav

Peak level 80.8 %
Extraction speed 5.3 X
Track quality 99.9 %
Test CRC F7E410B2
Copy CRC F7E410B2
Accurately ripped (confidence 2) [FE095059] (AR v2)
Copy OK

Track 16

Filename O:\EAC\The Souvenir Cassette and Further Live Adventures\16 - RE.wav

Peak level 49.4 %
Extraction speed 6.1 X
Track quality 99.9 %
Test CRC 45A358A8
Copy CRC 45A358A8
Accurately ripped (confidence 2) [7CBA2537] (AR v2)
Copy OK

Track 17

Filename O:\EAC\The Souvenir Cassette and Further Live Adventures\17 - A Man of Marble.wav

Peak level 34.8 %
Extraction speed 2.9 X
Track quality 99.7 %
Test CRC 98AE487B
Copy CRC 98AE487B
Accurately ripped (confidence 2) [CAFFC647] (AR v2)
Copy OK

Track 18

Filename O:\EAC\The Souvenir Cassette and Further Live Adventures\18 - Glass Tube.wav

Peak level 83.5 %
Extraction speed 6.0 X
Track quality 99.9 %
Test CRC 476C2D0F
Copy CRC 476C2D0F
Accurately ripped (confidence 2) [8F0A2101] (AR v2)
Copy OK


16 track(s) accurately ripped
2 track(s) not present in the AccurateRip database

Some tracks could not be verified as accurate

No errors occurred

End of status report

–– CUETools DB Plugin V2.1.6

[CTDB TOCID: si34rWP1c1pGI3zXgW92a94AY0w-] found
Submit result: si34rWP1c1pGI3zXgW92a94AY0w- has been confirmed
Track | CTDB Status
1 | (1/1) Accurately ripped
2 | (1/1) Accurately ripped
3 | (1/1) Accurately ripped
4 | (1/1) Accurately ripped
5 | (1/1) Accurately ripped
6 | (1/1) Accurately ripped
7 | (1/1) Accurately ripped
8 | (1/1) Accurately ripped
9 | (1/1) Accurately ripped
10 | (1/1) Accurately ripped
11 | (1/1) Accurately ripped
12 | (1/1) Accurately ripped
13 | (1/1) Accurately ripped
14 | (1/1) Accurately ripped
15 | (1/1) Accurately ripped
16 | (1/1) Accurately ripped
17 | (1/1) Accurately ripped
18 | (1/1) Accurately ripped


==== Log checksum 116A96DF5466CEE972E462D23DACB5D6F51E8E492DCD5B262A3690D7591BCA99 ====

Thanks to the Original ripper !