Subcategories

Alice Cooper - The Studio Albums 1969-1983 (2015) {15 Disc Box Set Rhino-Warner 081227953744}

Posted By: ruskaval
Alice Cooper - The Studio Albums 1969-1983 (2015) {15 Disc Box Set Rhino-Warner 081227953744}

Alice Cooper - The Studio Albums 1969-1983 (2015) {15 Disc Box Set Rhino-Warner 081227953744}
EAC rip (secure mode) | FLAC (tracks)+CUE+LOG -> 3.51 Gb | MP3 @320 -> 1.31 Gb
Full Artwork @ 300 dpi (png) -> 311 Mb | 5% repair rar
© 1969-83, 2015 Rhino / Warner | 081227953744
Rock / Hard Rock / Shock Rock / Glam Rock

Weighing in at 15 CDs, The Studio Albums 1969-1983 is a hefty box set but, at $85, it is relatively affordable considering that it contains everything Alice Cooper – both the band and the man – recorded at Straight and Warner. Whatever bonus material attached to CD reissues over the years has been stripped away – nothing from the 2001 deluxe edition of Billion Dollar Babies, then – and there are no new remasters of the albums, but this set isn't bare bones. The mini-LP replicas contain a few inserts carried over from the vinyl and, more importantly, those early Straight Records are present, which is good because they were out of print for a while. Not everything here is great – he did have a rough patch in the late '70s and early '80s – but it's all interesting, and it's especially nice to be able to get the entire catalog so easily and cheaply.
Alice Cooper - The Studio Albums 1969-1983 (2015) {15 Disc Box Set Rhino-Warner 081227953744}

Five stars for the scope of the contents. If you want to hear the rise and fall of Alice Cooper (as band and solo artist), it's all in here. From the original band's early days on Frank Zappa's Straight label, through to the wild success of the early '70s, to Vincent Furnier's mid-'70s breakup with the band and going solo as Alice, to his superstar heights and grinding fall, this box contains every sonic document. The arc of Furnier's career is actually quite remarkable. The first few records are more miss than hit, but things get going when producer Bob Ezrin enters the picture. From 1971 to 1973, the band hits with Love It To Death, Killer, School's Out and Billion Dollar Babies, each a contender for the best thing ever done under the name Alice Cooper. But when Furnier becomes the face of all things Alice, and a genuine pop-culture superstar, tensions set in. His band mates decide they don't want to listen to Ezrin anymore, he leaves, and the result is Muscle of Love, a dud record that trips up the outfit's momentum in the latter stages of '73. The breakup happens months later, Furnier goes solo, and as Alice Cooper, he's everywhere with his 1975 mega-hit record Welcome To My Nightmare, produced by Ezrin. It sounds like a clever and slick music-industry project, a soundtrack for his endless theatrical TV appearances, stripped of the style of his old band, but still bringing Cooper's kooky macabre humour and a touch of heavy to the proceedings. Good stuff. It's slowly downhill from here, musically and personally. His celebrity remains intact for much of the '70s, even as punk and disco push rock to the sidelines. Alice Cooper Goes To Hell follows Nightmare. And like Nightmare, it feels like another soundtrack to a twisted musical, but with fewer songs that satisfy. Still, it's got some great stuff, and is worth a listen. But down he goes, with Lace & Whiskey, then the much-hyped From The Inside, which gets way too self-indulgent. Then, disaster after disaster. Flush The Fashion, Special Forces, Zipper Catches Skin and DaDa close out the collection. Each has its moments: you may get a good chuckle out of some of the stuff on Zipper, or enjoy the creepy digitized vibe of DaDa, but by the end of the CD set, we have Cooper fading away, no longer even able to get his records on the Billboard 200. It's a remarkable collection, a remarkable 15-disc historical document, and gives fans who've only known him since his 1986 L.A. sleaze metal comeback a whole new understanding of what Alice Cooper was when he stood tallest. If you get this, consider seeking out the movie Super Duper Alice Cooper, which is a nice companion to this collection.
Alice Cooper - The Studio Albums 1969-1983 (2015) {15 Disc Box Set Rhino-Warner 081227953744}


THE STUDIO ALBUMS 1969-1983

– Pretties For You (1969)
– Easy Action (1970)
– Love It To Death (1971)
– Killer (1971)
– School’s Out (1972)
– Billion Dollar Babies (1973)
– Muscle Of Love (1973)
– Welcome To My Nightmare (1975)
– Alice Cooper Goes To Hell (1976)
– Lace And Whiskey (1977)
– From The Inside (1978)
– Flush The Fusion (1980)
– Special Forces (1981)
– Zipper Catches Skin (1982)
– DaDa (1983)


Alice Cooper - The Studio Albums 1969-1983 (2015) {15 Disc Box Set Rhino-Warner 081227953744}


Track Listings

Disc 1


1. Titanic Overture
2. 10 Minutes Before The Worm
3. Swing Low Sweet Cheerio
4. Today Mueller
5. Living
6. Fields Of Regret
7. No Longer Umpire
8. Levity Ball
9. B.B. On Mars
10. Refelcted
11. Apple Bush
12. Earwigs To Eternity
13. Changing Arranging

Alice Cooper - The Studio Albums 1969-1983 (2015) {15 Disc Box Set Rhino-Warner 081227953744}


Disc 2

1. Mr. And Misdeameanor
2. Shoe Salesman
3. Still No Air
4. Below Your Means
5. Return Of The Spiders
6. Laughing At Me
7. Refrigerator Heaven
8. Beautiful Flyaway
9. Lay Down And Die, Goodbye

Alice Cooper - The Studio Albums 1969-1983 (2015) {15 Disc Box Set Rhino-Warner 081227953744}


Disc 3

1. Caught In A Dream
2. I'm Eighteen
3. Long Way To Go
4. Black Juju
5. Is It My Body
6. Hallowed Be My Name
7. Second Coming
8. Ballad of Dwight Fry
9. Sun Arise

Alice Cooper - The Studio Albums 1969-1983 (2015) {15 Disc Box Set Rhino-Warner 081227953744}


Disc 4

1. Under My Wheels
2. Be My Lover
3. Halo Of Flies
4. Desperado
5. You Drive Me Nervous
6. Yeah, Yeah, Yeah
7. Dead Babies
8. Killer

Alice Cooper - The Studio Albums 1969-1983 (2015) {15 Disc Box Set Rhino-Warner 081227953744}


Disc 5

1. School's Out
2. Luney Tune
3. Gutter Cat Vs. The Jets
4. Street Fight
5. Blue Turk
6. My Stars
7. Public Animal #9
8. Alma Mater
9. Grande Finale

Alice Cooper - The Studio Albums 1969-1983 (2015) {15 Disc Box Set Rhino-Warner 081227953744}


Disc 6

1. Hello Hooray
2. Raped And Freezin'
3. Elected
4. Billion Dollar Babies
5. Unfinished Sweet
6. No More Mr. Nice Guy
7. Generation Landslide
8. Sick Things
9. Mary Ann
10. I Love The Dead

Alice Cooper - The Studio Albums 1969-1983 (2015) {15 Disc Box Set Rhino-Warner 081227953744}


Disc 7

1. Big Apple Dreamin' (Hippo)
2. Never Been Sold Before
3. Hard Hearted Alice
4. Crazy Little Child
5. Working Up A Sweat
6. Muscle Of Love
7. Man With The Golden Gun
8. Teenage Lament '74
9. Woman Machine

Alice Cooper - The Studio Albums 1969-1983 (2015) {15 Disc Box Set Rhino-Warner 081227953744}


Disc 8

1. Welcome to My Nightmare
2. Devil's Food
3. The Black Widow
4. Some Folks
5. Only Women Bleed
6. Department of Youth
7. Cold Ethyl
8. Years Ago
9. Steven
10. The Awakening
11. Escape

Alice Cooper - The Studio Albums 1969-1983 (2015) {15 Disc Box Set Rhino-Warner 081227953744}


Disc 9

1. Go To Hell
2. You Gotta Dance
3. I'm The Coolest
4. Didn't We Meet
5. I Never Cry
6. Give The Kid A Break
7. Guilty
8. Wake Me Gently
9. Wish You Were Here
10. I'm Always Chasing Rainbows
11. Going Home

Alice Cooper - The Studio Albums 1969-1983 (2015) {15 Disc Box Set Rhino-Warner 081227953744}


Disc 10

1. It's Hot Tonight
2. Lace And Whiskey
3. Road Rats
4. Damned If You Do
5. You And Me
6. King of the Silver Screen
7. Ubangi Stomp
8. (No More) Love At Your Convenience
9. I Never Wrote Those Songs
10. My God

Alice Cooper - The Studio Albums 1969-1983 (2015) {15 Disc Box Set Rhino-Warner 081227953744}


Disc 11

1. From The Inside
2. Wish I Were Born In Beverly Hills
3. The Quiet Room
4. Nurse Rozetta
5. Millie And Billie
6. Serious
7. How You Gonna See Me Now
8. For Veronica's Sake
9. JackKnife Johnny
10. Inmates (We're All Crazy)

Alice Cooper - The Studio Albums 1969-1983 (2015) {15 Disc Box Set Rhino-Warner 081227953744}


Disc 12

1. Talk Talk
2. Clones (We're All)
3. Pain
4. Leather Boots
5. Aspirin Damage
6. Nuclear Infected
7. Grim Facts
8. Model Citizen
9. Dance Yourself To Death
10. Headlines

Alice Cooper - The Studio Albums 1969-1983 (2015) {15 Disc Box Set Rhino-Warner 081227953744}


Disc 13

1. Who Do You Think We Are
2. Seven & Seven Is
3. Prettiest Cop On The Block
4. Don't Talk Old To Me
5. Generation Landslide '81 (Live)
6. Skeletons In The Closet
7. You Want It, You Got It
8. You Look Good In Rags
9. You're A Movie
10. Vicious Rumours

Alice Cooper - The Studio Albums 1969-1983 (2015) {15 Disc Box Set Rhino-Warner 081227953744}


Disc 14

1. Zorro's Ascent
2. Make That Money (Scrooge's Song)
3. I Am The Future
4. No Baloney Homosapiens
5. Adaptable (Anything For You)
6. I Like Girls
7. Remarkably Insincere
8. Tag, You're It
9. I Better Be Good
10. I'm Alive (That Was The Day My Dead Pet Returned To Save My Life)

Alice Cooper - The Studio Albums 1969-1983 (2015) {15 Disc Box Set Rhino-Warner 081227953744}


Disc 15

1. DaDa
2. Enough's Enough
3. Former Lee Warmer
4. No Man's Land
5. Dyslexia
6. Scarlet And Sheba
7. I Love America
8. Fresh Blood
9. Pass The Gun Around

Alice Cooper - The Studio Albums 1969-1983 (2015) {15 Disc Box Set Rhino-Warner 081227953744}


Exact Audio Copy V1.0 beta 3 from 29. August 2011

EAC extraction logfile from 20. August 2015, 17:46

Alice Cooper / Pretties For You

Used drive : ATAPI iHBS212 2 Adapter: 3 ID: 0

Read mode : Secure
Utilize accurate stream : Yes
Defeat audio cache : Yes
Make use of C2 pointers : No

Read offset correction : 6
Overread into Lead-In and Lead-Out : No
Fill up missing offset samples with silence : Yes
Delete leading and trailing silent blocks : No
Null samples used in CRC calculations : Yes
Used interface : Native Win32 interface for Win NT & 2000
Gap handling : Appended to previous track

Used output format : User Defined Encoder
Selected bitrate : 128 kBit/s
Quality : High
Add ID3 tag : No
Command line compressor : C:\Program Files (x86)\Exact Audio Copy\Flac\flac.exe
Additional command line options : -8 -V -T "ARTIST=%artist%" -T "TITLE=%title%" -T "ALBUM=%albumtitle%" -T "DATE=%year%" -T "TRACKNUMBER=%tracknr%" -T "TOTALTRACKS=%numtracks%" -T "GENRE=%genre%" -T "ALBUMARTIST=%albumartist%" -T "ALBUM ARTIST=%albumartist%" -T "COMMENT=EAC Secure Mode, Test & Copy, AccurateRip, FLAC -8" %source%


TOC of the extracted CD

Track | Start | Length | Start sector | End sector
––––––––––––––––––––––––––––-
1 | 0:00.00 | 1:12.42 | 0 | 5441
2 | 1:12.42 | 1:39.40 | 5442 | 12906
3 | 2:52.07 | 5:42.48 | 12907 | 38604
4 | 8:34.55 | 1:48.30 | 38605 | 46734
5 | 10:23.10 | 3:12.02 | 46735 | 61136
6 | 13:35.12 | 5:44.73 | 61137 | 87009
7 | 19:20.10 | 2:02.17 | 87010 | 96176
8 | 21:22.27 | 4:39.73 | 96177 | 117174
9 | 26:02.25 | 1:17.42 | 117175 | 122991
10 | 27:19.67 | 3:17.13 | 122992 | 137779
11 | 30:37.05 | 3:08.65 | 137780 | 151944
12 | 33:45.70 | 1:19.52 | 151945 | 157921
13 | 35:05.47 | 3:03.68 | 157922 | 171714


Track 1

Filename C:\Users\Rob\Desktop\Uploads\Alice Cooper - The Studio Albums 1969-1983 (2015) [FLAC] (15 Disc Box Set)\1969 - Pretties For You\01 - Titanic Overture.wav

Pre-gap length 0:00:02.00

Peak level 100.0 %
Extraction speed 3.8 X
Track quality 100.0 %
Test CRC 72E6ECE7
Copy CRC 72E6ECE7
Accurately ripped (confidence 11) [DDEDC03C] (AR v2)
Copy OK

Track 2

Filename C:\Users\Rob\Desktop\Uploads\Alice Cooper - The Studio Albums 1969-1983 (2015) [FLAC] (15 Disc Box Set)\1969 - Pretties For You\02 - Ten Minutes Before The Worm.wav

Peak level 100.0 %
Extraction speed 4.3 X
Track quality 100.0 %
Test CRC 568BE0D4
Copy CRC 568BE0D4
Accurately ripped (confidence 11) [F6C43C5C] (AR v2)
Copy OK

Track 3

Filename C:\Users\Rob\Desktop\Uploads\Alice Cooper - The Studio Albums 1969-1983 (2015) [FLAC] (15 Disc Box Set)\1969 - Pretties For You\03 - Sing Low, Sweet Cheerio.wav

Pre-gap length 0:00:02.47

Peak level 100.0 %
Extraction speed 5.2 X
Track quality 99.9 %
Test CRC E9E66C5A
Copy CRC E9E66C5A
Accurately ripped (confidence 11) [4E9A671B] (AR v2)
Copy OK

Track 4

Filename C:\Users\Rob\Desktop\Uploads\Alice Cooper - The Studio Albums 1969-1983 (2015) [FLAC] (15 Disc Box Set)\1969 - Pretties For You\04 - Today Mueller.wav

Pre-gap length 0:00:02.65

Peak level 100.0 %
Extraction speed 5.2 X
Track quality 100.0 %
Test CRC 28D1F089
Copy CRC 28D1F089
Accurately ripped (confidence 11) [3250BB24] (AR v2)
Copy OK

Track 5

Filename C:\Users\Rob\Desktop\Uploads\Alice Cooper - The Studio Albums 1969-1983 (2015) [FLAC] (15 Disc Box Set)\1969 - Pretties For You\05 - Living.wav

Pre-gap length 0:00:01.70

Peak level 100.0 %
Extraction speed 6.3 X
Track quality 100.0 %
Test CRC D2A49509
Copy CRC D2A49509
Accurately ripped (confidence 11) [C1F487EC] (AR v2)
Copy OK

Track 6

Filename C:\Users\Rob\Desktop\Uploads\Alice Cooper - The Studio Albums 1969-1983 (2015) [FLAC] (15 Disc Box Set)\1969 - Pretties For You\06 - Fields Of Regret.wav

Pre-gap length 0:00:02.62

Peak level 100.0 %
Extraction speed 6.4 X
Track quality 99.9 %
Test CRC AB424EE2
Copy CRC AB424EE2
Accurately ripped (confidence 11) [1F03E7C8] (AR v2)
Copy OK

Track 7

Filename C:\Users\Rob\Desktop\Uploads\Alice Cooper - The Studio Albums 1969-1983 (2015) [FLAC] (15 Disc Box Set)\1969 - Pretties For You\07 - No Longer Umpire.wav

Pre-gap length 0:00:02.48

Peak level 100.0 %
Extraction speed 6.5 X
Track quality 100.0 %
Test CRC 6EF32813
Copy CRC 6EF32813
Accurately ripped (confidence 11) [4182EDDE] (AR v2)
Copy OK

Track 8

Filename C:\Users\Rob\Desktop\Uploads\Alice Cooper - The Studio Albums 1969-1983 (2015) [FLAC] (15 Disc Box Set)\1969 - Pretties For You\08 - Levity Ball (Live At The Cheetah).wav

Pre-gap length 0:00:03.32

Peak level 100.0 %
Extraction speed 7.8 X
Track quality 100.0 %
Test CRC FFEC9D60
Copy CRC FFEC9D60
Accurately ripped (confidence 11) [A10AC959] (AR v2)
Copy OK

Track 9

Filename C:\Users\Rob\Desktop\Uploads\Alice Cooper - The Studio Albums 1969-1983 (2015) [FLAC] (15 Disc Box Set)\1969 - Pretties For You\09 - B.B. On Mars.wav

Pre-gap length 0:00:03.35

Peak level 100.0 %
Extraction speed 6.2 X
Track quality 100.0 %
Test CRC 3A91B08D
Copy CRC 3A91B08D
Accurately ripped (confidence 11) [B2333D52] (AR v2)
Copy OK

Track 10

Filename C:\Users\Rob\Desktop\Uploads\Alice Cooper - The Studio Albums 1969-1983 (2015) [FLAC] (15 Disc Box Set)\1969 - Pretties For You\10 - Reflected.wav

Pre-gap length 0:00:05.25

Peak level 100.0 %
Extraction speed 6.4 X
Track quality 99.9 %
Test CRC 0EDB2B35
Copy CRC 0EDB2B35
Accurately ripped (confidence 11) [56CE5943] (AR v2)
Copy OK

Track 11

Filename C:\Users\Rob\Desktop\Uploads\Alice Cooper - The Studio Albums 1969-1983 (2015) [FLAC] (15 Disc Box Set)\1969 - Pretties For You\11 - Apple Bush.wav

Pre-gap length 0:00:02.74

Peak level 100.0 %
Extraction speed 6.5 X
Track quality 99.9 %
Test CRC D9AA42BC
Copy CRC D9AA42BC
Accurately ripped (confidence 11) [9597DA1B] (AR v2)
Copy OK

Track 12

Filename C:\Users\Rob\Desktop\Uploads\Alice Cooper - The Studio Albums 1969-1983 (2015) [FLAC] (15 Disc Box Set)\1969 - Pretties For You\12 - Earwigs To Eternity.wav

Pre-gap length 0:00:03.00

Peak level 100.0 %
Extraction speed 4.6 X
Track quality 99.8 %
Test CRC 37977DD1
Copy CRC 37977DD1
Accurately ripped (confidence 11) [F7891F8C] (AR v2)
Copy OK

Track 13

Filename C:\Users\Rob\Desktop\Uploads\Alice Cooper - The Studio Albums 1969-1983 (2015) [FLAC] (15 Disc Box Set)\1969 - Pretties For You\13 - Changing Arranging.wav

Pre-gap length 0:00:02.55

Peak level 100.0 %
Extraction speed 6.7 X
Track quality 99.9 %
Test CRC 7E355CA9
Copy CRC 7E355CA9
Accurately ripped (confidence 11) [5D58E794] (AR v2)
Copy OK


All tracks accurately ripped

No errors occurred

End of status report

==== Log checksum DDAC029D67964D041631F9FA8990692445F5768DBF28CB60DEB2DEBD20C9A31E ====

––-

Exact Audio Copy V1.0 beta 3 from 29. August 2011

EAC extraction logfile from 20. August 2015, 18:03

Alice Cooper / Easy Action

Used drive : ATAPI iHBS212 2 Adapter: 3 ID: 0

Read mode : Secure
Utilize accurate stream : Yes
Defeat audio cache : Yes
Make use of C2 pointers : No

Read offset correction : 6
Overread into Lead-In and Lead-Out : No
Fill up missing offset samples with silence : Yes
Delete leading and trailing silent blocks : No
Null samples used in CRC calculations : Yes
Used interface : Native Win32 interface for Win NT & 2000
Gap handling : Appended to previous track

Used output format : User Defined Encoder
Selected bitrate : 128 kBit/s
Quality : High
Add ID3 tag : No
Command line compressor : C:\Program Files (x86)\Exact Audio Copy\Flac\flac.exe
Additional command line options : -8 -V -T "ARTIST=%artist%" -T "TITLE=%title%" -T "ALBUM=%albumtitle%" -T "DATE=%year%" -T "TRACKNUMBER=%tracknr%" -T "TOTALTRACKS=%numtracks%" -T "GENRE=%genre%" -T "ALBUMARTIST=%albumartist%" -T "ALBUM ARTIST=%albumartist%" -T "COMMENT=EAC Secure Mode, Test & Copy, AccurateRip, FLAC -8" %source%


TOC of the extracted CD

Track | Start | Length | Start sector | End sector
––––––––––––––––––––––––––––-
1 | 0:00.37 | 3:10.48 | 37 | 14334
2 | 3:11.10 | 2:39.40 | 14335 | 26299
3 | 5:50.50 | 2:34.45 | 26300 | 37894
4 | 8:25.20 | 6:54.67 | 37895 | 69011
5 | 15:20.12 | 4:32.15 | 69012 | 89426
6 | 19:52.27 | 2:16.48 | 89427 | 99674
7 | 22:09.00 | 2:01.25 | 99675 | 108774
8 | 24:10.25 | 3:01.45 | 108775 | 122394
9 | 27:11.70 | 7:36.20 | 122395 | 156614


Track 1

Filename C:\Users\Rob\Desktop\Uploads\Alice Cooper - The Studio Albums 1969-1983 (2015) [FLAC] (15 Disc Box Set)\1970 - Easy Action\01 - Mr. & Misdemeanor.wav

Pre-gap length 0:00:02.37

Peak level 100.0 %
Extraction speed 4.9 X
Track quality 100.0 %
Test CRC 0CA12FDA
Copy CRC 0CA12FDA
Cannot be verified as accurate (confidence 47) [B889665A], AccurateRip returned [11DD6AE5] (AR v2)
Copy OK

Track 2

Filename C:\Users\Rob\Desktop\Uploads\Alice Cooper - The Studio Albums 1969-1983 (2015) [FLAC] (15 Disc Box Set)\1970 - Easy Action\02 - Shoe Salesman.wav

Peak level 100.0 %
Extraction speed 5.2 X
Track quality 100.0 %
Test CRC 6FC78438
Copy CRC 6FC78438
Cannot be verified as accurate (confidence 48) [78203C5E], AccurateRip returned [3C904E4E] (AR v2)
Copy OK

Track 3

Filename C:\Users\Rob\Desktop\Uploads\Alice Cooper - The Studio Albums 1969-1983 (2015) [FLAC] (15 Disc Box Set)\1970 - Easy Action\03 - Still No Air.wav

Pre-gap length 0:00:03.00

Peak level 100.0 %
Extraction speed 5.4 X
Track quality 100.0 %
Test CRC 0ACEF3D3
Copy CRC 0ACEF3D3
Cannot be verified as accurate (confidence 47) [D3F2AC23], AccurateRip returned [CBF1A37D] (AR v2)
Copy OK

Track 4

Filename C:\Users\Rob\Desktop\Uploads\Alice Cooper - The Studio Albums 1969-1983 (2015) [FLAC] (15 Disc Box Set)\1970 - Easy Action\04 - Below Your Means.wav

Pre-gap length 0:00:04.00

Peak level 100.0 %
Extraction speed 6.8 X
Track quality 100.0 %
Test CRC 24E76008
Copy CRC 24E76008
Cannot be verified as accurate (confidence 47) [15EE7FFC], AccurateRip returned [DBFA0475] (AR v2)
Copy OK

Track 5

Filename C:\Users\Rob\Desktop\Uploads\Alice Cooper - The Studio Albums 1969-1983 (2015) [FLAC] (15 Disc Box Set)\1970 - Easy Action\05 - Return Of The Spiders.wav

Pre-gap length 0:00:02.00

Peak level 100.0 %
Extraction speed 7.3 X
Track quality 100.0 %
Test CRC 19DA2E77
Copy CRC 19DA2E77
Cannot be verified as accurate (confidence 48) [E14F89C9], AccurateRip returned [836C08C5] (AR v2)
Copy OK

Track 6

Filename C:\Users\Rob\Desktop\Uploads\Alice Cooper - The Studio Albums 1969-1983 (2015) [FLAC] (15 Disc Box Set)\1970 - Easy Action\06 - Laughing At Me.wav

Pre-gap length 0:00:01.00

Peak level 100.0 %
Extraction speed 6.7 X
Track quality 100.0 %
Test CRC B4420EE6
Copy CRC B4420EE6
Cannot be verified as accurate (confidence 47) [6F405DC4], AccurateRip returned [231BAD26] (AR v2)
Copy OK

Track 7

Filename C:\Users\Rob\Desktop\Uploads\Alice Cooper - The Studio Albums 1969-1983 (2015) [FLAC] (15 Disc Box Set)\1970 - Easy Action\07 - Refrigerator Heaven.wav

Pre-gap length 0:00:02.00

Peak level 100.0 %
Extraction speed 6.7 X
Track quality 100.0 %
Test CRC F2D71575
Copy CRC F2D71575
Cannot be verified as accurate (confidence 47) [A31F3D02], AccurateRip returned [8CF579ED] (AR v2)
Copy OK

Track 8

Filename C:\Users\Rob\Desktop\Uploads\Alice Cooper - The Studio Albums 1969-1983 (2015) [FLAC] (15 Disc Box Set)\1970 - Easy Action\08 - Beautiful Flyaway.wav

Pre-gap length 0:00:02.00

Peak level 100.0 %
Extraction speed 6.0 X
Track quality 99.9 %
Test CRC 2BBC06E5
Copy CRC 2BBC06E5
Cannot be verified as accurate (confidence 47) [6E72BD2D], AccurateRip returned [ECAE9E10] (AR v2)
Copy OK

Track 9

Filename C:\Users\Rob\Desktop\Uploads\Alice Cooper - The Studio Albums 1969-1983 (2015) [FLAC] (15 Disc Box Set)\1970 - Easy Action\09 - Lay Down And Die, Goodbye.wav

Peak level 100.0 %
Extraction speed 9.0 X
Track quality 100.0 %
Test CRC DAC55801
Copy CRC DAC55801
Cannot be verified as accurate (confidence 45) [B4095155], AccurateRip returned [D2E1A0CA] (AR v2)
Copy OK


No tracks could be verified as accurate
You may have a different pressing from the one(s) in the database

No errors occurred

End of status report

==== Log checksum CD42E1BE50791552FD65E3EB881F2A682C1941367868CC5757360E5A42827614 ====

––-

Exact Audio Copy V1.0 beta 3 from 29. August 2011

EAC extraction logfile from 20. August 2015, 19:25

Alice Cooper / Killer

Used drive : ATAPI iHBS212 2 Adapter: 3 ID: 0

Read mode : Secure
Utilize accurate stream : Yes
Defeat audio cache : Yes
Make use of C2 pointers : No

Read offset correction : 6
Overread into Lead-In and Lead-Out : No
Fill up missing offset samples with silence : Yes
Delete leading and trailing silent blocks : No
Null samples used in CRC calculations : Yes
Used interface : Native Win32 interface for Win NT & 2000
Gap handling : Appended to previous track

Used output format : User Defined Encoder
Selected bitrate : 128 kBit/s
Quality : High
Add ID3 tag : No
Command line compressor : C:\Program Files (x86)\Exact Audio Copy\Flac\flac.exe
Additional command line options : -8 -V -T "ARTIST=%artist%" -T "TITLE=%title%" -T "ALBUM=%albumtitle%" -T "DATE=%year%" -T "TRACKNUMBER=%tracknr%" -T "TOTALTRACKS=%numtracks%" -T "GENRE=%genre%" -T "ALBUMARTIST=%albumartist%" -T "ALBUM ARTIST=%albumartist%" -T "COMMENT=EAC Secure Mode, Test & Copy, AccurateRip, FLAC -8" %source%


TOC of the extracted CD

Track | Start | Length | Start sector | End sector
––––––––––––––––––––––––––––-
1 | 0:00.00 | 2:51.65 | 0 | 12889
2 | 2:51.65 | 3:21.00 | 12890 | 27964
3 | 6:12.65 | 8:22.15 | 27965 | 65629
4 | 14:35.05 | 3:30.05 | 65630 | 81384
5 | 18:05.10 | 2:27.72 | 81385 | 92481
6 | 20:33.07 | 3:39.33 | 92482 | 108939
7 | 24:12.40 | 5:45.10 | 108940 | 134824
8 | 29:57.50 | 6:58.02 | 134825 | 166176


Track 1

Filename C:\Users\Rob\Desktop\Uploads\Alice Cooper - The Studio Albums 1969-1983 (2015) [FLAC] (15 Disc Box Set)\1971 - Killer\01 - Under My Wheels.wav

Pre-gap length 0:00:02.00

Peak level 76.4 %
Extraction speed 4.8 X
Track quality 100.0 %
Test CRC 9C58FA34
Copy CRC 9C58FA34
Cannot be verified as accurate (confidence 37) [2A140959], AccurateRip returned [36300B56] (AR v2)
Copy OK

Track 2

Filename C:\Users\Rob\Desktop\Uploads\Alice Cooper - The Studio Albums 1969-1983 (2015) [FLAC] (15 Disc Box Set)\1971 - Killer\02 - Be My Lover.wav

Pre-gap length 0:00:04.23

Peak level 60.1 %
Extraction speed 5.3 X
Track quality 100.0 %
Test CRC F79505EF
Copy CRC F79505EF
Cannot be verified as accurate (confidence 37) [EA94214D], AccurateRip returned [E773A6B7] (AR v2)
Copy OK

Track 3

Filename C:\Users\Rob\Desktop\Uploads\Alice Cooper - The Studio Albums 1969-1983 (2015) [FLAC] (15 Disc Box Set)\1971 - Killer\03 - Halo Of Flies.wav

Pre-gap length 0:00:02.58

Peak level 79.1 %
Extraction speed 6.7 X
Track quality 100.0 %
Test CRC 7C317EE1
Copy CRC 7C317EE1
Cannot be verified as accurate (confidence 37) [8B84B805], AccurateRip returned [F5D9A4B9] (AR v2)
Copy OK

Track 4

Filename C:\Users\Rob\Desktop\Uploads\Alice Cooper - The Studio Albums 1969-1983 (2015) [FLAC] (15 Disc Box Set)\1971 - Killer\04 - Desperado.wav

Pre-gap length 0:00:04.10

Peak level 60.1 %
Extraction speed 6.8 X
Track quality 100.0 %
Test CRC 13FBDA9E
Copy CRC 13FBDA9E
Cannot be verified as accurate (confidence 37) [163131F0], AccurateRip returned [674CB58B] (AR v2)
Copy OK

Track 5

Filename C:\Users\Rob\Desktop\Uploads\Alice Cooper - The Studio Albums 1969-1983 (2015) [FLAC] (15 Disc Box Set)\1971 - Killer\05 - You Drive Me Nervous.wav

Pre-gap length 0:00:02.70

Peak level 70.5 %
Extraction speed 6.7 X
Track quality 100.0 %
Test CRC A42244D8
Copy CRC A42244D8
Cannot be verified as accurate (confidence 37) [BE955727], AccurateRip returned [35EDFC11] (AR v2)
Copy OK

Track 6

Filename C:\Users\Rob\Desktop\Uploads\Alice Cooper - The Studio Albums 1969-1983 (2015) [FLAC] (15 Disc Box Set)\1971 - Killer\06 - Yeah, Yeah, Yeah.wav

Pre-gap length 0:00:03.35

Peak level 52.6 %
Extraction speed 6.1 X
Track quality 99.9 %
Test CRC 8605A3B2
Copy CRC 8605A3B2
Cannot be verified as accurate (confidence 37) [A46CDDC1], AccurateRip returned [AA57272C] (AR v2)
Copy OK

Track 7

Filename C:\Users\Rob\Desktop\Uploads\Alice Cooper - The Studio Albums 1969-1983 (2015) [FLAC] (15 Disc Box Set)\1971 - Killer\07 - Dead Babies.wav

Pre-gap length 0:00:05.05

Peak level 70.6 %
Extraction speed 8.4 X
Track quality 100.0 %
Test CRC 1A9032A3
Copy CRC 1A9032A3
Cannot be verified as accurate (confidence 37) [48036089], AccurateRip returned [856C08DD] (AR v2)
Copy OK

Track 8

Filename C:\Users\Rob\Desktop\Uploads\Alice Cooper - The Studio Albums 1969-1983 (2015) [FLAC] (15 Disc Box Set)\1971 - Killer\08 - Killer.wav

Peak level 59.9 %
Extraction speed 8.1 X
Track quality 99.9 %
Test CRC C68C0C87
Copy CRC C68C0C87
Cannot be verified as accurate (confidence 36) [452B231C], AccurateRip returned [739915CB] (AR v2)
Copy OK


No tracks could be verified as accurate
You may have a different pressing from the one(s) in the database

No errors occurred

End of status report

==== Log checksum 4D87FBAAF93DAF4C305238E97B225015A9D64F1619981247E9F492BA3146D975 ====

––-

Exact Audio Copy V1.0 beta 3 from 29. August 2011

EAC extraction logfile from 20. August 2015, 19:03

Alice Cooper / Love It To Death

Used drive : ATAPI iHBS212 2 Adapter: 3 ID: 0

Read mode : Secure
Utilize accurate stream : Yes
Defeat audio cache : Yes
Make use of C2 pointers : No

Read offset correction : 6
Overread into Lead-In and Lead-Out : No
Fill up missing offset samples with silence : Yes
Delete leading and trailing silent blocks : No
Null samples used in CRC calculations : Yes
Used interface : Native Win32 interface for Win NT & 2000
Gap handling : Appended to previous track

Used output format : User Defined Encoder
Selected bitrate : 128 kBit/s
Quality : High
Add ID3 tag : No
Command line compressor : C:\Program Files (x86)\Exact Audio Copy\Flac\flac.exe
Additional command line options : -8 -V -T "ARTIST=%artist%" -T "TITLE=%title%" -T "ALBUM=%albumtitle%" -T "DATE=%year%" -T "TRACKNUMBER=%tracknr%" -T "TOTALTRACKS=%numtracks%" -T "GENRE=%genre%" -T "ALBUMARTIST=%albumartist%" -T "ALBUM ARTIST=%albumartist%" -T "COMMENT=EAC Secure Mode, Test & Copy, AccurateRip, FLAC -8" %source%


TOC of the extracted CD

Track | Start | Length | Start sector | End sector
––––––––––––––––––––––––––––-
1 | 0:00.00 | 3:10.47 | 0 | 14296
2 | 3:10.47 | 3:00.58 | 14297 | 27854
3 | 6:11.30 | 3:04.37 | 27855 | 41691
4 | 9:15.67 | 9:11.48 | 41692 | 83064
5 | 18:27.40 | 2:39.47 | 83065 | 95036
6 | 21:07.12 | 2:29.45 | 95037 | 106256
7 | 23:36.57 | 3:04.43 | 106257 | 120099
8 | 26:41.25 | 6:33.35 | 120100 | 149609
9 | 33:14.60 | 3:50.15 | 149610 | 166874


Track 1

Filename C:\Users\Rob\Desktop\Uploads\Alice Cooper - The Studio Albums 1969-1983 (2015) [FLAC] (15 Disc Box Set)\1971 - Love It To Death\01 - Caught In A Dream.wav

Pre-gap length 0:00:02.00

Peak level 79.6 %
Extraction speed 4.9 X
Track quality 100.0 %
Test CRC 4037700C
Copy CRC 4037700C
Cannot be verified as accurate (confidence 37) [39DAD717], AccurateRip returned [2126C16A] (AR v2)
Copy OK

Track 2

Filename C:\Users\Rob\Desktop\Uploads\Alice Cooper - The Studio Albums 1969-1983 (2015) [FLAC] (15 Disc Box Set)\1971 - Love It To Death\02 - I'm Eighteen.wav

Pre-gap length 0:00:06.00

Peak level 74.5 %
Extraction speed 5.3 X
Track quality 100.0 %
Test CRC 6C9A7424
Copy CRC 6C9A7424
Cannot be verified as accurate (confidence 37) [68374399], AccurateRip returned [DEDEDAFC] (AR v2)
Copy OK

Track 3

Filename C:\Users\Rob\Desktop\Uploads\Alice Cooper - The Studio Albums 1969-1983 (2015) [FLAC] (15 Disc Box Set)\1971 - Love It To Death\03 - Long Way To Go.wav

Pre-gap length 0:00:03.70

Peak level 91.3 %
Extraction speed 5.7 X
Track quality 100.0 %
Test CRC CB23DF37
Copy CRC CB23DF37
Cannot be verified as accurate (confidence 37) [5E296A74], AccurateRip returned [C88F87CF] (AR v2)
Copy OK

Track 4

Filename C:\Users\Rob\Desktop\Uploads\Alice Cooper - The Studio Albums 1969-1983 (2015) [FLAC] (15 Disc Box Set)\1971 - Love It To Death\04 - Black Juju.wav

Pre-gap length 0:00:01.12

Peak level 96.8 %
Extraction speed 7.2 X
Track quality 100.0 %
Test CRC 81448264
Copy CRC 81448264
Cannot be verified as accurate (confidence 37) [D425ADD0], AccurateRip returned [83607448] (AR v2)
Copy OK

Track 5

Filename C:\Users\Rob\Desktop\Uploads\Alice Cooper - The Studio Albums 1969-1983 (2015) [FLAC] (15 Disc Box Set)\1971 - Love It To Death\05 - Is It My Body.wav

Pre-gap length 0:00:03.10

Peak level 97.7 %
Extraction speed 6.9 X
Track quality 100.0 %
Test CRC 0BC75E88
Copy CRC 0BC75E88
Cannot be verified as accurate (confidence 37) [A63C1BE5], AccurateRip returned [AA129346] (AR v2)
Copy OK

Track 6

Filename C:\Users\Rob\Desktop\Uploads\Alice Cooper - The Studio Albums 1969-1983 (2015) [FLAC] (15 Disc Box Set)\1971 - Love It To Death\06 - Hallowed Be My Name.wav

Pre-gap length 0:00:00.55

Peak level 98.0 %
Extraction speed 7.0 X
Track quality 100.0 %
Test CRC 3C7F9169
Copy CRC 3C7F9169
Cannot be verified as accurate (confidence 37) [DCDE2F99], AccurateRip returned [C5826DC7] (AR v2)
Copy OK

Track 7

Filename C:\Users\Rob\Desktop\Uploads\Alice Cooper - The Studio Albums 1969-1983 (2015) [FLAC] (15 Disc Box Set)\1971 - Love It To Death\07 - Second Coming.wav

Pre-gap length 0:00:01.40

Peak level 85.6 %
Extraction speed 6.0 X
Track quality 99.9 %
Test CRC 12548E10
Copy CRC 12548E10
Cannot be verified as accurate (confidence 37) [9FD36D87], AccurateRip returned [95532A1D] (AR v2)
Copy OK

Track 8

Filename C:\Users\Rob\Desktop\Uploads\Alice Cooper - The Studio Albums 1969-1983 (2015) [FLAC] (15 Disc Box Set)\1971 - Love It To Death\08 - Ballad Of Dwight Fry.wav

Peak level 95.1 %
Extraction speed 8.8 X
Track quality 100.0 %
Test CRC 55925C6B
Copy CRC 55925C6B
Cannot be verified as accurate (confidence 37) [C59581BE], AccurateRip returned [B6502BBF] (AR v2)
Copy OK

Track 9

Filename C:\Users\Rob\Desktop\Uploads\Alice Cooper - The Studio Albums 1969-1983 (2015) [FLAC] (15 Disc Box Set)\1971 - Love It To Death\09 - Sun Arise.wav

Peak level 84.8 %
Extraction speed 8.7 X
Track quality 100.0 %
Test CRC 7D6E126A
Copy CRC 7D6E126A
Cannot be verified as accurate (confidence 36) [1E60A9F5], AccurateRip returned [C78DA58B] (AR v2)
Copy OK


No tracks could be verified as accurate
You may have a different pressing from the one(s) in the database

No errors occurred

End of status report

==== Log checksum B1F0B18728010D7F08B63D55490EAB9BE44F75DDF09956D536D4903E53AF132F ====

––-

Exact Audio Copy V1.0 beta 3 from 29. August 2011

EAC extraction logfile from 20. August 2015, 22:56

Alice Cooper / School's Out

Used drive : ATAPI iHBS212 2 Adapter: 3 ID: 0

Read mode : Secure
Utilize accurate stream : Yes
Defeat audio cache : Yes
Make use of C2 pointers : No

Read offset correction : 6
Overread into Lead-In and Lead-Out : No
Fill up missing offset samples with silence : Yes
Delete leading and trailing silent blocks : No
Null samples used in CRC calculations : Yes
Used interface : Native Win32 interface for Win NT & 2000
Gap handling : Appended to previous track

Used output format : User Defined Encoder
Selected bitrate : 128 kBit/s
Quality : High
Add ID3 tag : No
Command line compressor : C:\Program Files (x86)\Exact Audio Copy\Flac\flac.exe
Additional command line options : -8 -V -T "ARTIST=%artist%" -T "TITLE=%title%" -T "ALBUM=%albumtitle%" -T "DATE=%year%" -T "TRACKNUMBER=%tracknr%" -T "TOTALTRACKS=%numtracks%" -T "GENRE=%genre%" -T "ALBUMARTIST=%albumartist%" -T "ALBUM ARTIST=%albumartist%" -T "COMMENT=EAC Secure Mode, Test & Copy, AccurateRip, FLAC -8" %source%


TOC of the extracted CD

Track | Start | Length | Start sector | End sector
––––––––––––––––––––––––––––-
1 | 0:00.00 | 3:30.37 | 0 | 15786
2 | 3:30.37 | 3:43.43 | 15787 | 32554
3 | 7:14.05 | 4:40.12 | 32555 | 53566
4 | 11:54.17 | 0:53.70 | 53567 | 57611
5 | 12:48.12 | 5:33.60 | 57612 | 82646
6 | 18:21.72 | 5:49.30 | 82647 | 108851
7 | 24:11.27 | 3:54.65 | 108852 | 126466
8 | 28:06.17 | 4:26.70 | 126467 | 146486
9 | 32:33.12 | 4:25.10 | 146487 | 166371


Track 1

Filename C:\Users\Rob\Desktop\Uploads\Alice Cooper - The Studio Albums 1969-1983 (2015) [FLAC] (15 Disc Box Set)\1972 - School's Out\01 - School's Out.wav

Pre-gap length 0:00:02.00

Peak level 99.1 %
Extraction speed 4.1 X
Track quality 99.9 %
Test CRC 4A8F857D
Copy CRC 4A8F857D
Cannot be verified as accurate (confidence 49) [DE558EFE], AccurateRip returned [0AEF2D23] (AR v2)
Copy OK

Track 2

Filename C:\Users\Rob\Desktop\Uploads\Alice Cooper - The Studio Albums 1969-1983 (2015) [FLAC] (15 Disc Box Set)\1972 - School's Out\02 - Luney Tune.wav

Pre-gap length 0:00:02.67

Peak level 71.8 %
Extraction speed 5.6 X
Track quality 100.0 %
Test CRC FF8E741B
Copy CRC FF8E741B
Cannot be verified as accurate (confidence 49) [9BECC9E5], AccurateRip returned [34B01108] (AR v2)
Copy OK

Track 3

Filename C:\Users\Rob\Desktop\Uploads\Alice Cooper - The Studio Albums 1969-1983 (2015) [FLAC] (15 Disc Box Set)\1972 - School's Out\03 - Gutter Cat Vs. The Jets.wav

Pre-gap length 0:00:04.48

Peak level 87.7 %
Extraction speed 5.3 X
Track quality 99.9 %
Test CRC 659A5C8E
Copy CRC 659A5C8E
Cannot be verified as accurate (confidence 49) [FBE8C8EB], AccurateRip returned [96B2EEB6] (AR v2)
Copy OK

Track 4

Filename C:\Users\Rob\Desktop\Uploads\Alice Cooper - The Studio Albums 1969-1983 (2015) [FLAC] (15 Disc Box Set)\1972 - School's Out\04 - Street Fight.wav

Peak level 82.2 %
Extraction speed 4.4 X
Track quality 100.0 %
Test CRC AE1FE80C
Copy CRC AE1FE80C
Cannot be verified as accurate (confidence 49) [B45BE971], AccurateRip returned [EB316F6A] (AR v2)
Copy OK

Track 5

Filename C:\Users\Rob\Desktop\Uploads\Alice Cooper - The Studio Albums 1969-1983 (2015) [FLAC] (15 Disc Box Set)\1972 - School's Out\05 - Blue Turk.wav

Peak level 85.6 %
Extraction speed 7.1 X
Track quality 100.0 %
Test CRC 80EB1107
Copy CRC 80EB1107
Cannot be verified as accurate (confidence 49) [0B67AA88], AccurateRip returned [290CFD39] (AR v2)
Copy OK

Track 6

Filename C:\Users\Rob\Desktop\Uploads\Alice Cooper - The Studio Albums 1969-1983 (2015) [FLAC] (15 Disc Box Set)\1972 - School's Out\06 - My Stars.wav

Pre-gap length 0:00:03.15

Peak level 76.6 %
Extraction speed 7.8 X
Track quality 100.0 %
Test CRC F0C6B271
Copy CRC F0C6B271
Cannot be verified as accurate (confidence 49) [77CE5201], AccurateRip returned [C50F7081] (AR v2)
Copy OK

Track 7

Filename C:\Users\Rob\Desktop\Uploads\Alice Cooper - The Studio Albums 1969-1983 (2015) [FLAC] (15 Disc Box Set)\1972 - School's Out\07 - Public Animal #9.wav

Pre-gap length 0:00:03.07

Peak level 85.4 %
Extraction speed 8.0 X
Track quality 100.0 %
Test CRC EEE6FED8
Copy CRC EEE6FED8
Cannot be verified as accurate (confidence 49) [C980EA65], AccurateRip returned [61981BCD] (AR v2)
Copy OK

Track 8

Filename C:\Users\Rob\Desktop\Uploads\Alice Cooper - The Studio Albums 1969-1983 (2015) [FLAC] (15 Disc Box Set)\1972 - School's Out\08 - Alma Mater.wav

Pre-gap length 0:00:04.27

Peak level 89.2 %
Extraction speed 7.1 X
Track quality 99.9 %
Test CRC 3B8FFA17
Copy CRC 3B8FFA17
Cannot be verified as accurate (confidence 47) [E9D38471], AccurateRip returned [FF36B795] (AR v2)
Copy OK

Track 9

Filename C:\Users\Rob\Desktop\Uploads\Alice Cooper - The Studio Albums 1969-1983 (2015) [FLAC] (15 Disc Box Set)\1972 - School's Out\09 - Grande Finale.wav

Peak level 80.8 %
Extraction speed 8.9 X
Track quality 100.0 %
Test CRC 6846B074
Copy CRC 6846B074
Cannot be verified as accurate (confidence 47) [69379B58], AccurateRip returned [5A17444A] (AR v2)
Copy OK


No tracks could be verified as accurate
You may have a different pressing from the one(s) in the database

No errors occurred

End of status report

==== Log checksum 2E49619243962B5B74B273F761FC7089CAECEB879FC37B26C2A5C309038A7597 ====

––-

Exact Audio Copy V1.0 beta 3 from 29. August 2011

EAC extraction logfile from 20. August 2015, 23:12

Alice Cooper / Billion Dollar Babies

Used drive : ATAPI iHBS212 2 Adapter: 3 ID: 0

Read mode : Secure
Utilize accurate stream : Yes
Defeat audio cache : Yes
Make use of C2 pointers : No

Read offset correction : 6
Overread into Lead-In and Lead-Out : No
Fill up missing offset samples with silence : Yes
Delete leading and trailing silent blocks : No
Null samples used in CRC calculations : Yes
Used interface : Native Win32 interface for Win NT & 2000
Gap handling : Appended to previous track

Used output format : User Defined Encoder
Selected bitrate : 128 kBit/s
Quality : High
Add ID3 tag : No
Command line compressor : C:\Program Files (x86)\Exact Audio Copy\Flac\flac.exe
Additional command line options : -8 -V -T "ARTIST=%artist%" -T "TITLE=%title%" -T "ALBUM=%albumtitle%" -T "DATE=%year%" -T "TRACKNUMBER=%tracknr%" -T "TOTALTRACKS=%numtracks%" -T "GENRE=%genre%" -T "ALBUMARTIST=%albumartist%" -T "ALBUM ARTIST=%albumartist%" -T "COMMENT=EAC Secure Mode, Test & Copy, AccurateRip, FLAC -8" %source%


TOC of the extracted CD

Track | Start | Length | Start sector | End sector
––––––––––––––––––––––––––––-
1 | 0:00.00 | 4:16.28 | 0 | 19227
2 | 4:16.28 | 3:19.52 | 19228 | 34204
3 | 7:36.05 | 4:05.55 | 34205 | 52634
4 | 11:41.60 | 3:42.73 | 52635 | 69357
5 | 15:24.58 | 6:18.37 | 69358 | 97744
6 | 21:43.20 | 3:06.60 | 97745 | 111754
7 | 24:50.05 | 4:31.23 | 111755 | 132102
8 | 29:21.28 | 4:18.22 | 132103 | 151474
9 | 33:39.50 | 2:21.08 | 151475 | 162057
10 | 36:00.58 | 5:08.07 | 162058 | 185164


Track 1

Filename C:\Users\Rob\Desktop\Uploads\Alice Cooper - The Studio Albums 1969-1983 (2015) [FLAC] (15 Disc Box Set)\1973 - Billion Dollar Babies\01 - Hello Hooray.wav

Pre-gap length 0:00:02.00

Peak level 77.9 %
Extraction speed 5.2 X
Track quality 100.0 %
Test CRC 8CD455C2
Copy CRC 8CD455C2
Cannot be verified as accurate (confidence 46) [EB554A0F], AccurateRip returned [2E0492AE] (AR v2)
Copy OK

Track 2

Filename C:\Users\Rob\Desktop\Uploads\Alice Cooper - The Studio Albums 1969-1983 (2015) [FLAC] (15 Disc Box Set)\1973 - Billion Dollar Babies\02 - Raped And Freezin'.wav

Peak level 89.0 %
Extraction speed 5.5 X
Track quality 100.0 %
Test CRC BF00BBE7
Copy CRC BF00BBE7
Cannot be verified as accurate (confidence 44) [75605FEF], AccurateRip returned [326E5CB1] (AR v2)
Copy OK

Track 3

Filename C:\Users\Rob\Desktop\Uploads\Alice Cooper - The Studio Albums 1969-1983 (2015) [FLAC] (15 Disc Box Set)\1973 - Billion Dollar Babies\03 - Elected.wav

Pre-gap length 0:00:02.70

Peak level 81.8 %
Extraction speed 6.2 X
Track quality 100.0 %
Test CRC 2284334C
Copy CRC 2284334C
Cannot be verified as accurate (confidence 43) [B0222907], AccurateRip returned [E25B00A5] (AR v2)
Copy OK

Track 4

Filename C:\Users\Rob\Desktop\Uploads\Alice Cooper - The Studio Albums 1969-1983 (2015) [FLAC] (15 Disc Box Set)\1973 - Billion Dollar Babies\04 - Billion Dollar Babies.wav

Peak level 87.9 %
Extraction speed 6.6 X
Track quality 100.0 %
Test CRC F863DEEA
Copy CRC F863DEEA
Cannot be verified as accurate (confidence 44) [AB8B1BF0], AccurateRip returned [655D368D] (AR v2)
Copy OK

Track 5

Filename C:\Users\Rob\Desktop\Uploads\Alice Cooper - The Studio Albums 1969-1983 (2015) [FLAC] (15 Disc Box Set)\1973 - Billion Dollar Babies\05 - Unfinished Sweet.wav

Pre-gap length 0:00:03.28

Peak level 87.1 %
Extraction speed 6.7 X
Track quality 99.9 %
Test CRC 9E32529A
Copy CRC 9E32529A
Cannot be verified as accurate (confidence 44) [C0CD4FD7], AccurateRip returned [E209A966] (AR v2)
Copy OK

Track 6

Filename C:\Users\Rob\Desktop\Uploads\Alice Cooper - The Studio Albums 1969-1983 (2015) [FLAC] (15 Disc Box Set)\1973 - Billion Dollar Babies\06 - No More Mr. Nice Guy.wav

Pre-gap length 0:00:01.22

Peak level 84.5 %
Extraction speed 7.4 X
Track quality 100.0 %
Test CRC 08DDA6BC
Copy CRC 08DDA6BC
Cannot be verified as accurate (confidence 44) [C9804D8D], AccurateRip returned [8B6C2861] (AR v2)
Copy OK

Track 7

Filename C:\Users\Rob\Desktop\Uploads\Alice Cooper - The Studio Albums 1969-1983 (2015) [FLAC] (15 Disc Box Set)\1973 - Billion Dollar Babies\07 - Generation Landslide.wav

Pre-gap length 0:00:00.67

Peak level 100.0 %
Extraction speed 8.2 X
Track quality 100.0 %
Test CRC 4C7DADF8
Copy CRC 4C7DADF8
Cannot be verified as accurate (confidence 44) [5EFCDD8E], AccurateRip returned [C42AC3D0] (AR v2)
Copy OK

Track 8

Filename C:\Users\Rob\Desktop\Uploads\Alice Cooper - The Studio Albums 1969-1983 (2015) [FLAC] (15 Disc Box Set)\1973 - Billion Dollar Babies\08 - Sick Things.wav

Peak level 81.6 %
Extraction speed 7.2 X
Track quality 99.9 %
Test CRC 8B66EA04
Copy CRC 8B66EA04
Cannot be verified as accurate (confidence 44) [79FAB13B], AccurateRip returned [9F093017] (AR v2)
Copy OK

Track 9

Filename C:\Users\Rob\Desktop\Uploads\Alice Cooper - The Studio Albums 1969-1983 (2015) [FLAC] (15 Disc Box Set)\1973 - Billion Dollar Babies\09 - Mary Ann.wav

Peak level 65.4 %
Extraction speed 6.0 X
Track quality 99.9 %
Test CRC 5E700EC9
Copy CRC 5E700EC9
Cannot be verified as accurate (confidence 44) [A9620048], AccurateRip returned [60164A7B] (AR v2)
Copy OK

Track 10

Filename C:\Users\Rob\Desktop\Uploads\Alice Cooper - The Studio Albums 1969-1983 (2015) [FLAC] (15 Disc Box Set)\1973 - Billion Dollar Babies\10 - I Love The Dead.wav

Pre-gap length 0:00:00.53

Peak level 100.0 %
Extraction speed 7.9 X
Track quality 99.9 %
Test CRC EC0265C6
Copy CRC EC0265C6
Cannot be verified as accurate (confidence 43) [FD9925DD], AccurateRip returned [D405F0CC] (AR v2)
Copy OK


No tracks could be verified as accurate
You may have a different pressing from the one(s) in the database

No errors occurred

End of status report

==== Log checksum 9FD2B5A18894D92BD9A4B8FC2ECA0EF5A559D2656F3FBB332459EF5379795468 ====

––-

Exact Audio Copy V1.0 beta 3 from 29. August 2011

EAC extraction logfile from 20. August 2015, 23:28

Alice Cooper / Muscle Of Love

Used drive : ATAPI iHBS212 2 Adapter: 3 ID: 0

Read mode : Secure
Utilize accurate stream : Yes
Defeat audio cache : Yes
Make use of C2 pointers : No

Read offset correction : 6
Overread into Lead-In and Lead-Out : No
Fill up missing offset samples with silence : Yes
Delete leading and trailing silent blocks : No
Null samples used in CRC calculations : Yes
Used interface : Native Win32 interface for Win NT & 2000
Gap handling : Appended to previous track

Used output format : User Defined Encoder
Selected bitrate : 128 kBit/s
Quality : High
Add ID3 tag : No
Command line compressor : C:\Program Files (x86)\Exact Audio Copy\Flac\flac.exe
Additional command line options : -8 -V -T "ARTIST=%artist%" -T "TITLE=%title%" -T "ALBUM=%albumtitle%" -T "DATE=%year%" -T "TRACKNUMBER=%tracknr%" -T "TOTALTRACKS=%numtracks%" -T "GENRE=%genre%" -T "ALBUMARTIST=%albumartist%" -T "ALBUM ARTIST=%albumartist%" -T "COMMENT=EAC Secure Mode, Test & Copy, AccurateRip, FLAC -8" %source%


TOC of the extracted CD

Track | Start | Length | Start sector | End sector
––––––––––––––––––––––––––––-
1 | 0:00.00 | 5:10.35 | 0 | 23284
2 | 5:10.35 | 4:28.35 | 23285 | 43419
3 | 9:38.70 | 4:53.15 | 43420 | 65409
4 | 14:32.10 | 5:03.22 | 65410 | 88156
5 | 19:35.32 | 3:32.28 | 88157 | 104084
6 | 23:07.60 | 3:45.52 | 104085 | 121011
7 | 26:53.37 | 4:12.38 | 121012 | 139949
8 | 31:06.00 | 3:53.30 | 139950 | 157454
9 | 34:59.30 | 4:32.40 | 157455 | 177894


Track 1

Filename C:\Users\Rob\Desktop\Uploads\Alice Cooper - The Studio Albums 1969-1983 (2015) [FLAC] (15 Disc Box Set)\1973 - Muscle Of Love\01 - Big Apple Dreamin' (Hippo).wav

Pre-gap length 0:00:02.00

Peak level 100.0 %
Extraction speed 5.4 X
Track quality 100.0 %
Test CRC A04F17CB
Copy CRC A04F17CB
Cannot be verified as accurate (confidence 30) [C4280DB1], AccurateRip returned [861CC849] (AR v2)
Copy OK

Track 2

Filename C:\Users\Rob\Desktop\Uploads\Alice Cooper - The Studio Albums 1969-1983 (2015) [FLAC] (15 Disc Box Set)\1973 - Muscle Of Love\02 - Never Been Sold Before.wav

Peak level 89.5 %
Extraction speed 6.0 X
Track quality 100.0 %
Test CRC 973B6B54
Copy CRC 973B6B54
Cannot be verified as accurate (confidence 32) [3C31F897], AccurateRip returned [B34EB4EF] (AR v2)
Copy OK

Track 3

Filename C:\Users\Rob\Desktop\Uploads\Alice Cooper - The Studio Albums 1969-1983 (2015) [FLAC] (15 Disc Box Set)\1973 - Muscle Of Love\03 - Hard Hearted Alice.wav

Peak level 79.2 %
Extraction speed 6.6 X
Track quality 100.0 %
Test CRC FF34022C
Copy CRC FF34022C
Cannot be verified as accurate (confidence 31) [C73FC961], AccurateRip returned [22C4B7B5] (AR v2)
Copy OK

Track 4

Filename C:\Users\Rob\Desktop\Uploads\Alice Cooper - The Studio Albums 1969-1983 (2015) [FLAC] (15 Disc Box Set)\1973 - Muscle Of Love\04 - Crazy Little Child.wav

Pre-gap length 0:00:00.58

Peak level 90.5 %
Extraction speed 7.2 X
Track quality 100.0 %
Test CRC 95DF6E3D
Copy CRC 95DF6E3D
Cannot be verified as accurate (confidence 31) [9DC1053E], AccurateRip returned [34F8E40B] (AR v2)
Copy OK

Track 5

Filename C:\Users\Rob\Desktop\Uploads\Alice Cooper - The Studio Albums 1969-1983 (2015) [FLAC] (15 Disc Box Set)\1973 - Muscle Of Love\05 - Working Up A Sweat.wav

Pre-gap length 0:00:00.45

Peak level 88.6 %
Extraction speed 7.4 X
Track quality 100.0 %
Test CRC 1248099F
Copy CRC 1248099F
Cannot be verified as accurate (confidence 32) [F77A914C], AccurateRip returned [93CD8B84] (AR v2)
Copy OK

Track 6

Filename C:\Users\Rob\Desktop\Uploads\Alice Cooper - The Studio Albums 1969-1983 (2015) [FLAC] (15 Disc Box Set)\1973 - Muscle Of Love\06 - Muscle Of Love.wav

Peak level 95.3 %
Extraction speed 7.8 X
Track quality 100.0 %
Test CRC 8BAC3A84
Copy CRC 8BAC3A84
Cannot be verified as accurate (confidence 32) [3A882B9C], AccurateRip returned [6B9BE7FD] (AR v2)
Copy OK

Track 7

Filename C:\Users\Rob\Desktop\Uploads\Alice Cooper - The Studio Albums 1969-1983 (2015) [FLAC] (15 Disc Box Set)\1973 - Muscle Of Love\07 - Man With The Golden Gun.wav

Peak level 97.0 %
Extraction speed 8.3 X
Track quality 100.0 %
Test CRC 0AD4819A
Copy CRC 0AD4819A
Cannot be verified as accurate (confidence 31) [4E9958BB], AccurateRip returned [FB1C6486] (AR v2)
Copy OK

Track 8

Filename C:\Users\Rob\Desktop\Uploads\Alice Cooper - The Studio Albums 1969-1983 (2015) [FLAC] (15 Disc Box Set)\1973 - Muscle Of Love\08 - Teenage Lament '74.wav

Pre-gap length 0:00:00.58

Peak level 78.3 %
Extraction speed 7.0 X
Track quality 99.9 %
Test CRC 70C00280
Copy CRC 70C00280
Cannot be verified as accurate (confidence 31) [B477206A], AccurateRip returned [7361B9EB] (AR v2)
Copy OK

Track 9

Filename C:\Users\Rob\Desktop\Uploads\Alice Cooper - The Studio Albums 1969-1983 (2015) [FLAC] (15 Disc Box Set)\1973 - Muscle Of Love\09 - Woman Machine.wav

Pre-gap length 0:00:00.53

Peak level 94.2 %
Extraction speed 9.1 X
Track quality 100.0 %
Test CRC D9AD7664
Copy CRC D9AD7664
Cannot be verified as accurate (confidence 31) [BBE01541], AccurateRip returned [0129A0C0] (AR v2)
Copy OK


No tracks could be verified as accurate
You may have a different pressing from the one(s) in the database

No errors occurred

End of status report

==== Log checksum 4DE1D121CB2D074FF42A41380293E618500691AA9708DD962C63499F2FAEA3BC ====

––-

Exact Audio Copy V1.0 beta 3 from 29. August 2011

EAC extraction logfile from 21. August 2015, 0:44

Alice Cooper / Welcome To My Nightmare

Used drive : ATAPI iHBS212 2 Adapter: 3 ID: 0

Read mode : Secure
Utilize accurate stream : Yes
Defeat audio cache : Yes
Make use of C2 pointers : No

Read offset correction : 6
Overread into Lead-In and Lead-Out : No
Fill up missing offset samples with silence : Yes
Delete leading and trailing silent blocks : No
Null samples used in CRC calculations : Yes
Used interface : Native Win32 interface for Win NT & 2000
Gap handling : Appended to previous track

Used output format : User Defined Encoder
Selected bitrate : 128 kBit/s
Quality : High
Add ID3 tag : No
Command line compressor : C:\Program Files (x86)\Exact Audio Copy\Flac\flac.exe
Additional command line options : -8 -V -T "ARTIST=%artist%" -T "TITLE=%title%" -T "ALBUM=%albumtitle%" -T "DATE=%year%" -T "TRACKNUMBER=%tracknr%" -T "TOTALTRACKS=%numtracks%" -T "GENRE=%genre%" -T "ALBUMARTIST=%albumartist%" -T "ALBUM ARTIST=%albumartist%" -T "COMMENT=EAC Secure Mode, Test & Copy, AccurateRip, FLAC -8" %source%


TOC of the extracted CD

Track | Start | Length | Start sector | End sector
––––––––––––––––––––––––––––-
1 | 0:00.32 | 5:20.48 | 32 | 24079
2 | 5:21.05 | 3:35.30 | 24080 | 40234
3 | 8:56.35 | 3:37.65 | 40235 | 56574
4 | 12:34.25 | 4:18.07 | 56575 | 75931
5 | 16:52.32 | 5:49.45 | 75932 | 102151
6 | 22:42.02 | 3:20.45 | 102152 | 117196
7 | 26:02.47 | 2:57.15 | 117197 | 130486
8 | 28:59.62 | 2:51.23 | 130487 | 143334
9 | 31:51.10 | 5:46.40 | 143335 | 169324
10 | 37:37.50 | 2:30.57 | 169325 | 180631
11 | 40:08.32 | 3:15.53 | 180632 | 195309


Track 1

Filename C:\Users\Rob\Desktop\Uploads\Alice Cooper - The Studio Albums 1969-1983 (2015) [FLAC] (15 Disc Box Set)\1975 - Welcome To My Nightmare\01 - Welcome To My Nightmare.wav

Pre-gap length 0:00:02.32

Peak level 80.6 %
Extraction speed 5.5 X
Track quality 100.0 %
Test CRC 82FAA5DC
Copy CRC 82FAA5DC
Accurately ripped (confidence 4) [FA08BFB7] (AR v2)
Copy OK

Track 2

Filename C:\Users\Rob\Desktop\Uploads\Alice Cooper - The Studio Albums 1969-1983 (2015) [FLAC] (15 Disc Box Set)\1975 - Welcome To My Nightmare\02 - Devil's Food.wav

Pre-gap length 0:00:02.18

Peak level 92.7 %
Extraction speed 5.8 X
Track quality 100.0 %
Test CRC 5660B0C9
Copy CRC 5660B0C9
Accurately ripped (confidence 3) [9BC89419] (AR v2)
Copy OK

Track 3

Filename C:\Users\Rob\Desktop\Uploads\Alice Cooper - The Studio Albums 1969-1983 (2015) [FLAC] (15 Disc Box Set)\1975 - Welcome To My Nightmare\03 - The Black Widow.wav

Peak level 89.7 %
Extraction speed 6.4 X
Track quality 100.0 %
Test CRC D44F57FD
Copy CRC D44F57FD
Accurately ripped (confidence 3) [11E7379F] (AR v2)
Copy OK

Track 4

Filename C:\Users\Rob\Desktop\Uploads\Alice Cooper - The Studio Albums 1969-1983 (2015) [FLAC] (15 Disc Box Set)\1975 - Welcome To My Nightmare\04 - Some Folks.wav

Pre-gap length 0:00:01.13

Peak level 93.6 %
Extraction speed 7.0 X
Track quality 100.0 %
Test CRC A83F9484
Copy CRC A83F9484
Accurately ripped (confidence 4) [8C8E2F43] (AR v2)
Copy OK

Track 5

Filename C:\Users\Rob\Desktop\Uploads\Alice Cooper - The Studio Albums 1969-1983 (2015) [FLAC] (15 Disc Box Set)\1975 - Welcome To My Nightmare\05 - Only Women Bleed.wav

Pre-gap length 0:00:02.70

Peak level 76.4 %
Extraction speed 6.8 X
Track quality 99.9 %
Test CRC 7334BF8B
Copy CRC 7334BF8B
Accurately ripped (confidence 4) [E3C51ED5] (AR v2)
Copy OK

Track 6

Filename C:\Users\Rob\Desktop\Uploads\Alice Cooper - The Studio Albums 1969-1983 (2015) [FLAC] (15 Disc Box Set)\1975 - Welcome To My Nightmare\06 - Department Of Youth.wav

Pre-gap length 0:00:03.27

Peak level 71.7 %
Extraction speed 7.7 X
Track quality 100.0 %
Test CRC C57F6896
Copy CRC C57F6896
Accurately ripped (confidence 4) [56312CF4] (AR v2)
Copy OK

Track 7

Filename C:\Users\Rob\Desktop\Uploads\Alice Cooper - The Studio Albums 1969-1983 (2015) [FLAC] (15 Disc Box Set)\1975 - Welcome To My Nightmare\07 - Cold Ethyl.wav

Peak level 77.9 %
Extraction speed 7.9 X
Track quality 100.0 %
Test CRC 7EA374D3
Copy CRC 7EA374D3
Accurately ripped (confidence 4) [DAB6A653] (AR v2)
Copy OK

Track 8

Filename C:\Users\Rob\Desktop\Uploads\Alice Cooper - The Studio Albums 1969-1983 (2015) [FLAC] (15 Disc Box Set)\1975 - Welcome To My Nightmare\08 - Years Ago.wav

Pre-gap length 0:00:03.72

Peak level 75.5 %
Extraction speed 6.3 X
Track quality 99.9 %
Test CRC 4CBE13DA
Copy CRC 4CBE13DA
Accurately ripped (confidence 4) [B72B4100] (AR v2)
Copy OK

Track 9

Filename C:\Users\Rob\Desktop\Uploads\Alice Cooper - The Studio Albums 1969-1983 (2015) [FLAC] (15 Disc Box Set)\1975 - Welcome To My Nightmare\09 - Steven.wav

Peak level 77.0 %
Extraction speed 9.1 X
Track quality 100.0 %
Test CRC E740B0DC
Copy CRC E740B0DC
Accurately ripped (confidence 4) [4ECF5450] (AR v2)
Copy OK

Track 10

Filename C:\Users\Rob\Desktop\Uploads\Alice Cooper - The Studio Albums 1969-1983 (2015) [FLAC] (15 Disc Box Set)\1975 - Welcome To My Nightmare\10 - The Awakening.wav

Peak level 77.1 %
Extraction speed 8.5 X
Track quality 100.0 %
Test CRC A6DA6DA2
Copy CRC A6DA6DA2
Accurately ripped (confidence 4) [FF45CF8E] (AR v2)
Copy OK

Track 11

Filename C:\Users\Rob\Desktop\Uploads\Alice Cooper - The Studio Albums 1969-1983 (2015) [FLAC] (15 Disc Box Set)\1975 - Welcome To My Nightmare\11 - Escape.wav

Pre-gap length 0:00:03.50

Peak level 98.0 %
Extraction speed 9.0 X
Track quality 100.0 %
Test CRC 6A04382C
Copy CRC 6A04382C
Accurately ripped (confidence 4) [FABEFDDF] (AR v2)
Copy OK


All tracks accurately ripped

No errors occurred

End of status report

==== Log checksum E81E7B3F0EA291422C9F8AFA0B9FA8AC87FDDEA638C57A2B4AEDD73CB2C0200D ====

––-

Exact Audio Copy V1.0 beta 3 from 29. August 2011

EAC extraction logfile from 21. August 2015, 11:53

Alice Cooper / Alice Cooper Goes To Hell

Used drive : ATAPI iHBS212 2 Adapter: 3 ID: 0

Read mode : Secure
Utilize accurate stream : Yes
Defeat audio cache : Yes
Make use of C2 pointers : No

Read offset correction : 6
Overread into Lead-In and Lead-Out : No
Fill up missing offset samples with silence : Yes
Delete leading and trailing silent blocks : No
Null samples used in CRC calculations : Yes
Used interface : Native Win32 interface for Win NT & 2000
Gap handling : Appended to previous track

Used output format : User Defined Encoder
Selected bitrate : 128 kBit/s
Quality : High
Add ID3 tag : No
Command line compressor : C:\Program Files (x86)\Exact Audio Copy\Flac\flac.exe
Additional command line options : -8 -V -T "ARTIST=%artist%" -T "TITLE=%title%" -T "ALBUM=%albumtitle%" -T "DATE=%year%" -T "TRACKNUMBER=%tracknr%" -T "TOTALTRACKS=%numtracks%" -T "GENRE=%genre%" -T "ALBUMARTIST=%albumartist%" -T "ALBUM ARTIST=%albumartist%" -T "COMMENT=EAC Secure Mode, Test & Copy, AccurateRip, FLAC -8" %source%


TOC of the extracted CD

Track | Start | Length | Start sector | End sector
––––––––––––––––––––––––––––-
1 | 0:00.00 | 5:16.40 | 0 | 23739
2 | 5:16.40 | 2:44.72 | 23740 | 36111
3 | 8:01.37 | 3:58.00 | 36112 | 53961
4 | 11:59.37 | 4:16.20 | 53962 | 73181
5 | 16:15.57 | 3:44.55 | 73182 | 90036
6 | 20:00.37 | 4:14.60 | 90037 | 109146
7 | 24:15.22 | 3:22.30 | 109147 | 124326
8 | 27:37.52 | 5:03.50 | 124327 | 147101
9 | 32:41.27 | 4:36.28 | 147102 | 167829
10 | 37:17.55 | 2:08.30 | 167830 | 177459
11 | 39:26.10 | 3:47.57 | 177460 | 194541


Track 1

Filename C:\Users\Rob\Desktop\Uploads\Alice Cooper - The Studio Albums 1969-1983 (2015) [FLAC] (15 Disc Box Set)\1976 - Alice Cooper Goes To Hell\01 - Go To Hell.wav

Pre-gap length 0:00:02.00

Peak level 100.0 %
Extraction speed 5.4 X
Track quality 100.0 %
Test CRC 8F269F0E
Copy CRC 8F269F0E
Cannot be verified as accurate (confidence 9) [4AF6C5BE], AccurateRip returned [95BA29C7] (AR v2)
Copy OK

Track 2

Filename C:\Users\Rob\Desktop\Uploads\Alice Cooper - The Studio Albums 1969-1983 (2015) [FLAC] (15 Disc Box Set)\1976 - Alice Cooper Goes To Hell\02 - You Gotta Dance.wav

Pre-gap length 0:00:02.28

Peak level 100.0 %
Extraction speed 5.5 X
Track quality 100.0 %
Test CRC 81025FC2
Copy CRC 81025FC2
Cannot be verified as accurate (confidence 9) [90F376AE], AccurateRip returned [8C5E3FEF] (AR v2)
Copy OK

Track 3

Filename C:\Users\Rob\Desktop\Uploads\Alice Cooper - The Studio Albums 1969-1983 (2015) [FLAC] (15 Disc Box Set)\1976 - Alice Cooper Goes To Hell\03 - I'm The Coolest.wav

Pre-gap length 0:00:00.10

Peak level 100.0 %
Extraction speed 6.2 X
Track quality 100.0 %
Test CRC F39BA5EC
Copy CRC F39BA5EC
Cannot be verified as accurate (confidence 9) [8522BF54], AccurateRip returned [4BFCB049] (AR v2)
Copy OK

Track 4

Filename C:\Users\Rob\Desktop\Uploads\Alice Cooper - The Studio Albums 1969-1983 (2015) [FLAC] (15 Disc Box Set)\1976 - Alice Cooper Goes To Hell\04 - Didn't We Meet.wav

Pre-gap length 0:00:00.67

Peak level 99.1 %
Extraction speed 5.7 X
Track quality 99.9 %
Test CRC D0522CE8
Copy CRC D0522CE8
Cannot be verified as accurate (confidence 9) [72CAA5AB], AccurateRip returned [C73B95CC] (AR v2)
Copy OK

Track 5

Filename C:\Users\Rob\Desktop\Uploads\Alice Cooper - The Studio Albums 1969-1983 (2015) [FLAC] (15 Disc Box Set)\1976 - Alice Cooper Goes To Hell\05 - I Never Cry.wav

Pre-gap length 0:00:00.70

Peak level 83.6 %
Extraction speed 5.8 X
Track quality 99.9 %
Test CRC BE81CABF
Copy CRC BE81CABF
Cannot be verified as accurate (confidence 9) [62161602], AccurateRip returned [12642BB2] (AR v2)
Copy OK

Track 6

Filename C:\Users\Rob\Desktop\Uploads\Alice Cooper - The Studio Albums 1969-1983 (2015) [FLAC] (15 Disc Box Set)\1976 - Alice Cooper Goes To Hell\06 - Give The Kid A Break.wav

Pre-gap length 0:00:02.35

Peak level 88.0 %
Extraction speed 7.6 X
Track quality 100.0 %
Test CRC 821D1089
Copy CRC 821D1089
Cannot be verified as accurate (confidence 9) [86B45970], AccurateRip returned [C016140B] (AR v2)
Copy OK

Track 7

Filename C:\Users\Rob\Desktop\Uploads\Alice Cooper - The Studio Albums 1969-1983 (2015) [FLAC] (15 Disc Box Set)\1976 - Alice Cooper Goes To Hell\07 - Guilty.wav

Peak level 90.9 %
Extraction speed 7.7 X
Track quality 100.0 %
Test CRC 80E07FA4
Copy CRC 80E07FA4
Cannot be verified as accurate (confidence 9) [D083A9B5], AccurateRip returned [76E11FEC] (AR v2)
Copy OK

Track 8

Filename C:\Users\Rob\Desktop\Uploads\Alice Cooper - The Studio Albums 1969-1983 (2015) [FLAC] (15 Disc Box Set)\1976 - Alice Cooper Goes To Hell\08 - Wake Me Gently.wav

Pre-gap length 0:00:03.22

Peak level 93.5 %
Extraction speed 8.6 X
Track quality 100.0 %
Test CRC 2EBA1518
Copy CRC 2EBA1518
Cannot be verified as accurate (confidence 9) [485DF35C], AccurateRip returned [617086FE] (AR v2)
Copy OK

Track 9

Filename C:\Users\Rob\Desktop\Uploads\Alice Cooper - The Studio Albums 1969-1983 (2015) [FLAC] (15 Disc Box Set)\1976 - Alice Cooper Goes To Hell\09 - Wish You Were Here.wav

Pre-gap length 0:00:01.10

Peak level 98.5 %
Extraction speed 8.9 X
Track quality 100.0 %
Test CRC 01913DE9
Copy CRC 01913DE9
Cannot be verified as accurate (confidence 9) [D8D720BB], AccurateRip returned [D85B9C97] (AR v2)
Copy OK

Track 10

Filename C:\Users\Rob\Desktop\Uploads\Alice Cooper - The Studio Albums 1969-1983 (2015) [FLAC] (15 Disc Box Set)\1976 - Alice Cooper Goes To Hell\10 - I'm Always Chasing Rainbows.wav

Pre-gap length 0:00:00.13

Peak level 96.1 %
Extraction speed 8.1 X
Track quality 100.0 %
Test CRC 9CB0A025
Copy CRC 9CB0A025
Cannot be verified as accurate (confidence 9) [69B12D01], AccurateRip returned [38816F68] (AR v2)
Copy OK

Track 11

Filename C:\Users\Rob\Desktop\Uploads\Alice Cooper - The Studio Albums 1969-1983 (2015) [FLAC] (15 Disc Box Set)\1976 - Alice Cooper Goes To Hell\11 - Going Home.wav

Peak level 99.9 %
Extraction speed 7.4 X
Track quality 99.9 %
Test CRC A9694612
Copy CRC A9694612
Cannot be verified as accurate (confidence 9) [8C641A38], AccurateRip returned [E410E2ED] (AR v2)
Copy OK


No tracks could be verified as accurate
You may have a different pressing from the one(s) in the database

No errors occurred

End of status report

==== Log checksum CD06CAE270ECD471122A8470D29D7A34020A143F31F7B5F1D55FDA7B05BE561D ====

––-

Exact Audio Copy V1.0 beta 3 from 29. August 2011

EAC extraction logfile from 21. August 2015, 12:11

Alice Cooper / Lace And Whiskey

Used drive : ATAPI iHBS212 2 Adapter: 3 ID: 0

Read mode : Secure
Utilize accurate stream : Yes
Defeat audio cache : Yes
Make use of C2 pointers : No

Read offset correction : 6
Overread into Lead-In and Lead-Out : No
Fill up missing offset samples with silence : Yes
Delete leading and trailing silent blocks : No
Null samples used in CRC calculations : Yes
Used interface : Native Win32 interface for Win NT & 2000
Gap handling : Appended to previous track

Used output format : User Defined Encoder
Selected bitrate : 128 kBit/s
Quality : High
Add ID3 tag : No
Command line compressor : C:\Program Files (x86)\Exact Audio Copy\Flac\flac.exe
Additional command line options : -8 -V -T "ARTIST=%artist%" -T "TITLE=%title%" -T "ALBUM=%albumtitle%" -T "DATE=%year%" -T "TRACKNUMBER=%tracknr%" -T "TOTALTRACKS=%numtracks%" -T "GENRE=%genre%" -T "ALBUMARTIST=%albumartist%" -T "ALBUM ARTIST=%albumartist%" -T "COMMENT=EAC Secure Mode, Test & Copy, AccurateRip, FLAC -8" %source%


TOC of the extracted CD

Track | Start | Length | Start sector | End sector
––––––––––––––––––––––––––––-
1 | 0:00.00 | 3:21.65 | 0 | 15139
2 | 3:21.65 | 3:13.70 | 15140 | 29684
3 | 6:35.60 | 4:51.03 | 29685 | 51512
4 | 11:26.63 | 3:13.72 | 51513 | 66059
5 | 14:40.60 | 5:09.30 | 66060 | 89264
6 | 19:50.15 | 5:35.43 | 89265 | 114432
7 | 25:25.58 | 2:12.55 | 114433 | 124387
8 | 27:38.38 | 3:49.07 | 124388 | 141569
9 | 31:27.45 | 4:33.73 | 141570 | 162117
10 | 36:01.43 | 5:40.22 | 162118 | 187639


Track 1

Filename C:\Users\Rob\Desktop\Uploads\Alice Cooper - The Studio Albums 1969-1983 (2015) [FLAC] (15 Disc Box Set)\1977 - Lace And Whiskey\01 - It's Hot Tonight.wav

Pre-gap length 0:00:02.00

Peak level 93.4 %
Extraction speed 4.0 X
Track quality 99.9 %
Test CRC 2D8A3EA5
Copy CRC 2D8A3EA5
Cannot be verified as accurate (confidence 19) [BE2FF88A], AccurateRip returned [B2D1A69F] (AR v2)
Copy OK

Track 2

Filename C:\Users\Rob\Desktop\Uploads\Alice Cooper - The Studio Albums 1969-1983 (2015) [FLAC] (15 Disc Box Set)\1977 - Lace And Whiskey\02 - Lace And Whiskey.wav

Pre-gap length 0:00:00.55

Peak level 82.5 %
Extraction speed 5.4 X
Track quality 100.0 %
Test CRC EC271454
Copy CRC EC271454
Cannot be verified as accurate (confidence 19) [0F9EC7CE], AccurateRip returned [05D7CF02] (AR v2)
Copy OK

Track 3

Filename C:\Users\Rob\Desktop\Uploads\Alice Cooper - The Studio Albums 1969-1983 (2015) [FLAC] (15 Disc Box Set)\1977 - Lace And Whiskey\03 - Road Rats.wav

Pre-gap length 0:00:00.10

Peak level 90.7 %
Extraction speed 6.3 X
Track quality 100.0 %
Test CRC 5005BA10
Copy CRC 5005BA10
Cannot be verified as accurate (confidence 19) [0E6BF897], AccurateRip returned [C013C00C] (AR v2)
Copy OK

Track 4

Filename C:\Users\Rob\Desktop\Uploads\Alice Cooper - The Studio Albums 1969-1983 (2015) [FLAC] (15 Disc Box Set)\1977 - Lace And Whiskey\04 - Damned If You Do.wav

Pre-gap length 0:00:01.28

Peak level 92.2 %
Extraction speed 6.4 X
Track quality 100.0 %
Test CRC D36F321A
Copy CRC D36F321A
Cannot be verified as accurate (confidence 19) [7D022101], AccurateRip returned [E26568B8] (AR v2)
Copy OK

Track 5

Filename C:\Users\Rob\Desktop\Uploads\Alice Cooper - The Studio Albums 1969-1983 (2015) [FLAC] (15 Disc Box Set)\1977 - Lace And Whiskey\05 - You And Me.wav

Pre-gap length 0:00:01.70

Peak level 91.2 %
Extraction speed 6.3 X
Track quality 99.9 %
Test CRC 1D35D782
Copy CRC 1D35D782
Cannot be verified as accurate (confidence 20) [4B1E5CA3], AccurateRip returned [6DFC9EDA] (AR v2)
Copy OK

Track 6

Filename C:\Users\Rob\Desktop\Uploads\Alice Cooper - The Studio Albums 1969-1983 (2015) [FLAC] (15 Disc Box Set)\1977 - Lace And Whiskey\06 - King Of The Silver Screen.wav

Pre-gap length 0:00:02.62

Peak level 100.0 %
Extraction speed 7.9 X
Track quality 100.0 %
Test CRC B64C26ED
Copy CRC B64C26ED
Cannot be verified as accurate (confidence 19) [48CD9B0D], AccurateRip returned [157686EB] (AR v2)
Copy OK

Track 7

Filename C:\Users\Rob\Desktop\Uploads\Alice Cooper - The Studio Albums 1969-1983 (2015) [FLAC] (15 Disc Box Set)\1977 - Lace And Whiskey\07 - Ubangi Stomp.wav

Pre-gap length 0:00:00.65

Peak level 78.3 %
Extraction speed 7.3 X
Track quality 100.0 %
Test CRC D47F84DF
Copy CRC D47F84DF
Cannot be verified as accurate (confidence 19) [581CB6C7], AccurateRip returned [8C1A8D6D] (AR v2)
Copy OK

Track 8

Filename C:\Users\Rob\Desktop\Uploads\Alice Cooper - The Studio Albums 1969-1983 (2015) [FLAC] (15 Disc Box Set)\1977 - Lace And Whiskey\08 - (No More) Love At Your Convenience.wav

Pre-gap length 0:00:00.35

Peak level 81.9 %
Extraction speed 6.7 X
Track quality 99.9 %
Test CRC 242C8E58
Copy CRC 242C8E58
Cannot be verified as accurate (confidence 19) [41EA4B11], AccurateRip returned [BF595333] (AR v2)
Copy OK

Track 9

Filename C:\Users\Rob\Desktop\Uploads\Alice Cooper - The Studio Albums 1969-1983 (2015) [FLAC] (15 Disc Box Set)\1977 - Lace And Whiskey\09 - I Never Wrote Those Songs.wav

Pre-gap length 0:00:01.25

Peak level 86.3 %
Extraction speed 8.8 X
Track quality 100.0 %
Test CRC 44BED11C
Copy CRC 44BED11C
Cannot be verified as accurate (confidence 19) [4957DA3B], AccurateRip returned [BD9C66C0] (AR v2)
Copy OK

Track 10

Filename C:\Users\Rob\Desktop\Uploads\Alice Cooper - The Studio Albums 1969-1983 (2015) [FLAC] (15 Disc Box Set)\1977 - Lace And Whiskey\10 - My God.wav

Pre-gap length 0:00:00.68

Peak level 92.4 %
Extraction speed 8.1 X
Track quality 99.9 %
Test CRC FDC3FD7E
Copy CRC FDC3FD7E
Cannot be verified as accurate (confidence 19) [E761B2B8], AccurateRip returned [EDD00F18] (AR v2)
Copy OK


No tracks could be verified as accurate
You may have a different pressing from the one(s) in the database

No errors occurred

End of status report

==== Log checksum 6CAA2D8D60347E168912BC0C9A1C702B3574A78F564C4D29BF3FF9C0F651C53D ====

––-

Exact Audio Copy V1.0 beta 3 from 29. August 2011

EAC extraction logfile from 21. August 2015, 13:20

Alice Cooper / From The Inside

Used drive : ATAPI iHBS212 2 Adapter: 3 ID: 0

Read mode : Secure
Utilize accurate stream : Yes
Defeat audio cache : Yes
Make use of C2 pointers : No

Read offset correction : 6
Overread into Lead-In and Lead-Out : No
Fill up missing offset samples with silence : Yes
Delete leading and trailing silent blocks : No
Null samples used in CRC calculations : Yes
Used interface : Native Win32 interface for Win NT & 2000
Gap handling : Appended to previous track

Used output format : User Defined Encoder
Selected bitrate : 128 kBit/s
Quality : High
Add ID3 tag : No
Command line compressor : C:\Program Files (x86)\Exact Audio Copy\Flac\flac.exe
Additional command line options : -8 -V -T "ARTIST=%artist%" -T "TITLE=%title%" -T "ALBUM=%albumtitle%" -T "DATE=%year%" -T "TRACKNUMBER=%tracknr%" -T "TOTALTRACKS=%numtracks%" -T "GENRE=%genre%" -T "ALBUMARTIST=%albumartist%" -T "ALBUM ARTIST=%albumartist%" -T "COMMENT=EAC Secure Mode, Test & Copy, AccurateRip, FLAC -8" %source%


TOC of the extracted CD

Track | Start | Length | Start sector | End sector
––––––––––––––––––––––––––––-
1 | 0:00.00 | 3:55.18 | 0 | 17642
2 | 3:55.18 | 3:38.40 | 17643 | 34032
3 | 7:33.58 | 3:52.72 | 34033 | 51504
4 | 11:26.55 | 4:15.53 | 51505 | 70682
5 | 15:42.33 | 4:15.05 | 70683 | 89812
6 | 19:57.38 | 2:44.62 | 89813 | 102174
7 | 22:42.25 | 3:57.58 | 102175 | 120007
8 | 26:40.08 | 3:37.15 | 120008 | 136297
9 | 30:17.23 | 3:45.52 | 136298 | 153224
10 | 34:03.00 | 5:03.58 | 153225 | 176007


Track 1

Filename C:\Users\Rob\Desktop\Uploads\Alice Cooper - The Studio Albums 1969-1983 (2015) [FLAC] (15 Disc Box Set)\1978 - From The Inside\01 - From The Inside.wav

Pre-gap length 0:00:02.00

Peak level 100.0 %
Extraction speed 1.9 X
Track quality 100.0 %
Test CRC E60CCC50
Copy CRC E60CCC50
Accurately ripped (confidence 8) [EFBE79ED] (AR v2)
Copy OK

Track 2

Filename C:\Users\Rob\Desktop\Uploads\Alice Cooper - The Studio Albums 1969-1983 (2015) [FLAC] (15 Disc Box Set)\1978 - From The Inside\02 - Wish I Were Born In Beverly Hills.wav

Peak level 100.0 %
Extraction speed 2.1 X
Track quality 100.0 %
Test CRC E16D746D
Copy CRC E16D746D
Accurately ripped (confidence 8) [3E3A40FA] (AR v2)
Copy OK

Track 3

Filename C:\Users\Rob\Desktop\Uploads\Alice Cooper - The Studio Albums 1969-1983 (2015) [FLAC] (15 Disc Box Set)\1978 - From The Inside\03 - The Quiet Room.wav

Pre-gap length 0:00:05.45

Peak level 87.1 %
Extraction speed 2.3 X
Track quality 100.0 %
Test CRC 8A7AF9DF
Copy CRC 8A7AF9DF
Accurately ripped (confidence 8) [0921A419] (AR v2)
Copy OK

Track 4

Filename C:\Users\Rob\Desktop\Uploads\Alice Cooper - The Studio Albums 1969-1983 (2015) [FLAC] (15 Disc Box Set)\1978 - From The Inside\04 - Nurse Rozetta.wav

Pre-gap length 0:00:00.55

Peak level 86.0 %
Extraction speed 2.5 X
Track quality 100.0 %
Test CRC 85E6C57A
Copy CRC 85E6C57A
Accurately ripped (confidence 8) [BA253757] (AR v2)
Copy OK

Track 5

Filename C:\Users\Rob\Desktop\Uploads\Alice Cooper - The Studio Albums 1969-1983 (2015) [FLAC] (15 Disc Box Set)\1978 - From The Inside\05 - Millie And Billie.wav

Peak level 76.3 %
Extraction speed 2.7 X
Track quality 100.0 %
Test CRC 880DF85E
Copy CRC 880DF85E
Accurately ripped (confidence 8) [5A83AF73] (AR v2)
Copy OK

Track 6

Filename C:\Users\Rob\Desktop\Uploads\Alice Cooper - The Studio Albums 1969-1983 (2015) [FLAC] (15 Disc Box Set)\1978 - From The Inside\06 - Serious.wav

Pre-gap length 0:00:02.35

Peak level 88.8 %
Extraction speed 2.7 X
Track quality 100.0 %
Test CRC 1839E774
Copy CRC 1839E774
Accurately ripped (confidence 8) [2FFC2C09] (AR v2)
Copy OK

Track 7

Filename C:\Users\Rob\Desktop\Uploads\Alice Cooper - The Studio Albums 1969-1983 (2015) [FLAC] (15 Disc Box Set)\1978 - From The Inside\07 - How You Gonna See Me Now.wav

Pre-gap length 0:00:01.72

Peak level 94.8 %
Extraction speed 3.0 X
Track quality 100.0 %
Test CRC 7FB0DE7F
Copy CRC 7FB0DE7F
Accurately ripped (confidence 8) [374EE907] (AR v2)
Copy OK

Track 8

Filename C:\Users\Rob\Desktop\Uploads\Alice Cooper - The Studio Albums 1969-1983 (2015) [FLAC] (15 Disc Box Set)\1978 - From The Inside\08 - For Veronica's Sake.wav

Pre-gap length 0:00:01.60

Peak level 90.9 %
Extraction speed 3.1 X
Track quality 100.0 %
Test CRC 97CA0E6A
Copy CRC 97CA0E6A
Accurately ripped (confidence 8) [24301215] (AR v2)
Copy OK

Track 9

Filename C:\Users\Rob\Desktop\Uploads\Alice Cooper - The Studio Albums 1969-1983 (2015) [FLAC] (15 Disc Box Set)\1978 - From The Inside\09 - Jackknife Johnny.wav

Pre-gap length 0:00:00.58

Peak level 89.3 %
Extraction speed 3.2 X
Track quality 100.0 %
Test CRC 311D8DE2
Copy CRC 311D8DE2
Accurately ripped (confidence 8) [7A3A8307] (AR v2)
Copy OK

Track 10

Filename C:\Users\Rob\Desktop\Uploads\Alice Cooper - The Studio Albums 1969-1983 (2015) [FLAC] (15 Disc Box Set)\1978 - From The Inside\10 - Inmates (We're All Crazy).wav

Pre-gap length 0:00:02.55

Peak level 93.8 %
Extraction speed 2.7 X
Track quality 99.9 %
Test CRC F7F0AFC3
Copy CRC F7F0AFC3
Accurately ripped (confidence 8) [DC4FC040] (AR v2)
Copy OK


All tracks accurately ripped

No errors occurred

End of status report

==== Log checksum 7BBA4E61CAA968346429DA2A518BEB08BB7044B62D8814A1EEAAF627D58E1F1B ====

––-

Exact Audio Copy V1.0 beta 3 from 29. August 2011

EAC extraction logfile from 21. August 2015, 13:32

Alice Cooper / Flush The Fashion

Used drive : ATAPI iHBS212 2 Adapter: 3 ID: 0

Read mode : Secure
Utilize accurate stream : Yes
Defeat audio cache : Yes
Make use of C2 pointers : No

Read offset correction : 6
Overread into Lead-In and Lead-Out : No
Fill up missing offset samples with silence : Yes
Delete leading and trailing silent blocks : No
Null samples used in CRC calculations : Yes
Used interface : Native Win32 interface for Win NT & 2000
Gap handling : Appended to previous track

Used output format : User Defined Encoder
Selected bitrate : 128 kBit/s
Quality : High
Add ID3 tag : No
Command line compressor : C:\Program Files (x86)\Exact Audio Copy\Flac\flac.exe
Additional command line options : -8 -V -T "ARTIST=%artist%" -T "TITLE=%title%" -T "ALBUM=%albumtitle%" -T "DATE=%year%" -T "TRACKNUMBER=%tracknr%" -T "TOTALTRACKS=%numtracks%" -T "GENRE=%genre%" -T "ALBUMARTIST=%albumartist%" -T "ALBUM ARTIST=%albumartist%" -T "COMMENT=EAC Secure Mode, Test & Copy, AccurateRip, FLAC -8" %source%


TOC of the extracted CD

Track | Start | Length | Start sector | End sector
––––––––––––––––––––––––––––-
1 | 0:00.00 | 2:09.45 | 0 | 9719
2 | 2:09.45 | 3:03.60 | 9720 | 23504
3 | 5:13.30 | 4:06.10 | 23505 | 41964
4 | 9:19.40 | 1:36.30 | 41965 | 49194
5 | 10:55.70 | 2:57.57 | 49195 | 62526
6 | 13:53.52 | 2:14.73 | 62527 | 72649
7 | 16:08.50 | 3:24.70 | 72650 | 88019
8 | 19:33.45 | 2:39.12 | 88020 | 99956
9 | 22:12.57 | 3:08.70 | 99957 | 114126
10 | 25:21.52 | 3:18.45 | 114127 | 129021


Track 1

Filename C:\Users\Rob\Desktop\Uploads\Alice Cooper - The Studio Albums 1969-1983 (2015) [FLAC] (15 Disc Box Set)\1980 - Flush The Fashion\01 - Talk Talk.wav

Pre-gap length 0:00:02.00

Peak level 90.7 %
Extraction speed 4.5 X
Track quality 100.0 %
Test CRC D6816386
Copy CRC D6816386
Cannot be verified as accurate (confidence 15) [C0EAC40D], AccurateRip returned [7B3D0604] (AR v2)
Copy OK

Track 2

Filename C:\Users\Rob\Desktop\Uploads\Alice Cooper - The Studio Albums 1969-1983 (2015) [FLAC] (15 Disc Box Set)\1980 - Flush The Fashion\02 - Clones (We're All).wav

Peak level 94.6 %
Extraction speed 5.2 X
Track quality 100.0 %
Test CRC 6BECA215
Copy CRC 6BECA215
Cannot be verified as accurate (confidence 16) [C002F9B9], AccurateRip returned [91A0F7CC] (AR v2)
Copy OK

Track 3

Filename C:\Users\Rob\Desktop\Uploads\Alice Cooper - The Studio Albums 1969-1983 (2015) [FLAC] (15 Disc Box Set)\1980 - Flush The Fashion\03 - Pain.wav

Peak level 97.1 %
Extraction speed 5.9 X
Track quality 100.0 %
Test CRC AAEF7FCC
Copy CRC AAEF7FCC
Cannot be verified as accurate (confidence 15) [1F7B62C1], AccurateRip returned [1A0D488A] (AR v2)
Copy OK

Track 4

Filename C:\Users\Rob\Desktop\Uploads\Alice Cooper - The Studio Albums 1969-1983 (2015) [FLAC] (15 Disc Box Set)\1980 - Flush The Fashion\04 - Leather Boots.wav

Peak level 92.1 %
Extraction speed 5.2 X
Track quality 100.0 %
Test CRC 71D295F3
Copy CRC 71D295F3
Cannot be verified as accurate (confidence 15) [2E0E22B8], AccurateRip returned [D75666F6] (AR v2)
Copy OK

Track 5

Filename C:\Users\Rob\Desktop\Uploads\Alice Cooper - The Studio Albums 1969-1983 (2015) [FLAC] (15 Disc Box Set)\1980 - Flush The Fashion\05 - Aspirin Damage.wav

Peak level 86.4 %
Extraction speed 6.2 X
Track quality 100.0 %
Test CRC 5DC0848A
Copy CRC 5DC0848A
Cannot be verified as accurate (confidence 15) [9F4B2927], AccurateRip returned [9E19AD1D] (AR v2)
Copy OK

Track 6

Filename C:\Users\Rob\Desktop\Uploads\Alice Cooper - The Studio Albums 1969-1983 (2015) [FLAC] (15 Disc Box Set)\1980 - Flush The Fashion\06 - Nuclear Infected.wav

Pre-gap length 0:00:00.60

Peak level 89.7 %
Extraction speed 6.1 X
Track quality 100.0 %
Test CRC 558E8D91
Copy CRC 558E8D91
Cannot be verified as accurate (confidence 15) [2C4D8757], AccurateRip returned [C8E5ECBE] (AR v2)
Copy OK

Track 7

Filename C:\Users\Rob\Desktop\Uploads\Alice Cooper - The Studio Albums 1969-1983 (2015) [FLAC] (15 Disc Box Set)\1980 - Flush The Fashion\07 - Grim Facts.wav

Peak level 100.0 %
Extraction speed 7.0 X
Track quality 100.0 %
Test CRC BCE6E014
Copy CRC BCE6E014
Cannot be verified as accurate (confidence 15) [399905E0], AccurateRip returned [A4DAA656] (AR v2)
Copy OK

Track 8

Filename C:\Users\Rob\Desktop\Uploads\Alice Cooper - The Studio Albums 1969-1983 (2015) [FLAC] (15 Disc Box Set)\1980 - Flush The Fashion\08 - Model Citizen.wav

Peak level 80.6 %
Extraction speed 7.0 X
Track quality 100.0 %
Test CRC 8DC13C4D
Copy CRC 8DC13C4D
Cannot be verified as accurate (confidence 15) [078DD207], AccurateRip returned [75632214] (AR v2)
Copy OK

Track 9

Filename C:\Users\Rob\Desktop\Uploads\Alice Cooper - The Studio Albums 1969-1983 (2015) [FLAC] (15 Disc Box Set)\1980 - Flush The Fashion\09 - Dance Yourself To Death.wav

Pre-gap length 0:00:00.15

Peak level 95.6 %
Extraction speed 7.4 X
Track quality 100.0 %
Test CRC B6B381D4
Copy CRC B6B381D4
Cannot be verified as accurate (confidence 16) [0F5A1C40], AccurateRip returned [455AB33E] (AR v2)
Copy OK

Track 10

Filename C:\Users\Rob\Desktop\Uploads\Alice Cooper - The Studio Albums 1969-1983 (2015) [FLAC] (15 Disc Box Set)\1980 - Flush The Fashion\10 - Headlines.wav

Peak level 92.2 %
Extraction speed 7.8 X
Track quality 100.0 %
Test CRC 75E87B40
Copy CRC 75E87B40
Cannot be verified as accurate (confidence 16) [B0A09D1E], AccurateRip returned [A866C8CC] (AR v2)
Copy OK


No tracks could be verified as accurate
You may have a different pressing from the one(s) in the database

No errors occurred

End of status report

==== Log checksum A093190ED6A414A03578608FD6DE77A3CB7975E762391E7EC45659EDCF6DB0B0 ====

––-

Exact Audio Copy V1.0 beta 3 from 29. August 2011

EAC extraction logfile from 21. August 2015, 13:58

Alice Cooper / Special Forces

Used drive : ATAPI iHBS212 2 Adapter: 3 ID: 0

Read mode : Secure
Utilize accurate stream : Yes
Defeat audio cache : Yes
Make use of C2 pointers : No

Read offset correction : 6
Overread into Lead-In and Lead-Out : No
Fill up missing offset samples with silence : Yes
Delete leading and trailing silent blocks : No
Null samples used in CRC calculations : Yes
Used interface : Native Win32 interface for Win NT & 2000
Gap handling : Appended to previous track

Used output format : User Defined Encoder
Selected bitrate : 128 kBit/s
Quality : High
Add ID3 tag : No
Command line compressor : C:\Program Files (x86)\Exact Audio Copy\Flac\flac.exe
Additional command line options : -8 -V -T "ARTIST=%artist%" -T "TITLE=%title%" -T "ALBUM=%albumtitle%" -T "DATE=%year%" -T "TRACKNUMBER=%tracknr%" -T "TOTALTRACKS=%numtracks%" -T "GENRE=%genre%" -T "ALBUMARTIST=%albumartist%" -T "ALBUM ARTIST=%albumartist%" -T "COMMENT=EAC Secure Mode, Test & Copy, AccurateRip, FLAC -8" %source%


TOC of the extracted CD

Track | Start | Length | Start sector | End sector
––––––––––––––––––––––––––––-
1 | 0:00.00 | 4:21.55 | 0 | 19629
2 | 4:21.55 | 2:41.27 | 19630 | 31731
3 | 7:03.07 | 3:13.68 | 31732 | 46274
4 | 10:17.00 | 2:54.72 | 46275 | 59396
5 | 13:11.72 | 3:50.40 | 59397 | 76686
6 | 17:02.37 | 3:42.70 | 76687 | 93406
7 | 20:45.32 | 3:15.08 | 93407 | 108039
8 | 24:00.40 | 3:35.02 | 108040 | 124166
9 | 27:35.42 | 3:37.25 | 124167 | 140466
10 | 31:12.67 | 3:43.23 | 140467 | 157214


Track 1

Filename C:\Users\Rob\Desktop\Uploads\Alice Cooper - The Studio Albums 1969-1983 (2015) [FLAC] (15 Disc Box Set)\1981 - Special Forces\01 - Who Do You Think We Are.wav

Pre-gap length 0:00:02.00

Peak level 99.3 %
Extraction speed 5.2 X
Track quality 100.0 %
Test CRC 27434001
Copy CRC 27434001
Cannot be verified as accurate (confidence 17) [B4CC866F], AccurateRip returned [E2308172] (AR v2)
Copy OK

Track 2

Filename C:\Users\Rob\Desktop\Uploads\Alice Cooper - The Studio Albums 1969-1983 (2015) [FLAC] (15 Disc Box Set)\1981 - Special Forces\02 - Seven & Seven Is.wav

Pre-gap length 0:00:00.70

Peak level 81.0 %
Extraction speed 4.2 X
Track quality 99.9 %
Test CRC 0E3D6EB5
Copy CRC 0E3D6EB5
Cannot be verified as accurate (confidence 17) [9C700D78], AccurateRip returned [01DE4C6D] (AR v2)
Copy OK

Track 3

Filename C:\Users\Rob\Desktop\Uploads\Alice Cooper - The Studio Albums 1969-1983 (2015) [FLAC] (15 Disc Box Set)\1981 - Special Forces\03 - Prettiest Cop On The Block.wav

Peak level 99.1 %
Extraction speed 5.8 X
Track quality 100.0 %
Test CRC D815F71E
Copy CRC D815F71E
Cannot be verified as accurate (confidence 17) [A05B54EB], AccurateRip returned [3C1FE4D7] (AR v2)
Copy OK

Track 4

Filename C:\Users\Rob\Desktop\Uploads\Alice Cooper - The Studio Albums 1969-1983 (2015) [FLAC] (15 Disc Box Set)\1981 - Special Forces\04 - Don't Talk Old To Me.wav

Pre-gap length 0:00:00.50

Peak level 98.2 %
Extraction speed 4.8 X
Track quality 99.9 %
Test CRC 90B7729E
Copy CRC 90B7729E
Cannot be verified as accurate (confidence 16) [43EB07AA], AccurateRip returned [F55E7F6D] (AR v2)
Copy OK

Track 5

Filename C:\Users\Rob\Desktop\Uploads\Alice Cooper - The Studio Albums 1969-1983 (2015) [FLAC] (15 Disc Box Set)\1981 - Special Forces\05 - Generation Landslide '81 (Live).wav

Pre-gap length 0:00:01.67

Peak level 66.4 %
Extraction speed 6.8 X
Track quality 100.0 %
Test CRC 7F7D3B67
Copy CRC 7F7D3B67
Cannot be verified as accurate (confidence 16) [D23A788D], AccurateRip returned [D8C61990] (AR v2)
Copy OK

Track 6

Filename C:\Users\Rob\Desktop\Uploads\Alice Cooper - The Studio Albums 1969-1983 (2015) [FLAC] (15 Disc Box Set)\1981 - Special Forces\06 - Skeletons In The Closet.wav

Pre-gap length 0:00:00.57

Peak level 82.0 %
Extraction speed 7.2 X
Track quality 100.0 %
Test CRC F47416DC
Copy CRC F47416DC
Cannot be verified as accurate (confidence 17) [A9D6C7C9], AccurateRip returned [31D52126] (AR v2)
Copy OK

Track 7

Filename C:\Users\Rob\Desktop\Uploads\Alice Cooper - The Studio Albums 1969-1983 (2015) [FLAC] (15 Disc Box Set)\1981 - Special Forces\07 - You Want It, You Got It.wav

Peak level 95.7 %
Extraction speed 7.4 X
Track quality 100.0 %
Test CRC CE3800E5
Copy CRC CE3800E5
Cannot be verified as accurate (confidence 15) [81A2BD74], AccurateRip returned [C6C6F92D] (AR v2)
Copy OK

Track 8

Filename C:\Users\Rob\Desktop\Uploads\Alice Cooper - The Studio Albums 1969-1983 (2015) [FLAC] (15 Disc Box Set)\1981 - Special Forces\08 - You Look Good In Rags.wav

Pre-gap length 0:00:01.10

Peak level 91.3 %
Extraction speed 7.8 X
Track quality 100.0 %
Test CRC 549D7191
Copy CRC 549D7191
Cannot be verified as accurate (confidence 16) [7E5DA2C7], AccurateRip returned [D4D26FD3] (AR v2)
Copy OK

Track 9

Filename C:\Users\Rob\Desktop\Uploads\Alice Cooper - The Studio Albums 1969-1983 (2015) [FLAC] (15 Disc Box Set)\1981 - Special Forces\09 - You're A Movie.wav

Pre-gap length 0:00:01.20

Peak level 99.3 %
Extraction speed 8.2 X
Track quality 100.0 %
Test CRC C3F0F074
Copy CRC C3F0F074
Cannot be verified as accurate (confidence 16) [DD6D9919], AccurateRip returned [6369C91F] (AR v2)
Copy OK

Track 10

Filename C:\Users\Rob\Desktop\Uploads\Alice Cooper - The Studio Albums 1969-1983 (2015) [FLAC] (15 Disc Box Set)\1981 - Special Forces\10 - Vicious Rumours.wav

Pre-gap length 0:00:00.72

Peak level 87.3 %
Extraction speed 8.5 X
Track quality 100.0 %
Test CRC FCB1A9FC
Copy CRC FCB1A9FC
Cannot be verified as accurate (confidence 16) [1B87FD1C], AccurateRip returned [0BDBDBB2] (AR v2)
Copy OK


No tracks could be verified as accurate
You may have a different pressing from the one(s) in the database

No errors occurred

End of status report

==== Log checksum 55D4C6657AE96BA2F0CA7D78EC7DA15C22460F7E573937BC2C4EB2E09E7FF0AB ====

––-

Exact Audio Copy V1.0 beta 3 from 29. August 2011

EAC extraction logfile from 21. August 2015, 14:12

Alice Cooper / Zipper Catches Skin

Used drive : ATAPI iHBS212 2 Adapter: 3 ID: 0

Read mode : Secure
Utilize accurate stream : Yes
Defeat audio cache : Yes
Make use of C2 pointers : No

Read offset correction : 6
Overread into Lead-In and Lead-Out : No
Fill up missing offset samples with silence : Yes
Delete leading and trailing silent blocks : No
Null samples used in CRC calculations : Yes
Used interface : Native Win32 interface for Win NT & 2000
Gap handling : Appended to previous track

Used output format : User Defined Encoder
Selected bitrate : 128 kBit/s
Quality : High
Add ID3 tag : No
Command line compressor : C:\Program Files (x86)\Exact Audio Copy\Flac\flac.exe
Additional command line options : -8 -V -T "ARTIST=%artist%" -T "TITLE=%title%" -T "ALBUM=%albumtitle%" -T "DATE=%year%" -T "TRACKNUMBER=%tracknr%" -T "TOTALTRACKS=%numtracks%" -T "GENRE=%genre%" -T "ALBUMARTIST=%albumartist%" -T "ALBUM ARTIST=%albumartist%" -T "COMMENT=EAC Secure Mode, Test & Copy, AccurateRip, FLAC -8" %source%


TOC of the extracted CD

Track | Start | Length | Start sector | End sector
––––––––––––––––––––––––––––-
1 | 0:00.00 | 3:56.15 | 0 | 17714
2 | 3:56.15 | 3:30.73 | 17715 | 33537
3 | 7:27.13 | 3:29.47 | 33538 | 49259
4 | 10:56.60 | 5:06.73 | 49260 | 72282
5 | 16:03.58 | 2:56.22 | 72283 | 85504
6 | 19:00.05 | 2:25.10 | 85505 | 96389
7 | 21:25.15 | 2:07.25 | 96390 | 105939
8 | 23:32.40 | 2:54.45 | 105940 | 119034
9 | 26:27.10 | 2:48.58 | 119035 | 131692
10 | 29:15.68 | 3:14.00 | 131693 | 146242


Track 1

Filename C:\Users\Rob\Desktop\Uploads\Alice Cooper - The Studio Albums 1969-1983 (2015) [FLAC] (15 Disc Box Set)\1982 - Zipper Catches Skin\01 - Zorro's Ascent.wav

Pre-gap length 0:00:02.00

Peak level 97.3 %
Extraction speed 5.1 X
Track quality 100.0 %
Test CRC 7FD581A3
Copy CRC 7FD581A3
Cannot be verified as accurate (confidence 10) [C2D891F1], AccurateRip returned [ED033640] (AR v2)
Copy OK

Track 2

Filename C:\Users\Rob\Desktop\Uploads\Alice Cooper - The Studio Albums 1969-1983 (2015) [FLAC] (15 Disc Box Set)\1982 - Zipper Catches Skin\02 - Make That Money (Scrooge's Song).wav

Pre-gap length 0:00:01.00

Peak level 94.7 %
Extraction speed 5.6 X
Track quality 100.0 %
Test CRC 4CA8344F
Copy CRC 4CA8344F
Cannot be verified as accurate (confidence 10) [04739474], AccurateRip returned [2F87AD66] (AR v2)
Copy OK

Track 3

Filename C:\Users\Rob\Desktop\Uploads\Alice Cooper - The Studio Albums 1969-1983 (2015) [FLAC] (15 Disc Box Set)\1982 - Zipper Catches Skin\03 - I Am The Future.wav

Pre-gap length 0:00:01.38

Peak level 89.7 %
Extraction speed 6.0 X
Track quality 100.0 %
Test CRC C52CD143
Copy CRC C52CD143
Cannot be verified as accurate (confidence 10) [45E90E7F], AccurateRip returned [9FFE3301] (AR v2)
Copy OK

Track 4

Filename C:\Users\Rob\Desktop\Uploads\Alice Cooper - The Studio Albums 1969-1983 (2015) [FLAC] (15 Disc Box Set)\1982 - Zipper Catches Skin\04 - No Baloney Homosapiens.wav

Pre-gap length 0:00:01.60

Peak level 94.0 %
Extraction speed 6.8 X
Track quality 100.0 %
Test CRC DB0662A8
Copy CRC DB0662A8
Cannot be verified as accurate (confidence 10) [74AFE675], AccurateRip returned [8709F10F] (AR v2)
Copy OK

Track 5

Filename C:\Users\Rob\Desktop\Uploads\Alice Cooper - The Studio Albums 1969-1983 (2015) [FLAC] (15 Disc Box Set)\1982 - Zipper Catches Skin\05 - Adaptable (Anything For You).wav

Pre-gap length 0:00:01.43

Peak level 90.6 %
Extraction speed 5.3 X
Track quality 99.9 %
Test CRC 9C585197
Copy CRC 9C585197
Cannot be verified as accurate (confidence 10) [A04E4B72], AccurateRip returned [7FE87A70] (AR v2)
Copy OK

Track 6

Filename C:\Users\Rob\Desktop\Uploads\Alice Cooper - The Studio Albums 1969-1983 (2015) [FLAC] (15 Disc Box Set)\1982 - Zipper Catches Skin\06 - I Like Girls.wav

Pre-gap length 0:00:02.02

Peak level 99.3 %
Extraction speed 6.8 X
Track quality 100.0 %
Test CRC F3D9F373
Copy CRC F3D9F373
Cannot be verified as accurate (confidence 10) [5074B587], AccurateRip returned [05DA14B0] (AR v2)
Copy OK

Track 7

Filename C:\Users\Rob\Desktop\Uploads\Alice Cooper - The Studio Albums 1969-1983 (2015) [FLAC] (15 Disc Box Set)\1982 - Zipper Catches Skin\07 - Remarkably Insincere.wav

Peak level 95.1 %
Extraction speed 6.8 X
Track quality 100.0 %
Test CRC 0EF3EEB6
Copy CRC 0EF3EEB6
Cannot be verified as accurate (confidence 10) [4C60CEE6], AccurateRip returned [B0BA99AF] (AR v2)
Copy OK

Track 8

Filename C:\Users\Rob\Desktop\Uploads\Alice Cooper - The Studio Albums 1969-1983 (2015) [FLAC] (15 Disc Box Set)\1982 - Zipper Catches Skin\08 - Tag, You're It.wav

Pre-gap length 0:00:02.15

Peak level 90.5 %
Extraction speed 5.9 X
Track quality 99.9 %
Test CRC 59C806CC
Copy CRC 59C806CC
Cannot be verified as accurate (confidence 10) [255CA7FF], AccurateRip returned [6D808F5D] (AR v2)
Copy OK

Track 9

Filename C:\Users\Rob\Desktop\Uploads\Alice Cooper - The Studio Albums 1969-1983 (2015) [FLAC] (15 Disc Box Set)\1982 - Zipper Catches Skin\09 - I Better Be Good.wav

Pre-gap length 0:00:03.10

Peak level 93.5 %
Extraction speed 7.7 X
Track quality 100.0 %
Test CRC 1F959FC7
Copy CRC 1F959FC7
Cannot be verified as accurate (confidence 10) [A471D49B], AccurateRip returned [7C9D8E34] (AR v2)
Copy OK

Track 10

Filename C:\Users\Rob\Desktop\Uploads\Alice Cooper - The Studio Albums 1969-1983 (2015) [FLAC] (15 Disc Box Set)\1982 - Zipper Catches Skin\10 - I'm Alive (That Was The Day My Dead Pet Returned To Save My Life).wav

Pre-gap length 0:00:01.40

Peak level 93.9 %
Extraction speed 8.1 X
Track quality 100.0 %
Test CRC 0918EA47
Copy CRC 0918EA47
Cannot be verified as accurate (confidence 10) [F0A00746], AccurateRip returned [50EF6101] (AR v2)
Copy OK


No tracks could be verified as accurate
You may have a different pressing from the one(s) in the database

No errors occurred

End of status report

==== Log checksum 0E62BF674C436C5824C8DC918A172E3768545FBB74F9F8C4A71E8CC7B475615F ====

––-

Exact Audio Copy V1.0 beta 3 from 29. August 2011

EAC extraction logfile from 21. August 2015, 14:28

Alice Cooper / DaDa

Used drive : ATAPI iHBS212 2 Adapter: 3 ID: 0

Read mode : Secure
Utilize accurate stream : Yes
Defeat audio cache : Yes
Make use of C2 pointers : No

Read offset correction : 6
Overread into Lead-In and Lead-Out : No
Fill up missing offset samples with silence : Yes
Delete leading and trailing silent blocks : No
Null samples used in CRC calculations : Yes
Used interface : Native Win32 interface for Win NT & 2000
Gap handling : Appended to previous track

Used output format : User Defined Encoder
Selected bitrate : 128 kBit/s
Quality : High
Add ID3 tag : No
Command line compressor : C:\Program Files (x86)\Exact Audio Copy\Flac\flac.exe
Additional command line options : -8 -V -T "ARTIST=%artist%" -T "TITLE=%title%" -T "ALBUM=%albumtitle%" -T "DATE=%year%" -T "TRACKNUMBER=%tracknr%" -T "TOTALTRACKS=%numtracks%" -T "GENRE=%genre%" -T "ALBUMARTIST=%albumartist%" -T "ALBUM ARTIST=%albumartist%" -T "COMMENT=EAC Secure Mode, Test & Copy, AccurateRip, FLAC -8" %source%


TOC of the extracted CD

Track | Start | Length | Start sector | End sector
––––––––––––––––––––––––––––-
1 | 0:00.00 | 4:45.28 | 0 | 21402
2 | 4:45.28 | 4:19.57 | 21403 | 40884
3 | 9:05.10 | 4:07.03 | 40885 | 59412
4 | 13:12.13 | 3:51.25 | 59413 | 76762
5 | 17:03.38 | 4:25.07 | 76763 | 96644
6 | 21:28.45 | 5:18.70 | 96645 | 120564
7 | 26:47.40 | 3:50.13 | 120565 | 137827
8 | 30:37.53 | 5:54.20 | 137828 | 164397
9 | 36:31.73 | 5:46.35 | 164398 | 190382


Track 1

Filename C:\Users\Rob\Desktop\Uploads\Alice Cooper - The Studio Albums 1969-1983 (2015) [FLAC] (15 Disc Box Set)\1983 - DaDa\01 - DaDa.wav

Pre-gap length 0:00:02.00

Peak level 99.3 %
Extraction speed 5.3 X
Track quality 100.0 %
Test CRC 5C3304A7
Copy CRC 5C3304A7
Cannot be verified as accurate (confidence 16) [B2EB06E5], AccurateRip returned [69CF11C1] (AR v2)
Copy OK

Track 2

Filename C:\Users\Rob\Desktop\Uploads\Alice Cooper - The Studio Albums 1969-1983 (2015) [FLAC] (15 Disc Box Set)\1983 - DaDa\02 - Enough's Enough.wav

Peak level 99.3 %
Extraction speed 5.9 X
Track quality 100.0 %
Test CRC 666CC4FA
Copy CRC 666CC4FA
Cannot be verified as accurate (confidence 15) [4F3E35ED], AccurateRip returned [A34CD8D3] (AR v2)
Copy OK

Track 3

Filename C:\Users\Rob\Desktop\Uploads\Alice Cooper - The Studio Albums 1969-1983 (2015) [FLAC] (15 Disc Box Set)\1983 - DaDa\03 - Former Lee Warmer.wav

Peak level 99.3 %
Extraction speed 6.4 X
Track quality 100.0 %
Test CRC DE738EC9
Copy CRC DE738EC9
Cannot be verified as accurate (confidence 16) [A51A49CA], AccurateRip returned [4E92E1BF] (AR v2)
Copy OK

Track 4

Filename C:\Users\Rob\Desktop\Uploads\Alice Cooper - The Studio Albums 1969-1983 (2015) [FLAC] (15 Disc Box Set)\1983 - DaDa\04 - No Man's Land.wav

Pre-gap length 0:00:00.33

Peak level 99.3 %
Extraction speed 6.8 X
Track quality 100.0 %
Test CRC 320FA253
Copy CRC 320FA253
Cannot be verified as accurate (confidence 16) [A271586A], AccurateRip returned [DA0161CC] (AR v2)
Copy OK

Track 5

Filename C:\Users\Rob\Desktop\Uploads\Alice Cooper - The Studio Albums 1969-1983 (2015) [FLAC] (15 Disc Box Set)\1983 - DaDa\05 - Dyslexia.wav

Pre-gap length 0:00:01.15

Peak level 99.3 %
Extraction speed 7.4 X
Track quality 100.0 %
Test CRC 2024A866
Copy CRC 2024A866
Cannot be verified as accurate (confidence 16) [68724C60], AccurateRip returned [5718816F] (AR v2)
Copy OK

Track 6

Filename C:\Users\Rob\Desktop\Uploads\Alice Cooper - The Studio Albums 1969-1983 (2015) [FLAC] (15 Disc Box Set)\1983 - DaDa\06 - Scarlet And Sheba.wav

Peak level 99.3 %
Extraction speed 8.1 X
Track quality 100.0 %
Test CRC 92D5C43D
Copy CRC 92D5C43D
Cannot be verified as accurate (confidence 16) [1A413233], AccurateRip returned [8FF0ADEF] (AR v2)
Copy OK

Track 7

Filename C:\Users\Rob\Desktop\Uploads\Alice Cooper - The Studio Albums 1969-1983 (2015) [FLAC] (15 Disc Box Set)\1983 - DaDa\07 - I Love America.wav

Peak level 99.3 %
Extraction speed 8.2 X
Track quality 100.0 %
Test CRC B659FB10
Copy CRC B659FB10
Cannot be verified as accurate (confidence 16) [FC47C62B], AccurateRip returned [9BACC898] (AR v2)
Copy OK

Track 8

Filename C:\Users\Rob\Desktop\Uploads\Alice Cooper - The Studio Albums 1969-1983 (2015) [FLAC] (15 Disc Box Set)\1983 - DaDa\08 - Fresh Blood.wav

Pre-gap length 0:00:02.48

Peak level 99.3 %
Extraction speed 9.0 X
Track quality 100.0 %
Test CRC DEA5E259
Copy CRC DEA5E259
Cannot be verified as accurate (confidence 16) [19A24DF3], AccurateRip returned [9A9FB5F7] (AR v2)
Copy OK

Track 9

Filename C:\Users\Rob\Desktop\Uploads\Alice Cooper - The Studio Albums 1969-1983 (2015) [FLAC] (15 Disc Box Set)\1983 - DaDa\09 - Pass The Gun Around.wav

Pre-gap length 0:00:00.35

Peak level 99.3 %
Extraction speed 9.5 X
Track quality 100.0 %
Test CRC A5F983DE
Copy CRC A5F983DE
Cannot be verified as accurate (confidence 16) [B0D4DAC3], AccurateRip returned [8B3B583B] (AR v2)
Copy OK


No tracks could be verified as accurate
You may have a different pressing from the one(s) in the database

No errors occurred

End of status report

==== Log checksum 83B8A4BCCE98F24B88B82724ED6FF72A1771FBAF3C7C7CCCAA6910750A95AC65 ====



Alice Cooper - The Studio Albums 1969-1983 (2015) {15 Disc Box Set Rhino-Warner 081227953744}

Alice Cooper - The Studio Albums 1969-1983 (2015) {15 Disc Box Set Rhino-Warner 081227953744}

Alice Cooper - The Studio Albums 1969-1983 (2015) {15 Disc Box Set Rhino-Warner 081227953744}

Alice Cooper - The Studio Albums 1969-1983 (2015) {15 Disc Box Set Rhino-Warner 081227953744}

Alice Cooper - The Studio Albums 1969-1983 (2015) {15 Disc Box Set Rhino-Warner 081227953744}

Alice Cooper - The Studio Albums 1969-1983 (2015) {15 Disc Box Set Rhino-Warner 081227953744}



===