Subcategories
Tags
Language
Tags

Anonymous 4 & Bruce Molsky - 1865: Songs of Hope and Home from the American Civil War (2015)

Posted By: delpotro
Anonymous 4 & Bruce Molsky - 1865: Songs of Hope and Home from the American Civil War (2015)

Anonymous 4 & Bruce Molsky - 1865: Songs of Hope and Home from the American Civil War (2015)
XLD Rip | FLAC (tracks+log+.cue) - 308 Mb | MP3 CBR 320 kbps - 156 Mb | 01:06:49
Folk | Label: harmonia mundi

1865 focuses on the personal experience of men, women, and children from the North and from the South, toward the end of the Civil War and in its immediate aftermath – as told in songs originally written for the stage and for the parlor, and in songs and instrumental tunes from the hills and back roads of America. Many of the songs in 1865 were published between 1861 and 1865; others first appeared in print earlier, but were sung constantly during the terrible war years, perhaps in an effort to bring to mind the familiar and the good. Yet other songs and instrumental tunes are not datable; by the year 1865, they had already been passed down from generation to generation without the aid of the printed page. Whatever their origins or history or musical style, these songs are the stylized, versified “stories” prized by millions of Americans who lived through “This Cruel War.” They describe the cause and the call to fight; the agony of separation of lovers or of mothers and sons; the hopes, fears, and sacrifices of those who remained at home during the long wait for news of loved ones; the experiences of the soldiers themselves – especially their desperate longing for home and family; homecoming for those who survived; grief for those who did not; and the hope for reconciliation amidst a troubled peace.
Tracklist:
1. Anonymous 4 & Bruce Molsky – Weeping, Sad and Lonely, or, When this Cruel War is Over (05:23)
2. Anonymous 4 & Bruce Molsky – Darling Nelly Gray (05:32)
3. Anonymous 4 & Bruce Molsky – Hard times come again no more (04:21)
4. Anonymous 4 – Sweet Evelina (02:56)
5. Bruce Molsky – Bright Sunny South (03:20)
6. Anonymous 4 & Bruce Molsky – The Southern Soldier Boy / Rebel Raid (03:47)
7. Anonymous 4 – Tenting on the Old Camp Ground (04:36)
8. Jacqueline Horner-Kwiatek & Bruce Molsky – Aura Lea (05:56)
9. Anonymous 4 & Bruce Molsky – Listen to the Mocking Bird (03:16)
10. Bruce Molsky – Camp Chase (02:18)
11. Bruce Molsky – Brother Green (02:58)
12. Anonymous 4 & Bruce Molsky – The Faded Coat of Blue, or, The Nameless Grave (03:32)
13. Ruth Cunningham & Bruce Molsky – The Maiden in the Garden (03:39)
14. Marsha Genensky & Bruce Molsky – The True Lover's Farewell (02:28)
15. Anonymous 4 & Bruce Molsky – Home, Sweet Home / Polly Put the Kettle On (03:10)
16. Anonymous 4 & Bruce Molsky – The Picture on the Wall (03:01)
17. Anonymous 4 – Abide with Me (03:25)
18. Anonymous 4 & Bruce Molsky – Shall We Gather At The River (03:05)
19. Anonymous 4 & Bruce Molsky – The Land of Beulah (Bonus Track) (03:23)

X Lossless Decoder version 20151214 (149.1)

XLD extraction logfile from 2016-06-26 12:23:25 -0400

Anonymous 4 & Bruce Molsky / 1865: Songs of Hope and Home from the American Civil War

Used drive : MATSHITA DVD-R UJ-8A8 (revision HB14)
Media type : Pressed CD

Ripper mode : XLD Secure Ripper
Disable audio cache : OK for the drive with a cache less than 1375KiB
Make use of C2 pointers : NO
Read offset correction : 102
Max retry count : 20
Gap status : Analyzed, Appended (except HTOA)

TOC of the extracted CD
Track | Start | Length | Start sector | End sector
––––––––––––––––––––––––––––-
1 | 00:00:00 | 05:23:16 | 0 | 24240
2 | 05:23:16 | 05:32:32 | 24241 | 49172
3 | 10:55:48 | 04:21:04 | 49173 | 68751
4 | 15:16:52 | 02:56:24 | 68752 | 81975
5 | 18:13:01 | 03:20:07 | 81976 | 96982
6 | 21:33:08 | 03:47:72 | 96983 | 114079
7 | 25:21:05 | 04:36:19 | 114080 | 134798
8 | 29:57:24 | 05:56:11 | 134799 | 161509
9 | 35:53:35 | 03:16:12 | 161510 | 176221
10 | 39:09:47 | 02:18:46 | 176222 | 186617
11 | 41:28:18 | 02:58:53 | 186618 | 200020
12 | 44:26:71 | 03:32:26 | 200021 | 215946
13 | 47:59:22 | 03:39:51 | 215947 | 232422
14 | 51:38:73 | 02:28:66 | 232423 | 243588
15 | 54:07:64 | 03:10:17 | 243589 | 257855
16 | 57:18:06 | 03:01:43 | 257856 | 271473
17 | 60:19:49 | 03:25:20 | 271474 | 286868
18 | 63:44:69 | 03:04:13 | 286869 | 300681

AccurateRip Summary (DiscID: 002f59ef-02678e1e-060fa912)
Track 01 : OK (v2, confidence 7/7)
Track 02 : OK (v2, confidence 7/7)
Track 03 : OK (v2, confidence 7/7)
Track 04 : OK (v2, confidence 7/7)
Track 05 : OK (v2, confidence 7/7)
Track 06 : OK (v2, confidence 7/7)
Track 07 : OK (v2, confidence 7/7)
Track 08 : OK (v2, confidence 7/7)
Track 09 : OK (v2, confidence 7/7)
Track 10 : OK (v2, confidence 7/7)
Track 11 : OK (v2, confidence 7/7)
Track 12 : OK (v2, confidence 7/7)
Track 13 : OK (v2, confidence 7/7)
Track 14 : OK (v2, confidence 7/7)
Track 15 : OK (v2, confidence 7/7)
Track 16 : OK (v2, confidence 7/7)
Track 17 : OK (v2, confidence 7/7)
Track 18 : OK (v2, confidence 7/7)
->All tracks accurately ripped.

All Tracks
Album gain : -1.87 dB
Peak : 0.979187
Statistics
Read error : 0
Jitter error (maybe fixed) : 0
Retry sector count : 0
Damaged sector count : 0

Track 01
Filename : /Users/brad/Downloads/rips/Anonymous 4 & Bruce Molsky - 1865_ Songs of Hope and Home from the American Civil War (2015) [FLAC]/01 Weeping, Sad and Lonely, or, When this Cruel War is Over.flac
/Users/brad/Downloads/rips/Anonymous 4 & Bruce Molsky - 1865_ Songs of Hope and Home from the American Civil War (2015) [320]/01 Weeping, Sad and Lonely, or, When this Cruel War is Over.mp3
Pre-gap length : 00:02:00

Track gain : -2.76 dB
Peak : 0.687042
CRC32 hash (test run) : 40D58C94
CRC32 hash : 40D58C94
CRC32 hash (skip zero) : 9D8B63C8
AccurateRip v1 signature : BD01BB42
AccurateRip v2 signature : 0E101129
->Accurately ripped (v2, confidence 7/7)
Statistics
Read error : 0
Jitter error (maybe fixed) : 0
Retry sector count : 0
Damaged sector count : 0

Track 02
Filename : /Users/brad/Downloads/rips/Anonymous 4 & Bruce Molsky - 1865_ Songs of Hope and Home from the American Civil War (2015) [FLAC]/02 Darling Nelly Gray.flac
/Users/brad/Downloads/rips/Anonymous 4 & Bruce Molsky - 1865_ Songs of Hope and Home from the American Civil War (2015) [320]/02 Darling Nelly Gray.mp3

Track gain : -1.01 dB
Peak : 0.828766
CRC32 hash (test run) : D79EA92D
CRC32 hash : D79EA92D
CRC32 hash (skip zero) : BC24EEFD
AccurateRip v1 signature : E04D07C1
AccurateRip v2 signature : 2EAC1E51
->Accurately ripped (v2, confidence 7/7)
Statistics
Read error : 0
Jitter error (maybe fixed) : 0
Retry sector count : 0
Damaged sector count : 0

Track 03
Filename : /Users/brad/Downloads/rips/Anonymous 4 & Bruce Molsky - 1865_ Songs of Hope and Home from the American Civil War (2015) [FLAC]/03 Hard times come again no more.flac
/Users/brad/Downloads/rips/Anonymous 4 & Bruce Molsky - 1865_ Songs of Hope and Home from the American Civil War (2015) [320]/03 Hard times come again no more.mp3

Track gain : -4.12 dB
Peak : 0.979187
CRC32 hash (test run) : 1982E59B
CRC32 hash : 1982E59B
CRC32 hash (skip zero) : 2D599116
AccurateRip v1 signature : D0198F36
AccurateRip v2 signature : B9633D66
->Accurately ripped (v2, confidence 7/7)
Statistics
Read error : 0
Jitter error (maybe fixed) : 0
Retry sector count : 0
Damaged sector count : 0

Track 04
Filename : /Users/brad/Downloads/rips/Anonymous 4 & Bruce Molsky - 1865_ Songs of Hope and Home from the American Civil War (2015) [FLAC]/04 Sweet Evelina.flac
/Users/brad/Downloads/rips/Anonymous 4 & Bruce Molsky - 1865_ Songs of Hope and Home from the American Civil War (2015) [320]/04 Sweet Evelina.mp3

Track gain : 1.93 dB
Peak : 0.666504
CRC32 hash (test run) : 07B8641C
CRC32 hash : 07B8641C
CRC32 hash (skip zero) : 7448B9F2
AccurateRip v1 signature : CBD464E7
AccurateRip v2 signature : 38C78DE1
->Accurately ripped (v2, confidence 7/7)
Statistics
Read error : 0
Jitter error (maybe fixed) : 0
Retry sector count : 0
Damaged sector count : 0

Track 05
Filename : /Users/brad/Downloads/rips/Anonymous 4 & Bruce Molsky - 1865_ Songs of Hope and Home from the American Civil War (2015) [FLAC]/05 Bright Sunny South.flac
/Users/brad/Downloads/rips/Anonymous 4 & Bruce Molsky - 1865_ Songs of Hope and Home from the American Civil War (2015) [320]/05 Bright Sunny South.mp3

Track gain : -2.71 dB
Peak : 0.976196
CRC32 hash (test run) : CB9087A8
CRC32 hash : CB9087A8
CRC32 hash (skip zero) : A4C80A72
AccurateRip v1 signature : 28E7C120
AccurateRip v2 signature : 8DA618B8
->Accurately ripped (v2, confidence 7/7)
Statistics
Read error : 0
Jitter error (maybe fixed) : 0
Retry sector count : 0
Damaged sector count : 0

Track 06
Filename : /Users/brad/Downloads/rips/Anonymous 4 & Bruce Molsky - 1865_ Songs of Hope and Home from the American Civil War (2015) [FLAC]/06 The Southern Soldier Boy - Rebel Raid.flac
/Users/brad/Downloads/rips/Anonymous 4 & Bruce Molsky - 1865_ Songs of Hope and Home from the American Civil War (2015) [320]/06 The Southern Soldier Boy - Rebel Raid.mp3

Track gain : -2.22 dB
Peak : 0.859436
CRC32 hash (test run) : 5AF19BD1
CRC32 hash : 5AF19BD1
CRC32 hash (skip zero) : C1E2C815
AccurateRip v1 signature : 79C43C57
AccurateRip v2 signature : A508E9B2
->Accurately ripped (v2, confidence 7/7)
Statistics
Read error : 0
Jitter error (maybe fixed) : 0
Retry sector count : 0
Damaged sector count : 0

Track 07
Filename : /Users/brad/Downloads/rips/Anonymous 4 & Bruce Molsky - 1865_ Songs of Hope and Home from the American Civil War (2015) [FLAC]/07 Tenting on the Old Camp Ground.flac
/Users/brad/Downloads/rips/Anonymous 4 & Bruce Molsky - 1865_ Songs of Hope and Home from the American Civil War (2015) [320]/07 Tenting on the Old Camp Ground.mp3

Track gain : 1.40 dB
Peak : 0.858002
CRC32 hash (test run) : E35B4445
CRC32 hash : E35B4445
CRC32 hash (skip zero) : 2B8A048A
AccurateRip v1 signature : 538D3D13
AccurateRip v2 signature : 9639E850
->Accurately ripped (v2, confidence 7/7)
Statistics
Read error : 0
Jitter error (maybe fixed) : 0
Retry sector count : 0
Damaged sector count : 0

Track 08
Filename : /Users/brad/Downloads/rips/Anonymous 4 & Bruce Molsky - 1865_ Songs of Hope and Home from the American Civil War (2015) [FLAC]/08 Aura Lea.flac
/Users/brad/Downloads/rips/Anonymous 4 & Bruce Molsky - 1865_ Songs of Hope and Home from the American Civil War (2015) [320]/08 Aura Lea.mp3

Track gain : 0.53 dB
Peak : 0.464905
CRC32 hash (test run) : 3DE480C1
CRC32 hash : 3DE480C1
CRC32 hash (skip zero) : 84B5596B
AccurateRip v1 signature : 9CECB481
AccurateRip v2 signature : 6B30E8CB
->Accurately ripped (v2, confidence 7/7)
Statistics
Read error : 0
Jitter error (maybe fixed) : 0
Retry sector count : 0
Damaged sector count : 0

Track 09
Filename : /Users/brad/Downloads/rips/Anonymous 4 & Bruce Molsky - 1865_ Songs of Hope and Home from the American Civil War (2015) [FLAC]/09 Listen to the Mocking Bird.flac
/Users/brad/Downloads/rips/Anonymous 4 & Bruce Molsky - 1865_ Songs of Hope and Home from the American Civil War (2015) [320]/09 Listen to the Mocking Bird.mp3

Track gain : -1.49 dB
Peak : 0.974182
CRC32 hash (test run) : 57B85306
CRC32 hash : 57B85306
CRC32 hash (skip zero) : 55CB1B83
AccurateRip v1 signature : 1F86815F
AccurateRip v2 signature : CC71AECF
->Accurately ripped (v2, confidence 7/7)
Statistics
Read error : 0
Jitter error (maybe fixed) : 0
Retry sector count : 0
Damaged sector count : 0

Track 10
Filename : /Users/brad/Downloads/rips/Anonymous 4 & Bruce Molsky - 1865_ Songs of Hope and Home from the American Civil War (2015) [FLAC]/10 Camp Chase.flac
/Users/brad/Downloads/rips/Anonymous 4 & Bruce Molsky - 1865_ Songs of Hope and Home from the American Civil War (2015) [320]/10 Camp Chase.mp3

Track gain : -0.16 dB
Peak : 0.601532
CRC32 hash (test run) : A601814C
CRC32 hash : A601814C
CRC32 hash (skip zero) : DDEA5F24
AccurateRip v1 signature : 1103842F
AccurateRip v2 signature : 51467B4B
->Accurately ripped (v2, confidence 7/7)
Statistics
Read error : 0
Jitter error (maybe fixed) : 0
Retry sector count : 0
Damaged sector count : 0

Track 11
Filename : /Users/brad/Downloads/rips/Anonymous 4 & Bruce Molsky - 1865_ Songs of Hope and Home from the American Civil War (2015) [FLAC]/11 Brother Green.flac
/Users/brad/Downloads/rips/Anonymous 4 & Bruce Molsky - 1865_ Songs of Hope and Home from the American Civil War (2015) [320]/11 Brother Green.mp3

Track gain : -3.20 dB
Peak : 0.965271
CRC32 hash (test run) : 650543BD
CRC32 hash : 650543BD
CRC32 hash (skip zero) : CA766364
AccurateRip v1 signature : 80C5B2B6
AccurateRip v2 signature : 832AEA6B
->Accurately ripped (v2, confidence 7/7)
Statistics
Read error : 0
Jitter error (maybe fixed) : 0
Retry sector count : 0
Damaged sector count : 0

Track 12
Filename : /Users/brad/Downloads/rips/Anonymous 4 & Bruce Molsky - 1865_ Songs of Hope and Home from the American Civil War (2015) [FLAC]/12 The Faded Coat of Blue, or, The Nameless Grave.flac
/Users/brad/Downloads/rips/Anonymous 4 & Bruce Molsky - 1865_ Songs of Hope and Home from the American Civil War (2015) [320]/12 The Faded Coat of Blue, or, The Nameless Grave.mp3

Track gain : -4.30 dB
Peak : 0.953918
CRC32 hash (test run) : B8B414CC
CRC32 hash : B8B414CC
CRC32 hash (skip zero) : A1ABE263
AccurateRip v1 signature : B272916D
AccurateRip v2 signature : 30E1CE70
->Accurately ripped (v2, confidence 7/7)
Statistics
Read error : 0
Jitter error (maybe fixed) : 0
Retry sector count : 0
Damaged sector count : 0

Track 13
Filename : /Users/brad/Downloads/rips/Anonymous 4 & Bruce Molsky - 1865_ Songs of Hope and Home from the American Civil War (2015) [FLAC]/13 The Maiden in the Garden.flac
/Users/brad/Downloads/rips/Anonymous 4 & Bruce Molsky - 1865_ Songs of Hope and Home from the American Civil War (2015) [320]/13 The Maiden in the Garden.mp3

Track gain : -0.24 dB
Peak : 0.735443
CRC32 hash (test run) : 5FC49EED
CRC32 hash : 5FC49EED
CRC32 hash (skip zero) : 4DE39DE8
AccurateRip v1 signature : 0E2EC9BD
AccurateRip v2 signature : 19301256
->Accurately ripped (v2, confidence 7/7)
Statistics
Read error : 0
Jitter error (maybe fixed) : 0
Retry sector count : 0
Damaged sector count : 0

Track 14
Filename : /Users/brad/Downloads/rips/Anonymous 4 & Bruce Molsky - 1865_ Songs of Hope and Home from the American Civil War (2015) [FLAC]/14 The True Lover's Farewell.flac
/Users/brad/Downloads/rips/Anonymous 4 & Bruce Molsky - 1865_ Songs of Hope and Home from the American Civil War (2015) [320]/14 The True Lover's Farewell.mp3

Track gain : 0.60 dB
Peak : 0.520752
CRC32 hash (test run) : 1769BB80
CRC32 hash : 1769BB80
CRC32 hash (skip zero) : 0CD76F33
AccurateRip v1 signature : B7CB0ADE
AccurateRip v2 signature : 3AB7DA96
->Accurately ripped (v2, confidence 7/7)
Statistics
Read error : 0
Jitter error (maybe fixed) : 0
Retry sector count : 0
Damaged sector count : 0

Track 15
Filename : /Users/brad/Downloads/rips/Anonymous 4 & Bruce Molsky - 1865_ Songs of Hope and Home from the American Civil War (2015) [FLAC]/15 Home, Sweet Home - Polly Put the Kettle On.flac
/Users/brad/Downloads/rips/Anonymous 4 & Bruce Molsky - 1865_ Songs of Hope and Home from the American Civil War (2015) [320]/15 Home, Sweet Home - Polly Put the Kettle On.mp3

Track gain : -1.89 dB
Peak : 0.938995
CRC32 hash (test run) : BF8C2F28
CRC32 hash : BF8C2F28
CRC32 hash (skip zero) : 0498611E
AccurateRip v1 signature : 779DAE97
AccurateRip v2 signature : 99169DBA
->Accurately ripped (v2, confidence 7/7)
Statistics
Read error : 0
Jitter error (maybe fixed) : 0
Retry sector count : 0
Damaged sector count : 0

Track 16
Filename : /Users/brad/Downloads/rips/Anonymous 4 & Bruce Molsky - 1865_ Songs of Hope and Home from the American Civil War (2015) [FLAC]/16 The Picture on the Wall.flac
/Users/brad/Downloads/rips/Anonymous 4 & Bruce Molsky - 1865_ Songs of Hope and Home from the American Civil War (2015) [320]/16 The Picture on the Wall.mp3

Track gain : 0.99 dB
Peak : 0.748749
CRC32 hash (test run) : 79D6FD6A
CRC32 hash : 79D6FD6A
CRC32 hash (skip zero) : 44CD7FC1
AccurateRip v1 signature : BF7A036C
AccurateRip v2 signature : 234D57C8
->Accurately ripped (v2, confidence 7/7)
Statistics
Read error : 0
Jitter error (maybe fixed) : 0
Retry sector count : 0
Damaged sector count : 0

Track 17
Filename : /Users/brad/Downloads/rips/Anonymous 4 & Bruce Molsky - 1865_ Songs of Hope and Home from the American Civil War (2015) [FLAC]/17 Abide with Me.flac
/Users/brad/Downloads/rips/Anonymous 4 & Bruce Molsky - 1865_ Songs of Hope and Home from the American Civil War (2015) [320]/17 Abide with Me.mp3

Track gain : -0.38 dB
Peak : 0.707458
CRC32 hash (test run) : 4BF4391B
CRC32 hash : 4BF4391B
CRC32 hash (skip zero) : 2E4646A2
AccurateRip v1 signature : 4E967A67
AccurateRip v2 signature : 2072D3B1
->Accurately ripped (v2, confidence 7/7)
Statistics
Read error : 0
Jitter error (maybe fixed) : 0
Retry sector count : 0
Damaged sector count : 0

Track 18
Filename : /Users/brad/Downloads/rips/Anonymous 4 & Bruce Molsky - 1865_ Songs of Hope and Home from the American Civil War (2015) [FLAC]/18 Shall We Gather At The River.flac
/Users/brad/Downloads/rips/Anonymous 4 & Bruce Molsky - 1865_ Songs of Hope and Home from the American Civil War (2015) [320]/18 Shall We Gather At The River.mp3

Track gain : 0.10 dB
Peak : 0.557068
CRC32 hash (test run) : C741D2A6
CRC32 hash : C741D2A6
CRC32 hash (skip zero) : 7951E52F
AccurateRip v1 signature : 73A7DBEC
AccurateRip v2 signature : 59C4C984
->Accurately ripped (v2, confidence 7/7)
Statistics
Read error : 0
Jitter error (maybe fixed) : 0
Retry sector count : 0
Damaged sector count : 0

No errors occurred

End of status report

––-BEGIN XLD SIGNATURE––-
XtVAyqAQqbspqQ5TMYqWfLBG0R0e9QSapJ7CoSBoGJc7omQiaCOKPILON_bSH2rmL7Z94e6f8xfOgf8vC9EDVP.JmKDy8KIxaLNDU6W
––-END XLD SIGNATURE––-

Thanks to the Original ripper !