Tags
Language
Tags

Bert Jansch - Just a Simple Soul (2018)

Posted By: delpotro
Bert Jansch - Just a Simple Soul (2018)

Bert Jansch - Just a Simple Soul (2018)
XLD Rip | FLAC (tracks+log+.cue) - 661 Mb | MP3 CBR 320 kbps - 317 Mb | 02:18:05
Folk, Folk Rock, Singer-Songwriter | Label: BMG Rights Management, Sanctuary Records

Compiled by Bernard Butler and the Bert Jansch estate, Just A Simple Soul is the first comprehensive Best Of collection spanning Bert Jansch’s 5-decade-long career. Presented chronologically, the collection begins by drawing from Bert's prolific 1960s period, during which he released six albums between 1965 and 1969; the 1970s records start off the collection's second disc, running all the way to Bert's final studio album, The Black Swan, in 2006.
Tracklist:
Disc 1
1. Strolling Down The Highway
2. Angie
3. Needle Of Death
4. It Don't Bother Me
5. A Man I'd Rather Be
6. The Waggoner's Lad
7. Black Water Side
8. Soho (with John Renbourn)
9. The Time Has Come
10. Go Your Way My Love
11. Come Back Baby
12. Poison
13. Promised Land
14. The Bright New Year
15. Rosemary Lane
16. Reynardine
17. M'Lady Nancy
18. Moonshine
19. The First Time Ever I Saw Your Face

Disc 2
1. Fresh As A Sweet Sunday Morning
2. Chambertin
3. The Blacksmith
4. Baby Blue
5. Daybreak
6. Kittiwake
7. Up To The Stars
8. Sweet Rose
9. The Road Tae Dundee
10. Let Me Sing (Live)
11. When The Circus Comes To Town
12. Morning Brings Peace Of Mind
13. Toy Balloon
14. Carnival
15. Just A Simple Soul
16. Crimson Moon
17. Omie Wise
18. On The Edge Of A Dream
19. The Black Swan
20. High Days

X Lossless Decoder version 20210101 (153.1)

XLD extraction logfile from 2021-07-18 13:16:31 -0700

Bert Jansch / Just a Simple Soul (Disc 1)

Used drive : HL-DT-ST DVDRAM GP65NB60 (revision PF00)
Media type : Pressed CD

Ripper mode : XLD Secure Ripper
Disable audio cache : OK for the drive with a cache less than 1375KiB
Make use of C2 pointers : NO
Read offset correction : 6
Max retry count : 20
Gap status : Analyzed, Appended (except HTOA)

TOC of the extracted CD
Track | Start | Length | Start sector | End sector
––––––––––––––––––––––––––––-
1 | 00:00:00 | 03:03:70 | 0 | 13794
2 | 03:03:70 | 03:11:23 | 13795 | 28142
3 | 06:15:18 | 03:19:41 | 28143 | 43108
4 | 09:34:59 | 04:25:45 | 43109 | 63028
5 | 14:00:29 | 02:05:23 | 63029 | 72426
6 | 16:05:52 | 03:26:01 | 72427 | 87877
7 | 19:31:53 | 03:44:72 | 87878 | 104749
8 | 23:16:50 | 03:00:68 | 104750 | 118317
9 | 26:17:43 | 02:55:12 | 118318 | 131454
10 | 29:12:55 | 04:19:27 | 131455 | 150906
11 | 33:32:07 | 02:58:17 | 150907 | 164273
12 | 36:30:24 | 03:15:19 | 164274 | 178917
13 | 39:45:43 | 02:51:07 | 178918 | 191749
14 | 42:36:50 | 01:33:04 | 191750 | 198728
15 | 44:09:54 | 04:03:58 | 198729 | 217011
16 | 48:13:37 | 05:21:60 | 217012 | 241146
17 | 53:35:22 | 02:33:61 | 241147 | 252682
18 | 56:09:08 | 04:55:71 | 252683 | 274878
19 | 61:05:04 | 02:58:21 | 274879 | 288249

AccurateRip Summary (DiscID: 002b0d4d-025c33f1-340f0313)
Track 01 : OK (v2, confidence 8/8)
Track 02 : OK (v2, confidence 8/8)
Track 03 : OK (v2, confidence 8/8)
Track 04 : OK (v2, confidence 8/8)
Track 05 : OK (v2, confidence 8/8)
Track 06 : OK (v2, confidence 8/8)
Track 07 : OK (v2, confidence 8/8)
Track 08 : OK (v2, confidence 8/8)
Track 09 : OK (v2, confidence 8/8)
Track 10 : OK (v2, confidence 8/8)
Track 11 : OK (v2, confidence 8/8)
Track 12 : OK (v2, confidence 8/8)
Track 13 : OK (v2, confidence 8/8)
Track 14 : OK (v2, confidence 8/8)
Track 15 : OK (v2, confidence 8/8)
Track 16 : OK (v2, confidence 8/8)
Track 17 : OK (v2, confidence 8/8)
Track 18 : OK (v2, confidence 8/8)
Track 19 : OK (v2, confidence 8/8)
->All tracks accurately ripped.

All Tracks
Album gain : -1.59 dB
Peak : 0.943939
Statistics
Read error : 0
Jitter error (maybe fixed) : 0
Retry sector count : 0
Damaged sector count : 0

Track 01
Filename : /Volumes/El Segundo/Rips/Bert Jansch - Just a Simple Soul (Disc 1) (2018) [FLAC]/01 Strolling Down the Highway.flac
Pre-gap length : 00:02:00

Track gain : -3.50 dB
Peak : 0.943939
CRC32 hash (test run) : A93E141C
CRC32 hash : A93E141C
CRC32 hash (skip zero) : CBA3CD4A
AccurateRip v1 signature : 8CD223B9
AccurateRip v2 signature : 98D8FA44
->Accurately ripped (v2, confidence 8/8)
Statistics
Read error : 0
Jitter error (maybe fixed) : 0
Retry sector count : 0
Damaged sector count : 0

Track 02
Filename : /Volumes/El Segundo/Rips/Bert Jansch - Just a Simple Soul (Disc 1) (2018) [FLAC]/02 Angie.flac
Pre-gap length : 00:01:58

Track gain : -1.91 dB
Peak : 0.943939
CRC32 hash (test run) : 566A84E1
CRC32 hash : 566A84E1
CRC32 hash (skip zero) : 48BEA61C
AccurateRip v1 signature : 30257B31
AccurateRip v2 signature : DB14BC31
->Accurately ripped (v2, confidence 8/8)
Statistics
Read error : 0
Jitter error (maybe fixed) : 0
Retry sector count : 0
Damaged sector count : 0

Track 03
Filename : /Volumes/El Segundo/Rips/Bert Jansch - Just a Simple Soul (Disc 1) (2018) [FLAC]/03 Needle of Death.flac
Pre-gap length : 00:01:74

Track gain : -1.71 dB
Peak : 0.920563
CRC32 hash (test run) : A838F183
CRC32 hash : A838F183
CRC32 hash (skip zero) : 00ED2941
AccurateRip v1 signature : 4D874851
AccurateRip v2 signature : 4C8579DD
->Accurately ripped (v2, confidence 8/8)
Statistics
Read error : 0
Jitter error (maybe fixed) : 0
Retry sector count : 0
Damaged sector count : 0

Track 04
Filename : /Volumes/El Segundo/Rips/Bert Jansch - Just a Simple Soul (Disc 1) (2018) [FLAC]/04 It Don't Bother Me.flac
Pre-gap length : 00:01:36

Track gain : -1.81 dB
Peak : 0.927399
CRC32 hash (test run) : 83EEE07B
CRC32 hash : 83EEE07B
CRC32 hash (skip zero) : 38E1E327
AccurateRip v1 signature : 4B7837EE
AccurateRip v2 signature : ACBA8B08
->Accurately ripped (v2, confidence 8/8)
Statistics
Read error : 0
Jitter error (maybe fixed) : 0
Retry sector count : 0
Damaged sector count : 0

Track 05
Filename : /Volumes/El Segundo/Rips/Bert Jansch - Just a Simple Soul (Disc 1) (2018) [FLAC]/05 A Man I'd Rather Be.flac
Pre-gap length : 00:01:36

Track gain : -3.59 dB
Peak : 0.943939
CRC32 hash (test run) : 8A71DEAB
CRC32 hash : 8A71DEAB
CRC32 hash (skip zero) : 6B8B42B8
AccurateRip v1 signature : 46610D11
AccurateRip v2 signature : 6FC8DBBC
->Accurately ripped (v2, confidence 8/8)
Statistics
Read error : 0
Jitter error (maybe fixed) : 0
Retry sector count : 0
Damaged sector count : 0

Track 06
Filename : /Volumes/El Segundo/Rips/Bert Jansch - Just a Simple Soul (Disc 1) (2018) [FLAC]/06 The Waggoner's Lad.flac
Pre-gap length : 00:01:37

Track gain : -1.67 dB
Peak : 0.726990
CRC32 hash (test run) : 058AA0BA
CRC32 hash : 058AA0BA
CRC32 hash (skip zero) : 5A7F6D11
AccurateRip v1 signature : 19F1862A
AccurateRip v2 signature : 9F515C5F
->Accurately ripped (v2, confidence 8/8)
Statistics
Read error : 0
Jitter error (maybe fixed) : 0
Retry sector count : 0
Damaged sector count : 0

Track 07
Filename : /Volumes/El Segundo/Rips/Bert Jansch - Just a Simple Soul (Disc 1) (2018) [FLAC]/07 Black Water Side.flac
Pre-gap length : 00:01:70

Track gain : -1.42 dB
Peak : 0.852539
CRC32 hash (test run) : 4DF36EC0
CRC32 hash : 4DF36EC0
CRC32 hash (skip zero) : 8349394C
AccurateRip v1 signature : 765D254F
AccurateRip v2 signature : 14200043
->Accurately ripped (v2, confidence 8/8)
Statistics
Read error : 0
Jitter error (maybe fixed) : 0
Retry sector count : 0
Damaged sector count : 0

Track 08
Filename : /Volumes/El Segundo/Rips/Bert Jansch - Just a Simple Soul (Disc 1) (2018) [FLAC]/08 Soho.flac
Pre-gap length : 00:01:33

Track gain : -2.33 dB
Peak : 0.878082
CRC32 hash (test run) : 0E8402B3
CRC32 hash : 0E8402B3
CRC32 hash (skip zero) : 47CA86DB
AccurateRip v1 signature : 08CEB32D
AccurateRip v2 signature : 9179C0CA
->Accurately ripped (v2, confidence 8/8)
Statistics
Read error : 0
Jitter error (maybe fixed) : 0
Retry sector count : 0
Damaged sector count : 0

Track 09
Filename : /Volumes/El Segundo/Rips/Bert Jansch - Just a Simple Soul (Disc 1) (2018) [FLAC]/09 The Time Has Come.flac
Pre-gap length : 00:01:66

Track gain : 1.58 dB
Peak : 0.933411
CRC32 hash (test run) : 47A2FEBB
CRC32 hash : 47A2FEBB
CRC32 hash (skip zero) : FD1C6EBC
AccurateRip v1 signature : 588B9300
AccurateRip v2 signature : 63421717
->Accurately ripped (v2, confidence 8/8)
Statistics
Read error : 0
Jitter error (maybe fixed) : 0
Retry sector count : 0
Damaged sector count : 0

Track 10
Filename : /Volumes/El Segundo/Rips/Bert Jansch - Just a Simple Soul (Disc 1) (2018) [FLAC]/10 On Your Way My Love.flac
Pre-gap length : 00:01:74

Track gain : -1.04 dB
Peak : 0.943939
CRC32 hash (test run) : 130779C7
CRC32 hash : 130779C7
CRC32 hash (skip zero) : AC1DD215
AccurateRip v1 signature : 64F19A1C
AccurateRip v2 signature : 9F1E365D
->Accurately ripped (v2, confidence 8/8)
Statistics
Read error : 0
Jitter error (maybe fixed) : 0
Retry sector count : 0
Damaged sector count : 0

Track 11
Filename : /Volumes/El Segundo/Rips/Bert Jansch - Just a Simple Soul (Disc 1) (2018) [FLAC]/11 Come Back Baby.flac
Pre-gap length : 00:01:54

Track gain : -1.86 dB
Peak : 0.916687
CRC32 hash (test run) : 79231269
CRC32 hash : 79231269
CRC32 hash (skip zero) : 68E84D8F
AccurateRip v1 signature : 427D9BFA
AccurateRip v2 signature : A700FE76
->Accurately ripped (v2, confidence 8/8)
Statistics
Read error : 0
Jitter error (maybe fixed) : 0
Retry sector count : 0
Damaged sector count : 0

Track 12
Filename : /Volumes/El Segundo/Rips/Bert Jansch - Just a Simple Soul (Disc 1) (2018) [FLAC]/12 Poison.flac
Pre-gap length : 00:02:13

Track gain : -0.83 dB
Peak : 0.733978
CRC32 hash (test run) : 44A896CA
CRC32 hash : 44A896CA
CRC32 hash (skip zero) : 582304B3
AccurateRip v1 signature : 28E98BE6
AccurateRip v2 signature : D7350E48
->Accurately ripped (v2, confidence 8/8)
Statistics
Read error : 0
Jitter error (maybe fixed) : 0
Retry sector count : 0
Damaged sector count : 0

Track 13
Filename : /Volumes/El Segundo/Rips/Bert Jansch - Just a Simple Soul (Disc 1) (2018) [FLAC]/13 Promised Land.flac
Pre-gap length : 00:02:17

Track gain : -2.40 dB
Peak : 0.797180
CRC32 hash (test run) : C0B96E0F
CRC32 hash : C0B96E0F
CRC32 hash (skip zero) : E56C5352
AccurateRip v1 signature : A592EDE9
AccurateRip v2 signature : 9706E62E
->Accurately ripped (v2, confidence 8/8)
Statistics
Read error : 0
Jitter error (maybe fixed) : 0
Retry sector count : 0
Damaged sector count : 0

Track 14
Filename : /Volumes/El Segundo/Rips/Bert Jansch - Just a Simple Soul (Disc 1) (2018) [FLAC]/14 The Bright New Year.flac
Pre-gap length : 00:01:62

Track gain : 0.69 dB
Peak : 0.854645
CRC32 hash (test run) : 89A0334F
CRC32 hash : 89A0334F
CRC32 hash (skip zero) : E0CA8B5E
AccurateRip v1 signature : 3C17C78A
AccurateRip v2 signature : EF320127
->Accurately ripped (v2, confidence 8/8)
Statistics
Read error : 0
Jitter error (maybe fixed) : 0
Retry sector count : 0
Damaged sector count : 0

Track 15
Filename : /Volumes/El Segundo/Rips/Bert Jansch - Just a Simple Soul (Disc 1) (2018) [FLAC]/15 Rosemary Lane.flac
Pre-gap length : 00:02:11

Track gain : -1.08 dB
Peak : 0.943939
CRC32 hash (test run) : EEF7B1BA
CRC32 hash : EEF7B1BA
CRC32 hash (skip zero) : 96199C7A
AccurateRip v1 signature : 73FBF1C0
AccurateRip v2 signature : 4573EFC5
->Accurately ripped (v2, confidence 8/8)
Statistics
Read error : 0
Jitter error (maybe fixed) : 0
Retry sector count : 0
Damaged sector count : 0

Track 16
Filename : /Volumes/El Segundo/Rips/Bert Jansch - Just a Simple Soul (Disc 1) (2018) [FLAC]/16 Reynardine.flac
Pre-gap length : 00:02:04

Track gain : -0.13 dB
Peak : 0.943939
CRC32 hash (test run) : 2AA74B80
CRC32 hash : 2AA74B80
CRC32 hash (skip zero) : B8B81256
AccurateRip v1 signature : 8154EC80
AccurateRip v2 signature : F25AAAE7
->Accurately ripped (v2, confidence 8/8)
Statistics
Read error : 0
Jitter error (maybe fixed) : 0
Retry sector count : 0
Damaged sector count : 0

Track 17
Filename : /Volumes/El Segundo/Rips/Bert Jansch - Just a Simple Soul (Disc 1) (2018) [FLAC]/17 M'lady Nancy.flac
Pre-gap length : 00:02:14

Track gain : 1.57 dB
Peak : 0.943939
CRC32 hash (test run) : 83D639E1
CRC32 hash : 83D639E1
CRC32 hash (skip zero) : 0965A855
AccurateRip v1 signature : 18E220F9
AccurateRip v2 signature : 09BABA75
->Accurately ripped (v2, confidence 8/8)
Statistics
Read error : 0
Jitter error (maybe fixed) : 0
Retry sector count : 0
Damaged sector count : 0

Track 18
Filename : /Volumes/El Segundo/Rips/Bert Jansch - Just a Simple Soul (Disc 1) (2018) [FLAC]/18 Moonshine.flac
Pre-gap length : 00:02:16

Track gain : -2.31 dB
Peak : 0.643066
CRC32 hash (test run) : 71C00084
CRC32 hash : 71C00084
CRC32 hash (skip zero) : 6A98035E
AccurateRip v1 signature : 440482B9
AccurateRip v2 signature : B213A1CF
->Accurately ripped (v2, confidence 8/8)
Statistics
Read error : 0
Jitter error (maybe fixed) : 0
Retry sector count : 0
Damaged sector count : 0

Track 19
Filename : /Volumes/El Segundo/Rips/Bert Jansch - Just a Simple Soul (Disc 1) (2018) [FLAC]/19 The First Time Ever I Saw Your Face.flac
Pre-gap length : 00:01:74

Track gain : -1.59 dB
Peak : 0.602478
CRC32 hash (test run) : 9CB8C4F0
CRC32 hash : 9CB8C4F0
CRC32 hash (skip zero) : 463E15B2
AccurateRip v1 signature : 07B40A0D
AccurateRip v2 signature : A3C4E7D5
->Accurately ripped (v2, confidence 8/8)
Statistics
Read error : 0
Jitter error (maybe fixed) : 0
Retry sector count : 0
Damaged sector count : 0

No errors occurred

End of status report

––-BEGIN XLD SIGNATURE––-
88jiEtpqgNqw.R6MbvszNq93FFNHByzpRvlDyflf_tJ6rCNL32cX9xVqPSLoszUVO6TW5.FfeyHYl.Tshs.TS9V9ah3wgfgQGINLw7a
––-END XLD SIGNATURE––-
X Lossless Decoder version 20210101 (153.1)

XLD extraction logfile from 2021-07-18 13:41:10 -0700

Bert Jansch / Just a Simple Soul (Disc 2)

Used drive : HL-DT-ST DVDRAM GP65NB60 (revision PF00)
Media type : Pressed CD

Ripper mode : XLD Secure Ripper
Disable audio cache : OK for the drive with a cache less than 1375KiB
Make use of C2 pointers : NO
Read offset correction : 6
Max retry count : 20
Gap status : Analyzed, Appended (except HTOA)

TOC of the extracted CD
Track | Start | Length | Start sector | End sector
––––––––––––––––––––––––––––-
1 | 00:00:00 | 04:03:19 | 0 | 18243
2 | 04:03:19 | 04:04:08 | 18244 | 36551
3 | 08:07:27 | 03:28:66 | 36552 | 52217
4 | 11:36:18 | 02:29:53 | 52218 | 63445
5 | 14:05:71 | 02:50:40 | 63446 | 76235
6 | 16:56:36 | 02:49:37 | 76236 | 88947
7 | 19:45:73 | 03:00:34 | 88948 | 102481
8 | 22:46:32 | 02:59:72 | 102482 | 115978
9 | 25:46:29 | 04:07:22 | 115979 | 134525
10 | 29:53:51 | 03:24:24 | 134526 | 149849
11 | 33:18:00 | 02:27:27 | 149850 | 160901
12 | 35:45:27 | 03:16:74 | 160902 | 175675
13 | 39:02:26 | 03:31:24 | 175676 | 191524
14 | 42:33:50 | 04:23:01 | 191525 | 211250
15 | 46:56:51 | 03:55:06 | 211251 | 228881
16 | 50:51:57 | 05:26:70 | 228882 | 253401
17 | 56:18:52 | 05:00:25 | 253402 | 275926
18 | 61:19:02 | 02:33:21 | 275927 | 287422
19 | 63:52:23 | 06:24:20 | 287423 | 316242
20 | 70:16:43 | 03:45:56 | 316243 | 333173

AccurateRip Summary (DiscID: 0031f0b6-02e26d0e-2f115a14)
Track 01 : OK (v2, confidence 8/8)
Track 02 : OK (v2, confidence 8/8)
Track 03 : OK (v2, confidence 8/8)
Track 04 : OK (v2, confidence 8/8)
Track 05 : OK (v2, confidence 8/8)
Track 06 : OK (v2, confidence 8/8)
Track 07 : OK (v2, confidence 8/8)
Track 08 : OK (v2, confidence 8/8)
Track 09 : OK (v2, confidence 8/8)
Track 10 : OK (v2, confidence 8/8)
Track 11 : OK (v2, confidence 8/8)
Track 12 : OK (v2, confidence 8/8)
Track 13 : OK (v2, confidence 8/8)
Track 14 : OK (v2, confidence 8/8)
Track 15 : OK (v2, confidence 8/8)
Track 16 : OK (v2, confidence 8/8)
Track 17 : OK (v2, confidence 8/8)
Track 18 : OK (v2, confidence 8/8)
Track 19 : OK (v2, confidence 8/8)
Track 20 : OK (v2, confidence 8/8)
->All tracks accurately ripped.

All Tracks
Album gain : -2.31 dB
Peak : 0.943939
Statistics
Read error : 0
Jitter error (maybe fixed) : 0
Retry sector count : 0
Damaged sector count : 0

Track 01
Filename : /Volumes/El Segundo/Rips/Bert Jansch - Just a Simple Soul (Disc 2) (2018) [FLAC]/01 Fresh As a Sweet Sunday Morning.flac
Pre-gap length : 00:02:00

Track gain : -3.06 dB
Peak : 0.778320
CRC32 hash (test run) : EB165562
CRC32 hash : EB165562
CRC32 hash (skip zero) : DAC411F6
AccurateRip v1 signature : A0592D3B
AccurateRip v2 signature : 2386034E
->Accurately ripped (v2, confidence 8/8)
Statistics
Read error : 0
Jitter error (maybe fixed) : 0
Retry sector count : 0
Damaged sector count : 0

Track 02
Filename : /Volumes/El Segundo/Rips/Bert Jansch - Just a Simple Soul (Disc 2) (2018) [FLAC]/02 Chamberlin.flac
Pre-gap length : 00:02:29

Track gain : -1.68 dB
Peak : 0.851105
CRC32 hash (test run) : 3419FDA9
CRC32 hash : 3419FDA9
CRC32 hash (skip zero) : B79CE5C6
AccurateRip v1 signature : 15C7FEB1
AccurateRip v2 signature : 163A39C8
->Accurately ripped (v2, confidence 8/8)
Statistics
Read error : 0
Jitter error (maybe fixed) : 0
Retry sector count : 0
Damaged sector count : 0

Track 03
Filename : /Volumes/El Segundo/Rips/Bert Jansch - Just a Simple Soul (Disc 2) (2018) [FLAC]/03 The Blacksmith.flac
Pre-gap length : 00:01:52

Track gain : -2.76 dB
Peak : 0.873749
CRC32 hash (test run) : 2C43D50A
CRC32 hash : 2C43D50A
CRC32 hash (skip zero) : 6980C351
AccurateRip v1 signature : 533B1457
AccurateRip v2 signature : A6D66496
->Accurately ripped (v2, confidence 8/8)
Statistics
Read error : 0
Jitter error (maybe fixed) : 0
Retry sector count : 0
Damaged sector count : 0

Track 04
Filename : /Volumes/El Segundo/Rips/Bert Jansch - Just a Simple Soul (Disc 2) (2018) [FLAC]/04 Baby Blue.flac
Pre-gap length : 00:01:61

Track gain : -3.50 dB
Peak : 0.843353
CRC32 hash (test run) : AD66867F
CRC32 hash : AD66867F
CRC32 hash (skip zero) : F884945F
AccurateRip v1 signature : 3A174FF5
AccurateRip v2 signature : FEC86116
->Accurately ripped (v2, confidence 8/8)
Statistics
Read error : 0
Jitter error (maybe fixed) : 0
Retry sector count : 0
Damaged sector count : 0

Track 05
Filename : /Volumes/El Segundo/Rips/Bert Jansch - Just a Simple Soul (Disc 2) (2018) [FLAC]/05 Daybreak.flac
Pre-gap length : 00:01:49

Track gain : -1.97 dB
Peak : 0.799408
CRC32 hash (test run) : C2691D12
CRC32 hash : C2691D12
CRC32 hash (skip zero) : 3C5D79AF
AccurateRip v1 signature : 09FB4B21
AccurateRip v2 signature : 1F6B4B7F
->Accurately ripped (v2, confidence 8/8)
Statistics
Read error : 0
Jitter error (maybe fixed) : 0
Retry sector count : 0
Damaged sector count : 0

Track 06
Filename : /Volumes/El Segundo/Rips/Bert Jansch - Just a Simple Soul (Disc 2) (2018) [FLAC]/06 Kittiwake.flac
Pre-gap length : 00:01:66

Track gain : -3.55 dB
Peak : 0.729797
CRC32 hash (test run) : C95E8F44
CRC32 hash : C95E8F44
CRC32 hash (skip zero) : AF9B15A5
AccurateRip v1 signature : FA0EA67C
AccurateRip v2 signature : BDF8F613
->Accurately ripped (v2, confidence 8/8)
Statistics
Read error : 0
Jitter error (maybe fixed) : 0
Retry sector count : 0
Damaged sector count : 0

Track 07
Filename : /Volumes/El Segundo/Rips/Bert Jansch - Just a Simple Soul (Disc 2) (2018) [FLAC]/07 Up to the Stars.flac
Pre-gap length : 00:01:64

Track gain : -3.11 dB
Peak : 0.700836
CRC32 hash (test run) : 7084C183
CRC32 hash : 7084C183
CRC32 hash (skip zero) : B9A66F95
AccurateRip v1 signature : 87C885C9
AccurateRip v2 signature : A6854695
->Accurately ripped (v2, confidence 8/8)
Statistics
Read error : 0
Jitter error (maybe fixed) : 0
Retry sector count : 0
Damaged sector count : 0

Track 08
Filename : /Volumes/El Segundo/Rips/Bert Jansch - Just a Simple Soul (Disc 2) (2018) [FLAC]/08 Sweet Rose.flac
Pre-gap length : 00:02:00

Track gain : -0.98 dB
Peak : 0.831696
CRC32 hash (test run) : C8AFF546
CRC32 hash : C8AFF546
CRC32 hash (skip zero) : 999C1FF8
AccurateRip v1 signature : 95F5B1A5
AccurateRip v2 signature : A3B521A7
->Accurately ripped (v2, confidence 8/8)
Statistics
Read error : 0
Jitter error (maybe fixed) : 0
Retry sector count : 0
Damaged sector count : 0

Track 09
Filename : /Volumes/El Segundo/Rips/Bert Jansch - Just a Simple Soul (Disc 2) (2018) [FLAC]/09 The Road Tae Dundee.flac
Pre-gap length : 00:01:40

Track gain : -3.16 dB
Peak : 0.729797
CRC32 hash (test run) : E71FA396
CRC32 hash : E71FA396
CRC32 hash (skip zero) : 20D363D9
AccurateRip v1 signature : 66E3284E
AccurateRip v2 signature : 63DC7CFF
->Accurately ripped (v2, confidence 8/8)
Statistics
Read error : 0
Jitter error (maybe fixed) : 0
Retry sector count : 0
Damaged sector count : 0

Track 10
Filename : /Volumes/El Segundo/Rips/Bert Jansch - Just a Simple Soul (Disc 2) (2018) [FLAC]/10 Let Me Sing (Live).flac
Pre-gap length : 00:01:59

Track gain : -2.32 dB
Peak : 0.683807
CRC32 hash (test run) : F8486FD8
CRC32 hash : F8486FD8
CRC32 hash (skip zero) : 9D6DC910
AccurateRip v1 signature : E4EDE3CF
AccurateRip v2 signature : 628D57E1
->Accurately ripped (v2, confidence 8/8)
Statistics
Read error : 0
Jitter error (maybe fixed) : 0
Retry sector count : 0
Damaged sector count : 0

Track 11
Filename : /Volumes/El Segundo/Rips/Bert Jansch - Just a Simple Soul (Disc 2) (2018) [FLAC]/11 When the Circus Comes to Town.flac
Pre-gap length : 00:02:03

Track gain : -1.96 dB
Peak : 0.943939
CRC32 hash (test run) : F24D3419
CRC32 hash : F24D3419
CRC32 hash (skip zero) : 3133FD3C
AccurateRip v1 signature : 319083F5
AccurateRip v2 signature : 1A8AA80D
->Accurately ripped (v2, confidence 8/8)
Statistics
Read error : 0
Jitter error (maybe fixed) : 0
Retry sector count : 0
Damaged sector count : 0

Track 12
Filename : /Volumes/El Segundo/Rips/Bert Jansch - Just a Simple Soul (Disc 2) (2018) [FLAC]/12 Morning Brings Peace of Mind.flac
Pre-gap length : 00:01:31

Track gain : -1.06 dB
Peak : 0.943939
CRC32 hash (test run) : E8AB0BF4
CRC32 hash : E8AB0BF4
CRC32 hash (skip zero) : 1BA63889
AccurateRip v1 signature : A901800B
AccurateRip v2 signature : C1E65C50
->Accurately ripped (v2, confidence 8/8)
Statistics
Read error : 0
Jitter error (maybe fixed) : 0
Retry sector count : 0
Damaged sector count : 0

Track 13
Filename : /Volumes/El Segundo/Rips/Bert Jansch - Just a Simple Soul (Disc 2) (2018) [FLAC]/13 Toy Balloon.flac
Pre-gap length : 00:01:40

Track gain : -2.75 dB
Peak : 0.754089
CRC32 hash (test run) : 0FBD9B40
CRC32 hash : 0FBD9B40
CRC32 hash (skip zero) : F209F429
AccurateRip v1 signature : 71B777AB
AccurateRip v2 signature : 66DFCAC0
->Accurately ripped (v2, confidence 8/8)
Statistics
Read error : 0
Jitter error (maybe fixed) : 0
Retry sector count : 0
Damaged sector count : 0

Track 14
Filename : /Volumes/El Segundo/Rips/Bert Jansch - Just a Simple Soul (Disc 2) (2018) [FLAC]/14 Carnival.flac
Pre-gap length : 00:01:35

Track gain : -1.93 dB
Peak : 0.857452
CRC32 hash (test run) : D8C517EF
CRC32 hash : D8C517EF
CRC32 hash (skip zero) : 8A1DB33C
AccurateRip v1 signature : 18DE78C7
AccurateRip v2 signature : CEA8F102
->Accurately ripped (v2, confidence 8/8)
Statistics
Read error : 0
Jitter error (maybe fixed) : 0
Retry sector count : 0
Damaged sector count : 0

Track 15
Filename : /Volumes/El Segundo/Rips/Bert Jansch - Just a Simple Soul (Disc 2) (2018) [FLAC]/15 Just a Simple Soul.flac
Pre-gap length : 00:01:49

Track gain : -2.08 dB
Peak : 0.809479
CRC32 hash (test run) : 6AA661DC
CRC32 hash : 6AA661DC
CRC32 hash (skip zero) : A0A9885E
AccurateRip v1 signature : 37DE548D
AccurateRip v2 signature : 96BA2880
->Accurately ripped (v2, confidence 8/8)
Statistics
Read error : 0
Jitter error (maybe fixed) : 0
Retry sector count : 0
Damaged sector count : 0

Track 16
Filename : /Volumes/El Segundo/Rips/Bert Jansch - Just a Simple Soul (Disc 2) (2018) [FLAC]/16 Crimson Moon.flac
Pre-gap length : 00:01:49

Track gain : 1.45 dB
Peak : 0.943939
CRC32 hash (test run) : 4752C811
CRC32 hash : 4752C811
CRC32 hash (skip zero) : 7B9242B3
AccurateRip v1 signature : B5CA76AA
AccurateRip v2 signature : AA40359E
->Accurately ripped (v2, confidence 8/8)
Statistics
Read error : 0
Jitter error (maybe fixed) : 0
Retry sector count : 0
Damaged sector count : 0

Track 17
Filename : /Volumes/El Segundo/Rips/Bert Jansch - Just a Simple Soul (Disc 2) (2018) [FLAC]/17 Omie Wise.flac
Pre-gap length : 00:01:27

Track gain : -0.39 dB
Peak : 0.943939
CRC32 hash (test run) : C8BFEBD1
CRC32 hash : C8BFEBD1
CRC32 hash (skip zero) : 1C7431FC
AccurateRip v1 signature : 1F0C56E0
AccurateRip v2 signature : CD77DC29
->Accurately ripped (v2, confidence 8/8)
Statistics
Read error : 0
Jitter error (maybe fixed) : 0
Retry sector count : 0
Damaged sector count : 0

Track 18
Filename : /Volumes/El Segundo/Rips/Bert Jansch - Just a Simple Soul (Disc 2) (2018) [FLAC]/18 On the Edge of a Dream.flac
Pre-gap length : 00:01:19

Track gain : -3.13 dB
Peak : 0.668243
CRC32 hash (test run) : 3C884128
CRC32 hash : 3C884128
CRC32 hash (skip zero) : E4BCE73F
AccurateRip v1 signature : 887B056C
AccurateRip v2 signature : 73D9462D
->Accurately ripped (v2, confidence 8/8)
Statistics
Read error : 0
Jitter error (maybe fixed) : 0
Retry sector count : 0
Damaged sector count : 0

Track 19
Filename : /Volumes/El Segundo/Rips/Bert Jansch - Just a Simple Soul (Disc 2) (2018) [FLAC]/19 The Black Swan.flac
Pre-gap length : 00:00:69

Track gain : -2.89 dB
Peak : 0.691742
CRC32 hash (test run) : 7506F266
CRC32 hash : 7506F266
CRC32 hash (skip zero) : C3A97C3A
AccurateRip v1 signature : 0F00391C
AccurateRip v2 signature : 267A778C
->Accurately ripped (v2, confidence 8/8)
Statistics
Read error : 0
Jitter error (maybe fixed) : 0
Retry sector count : 0
Damaged sector count : 0

Track 20
Filename : /Volumes/El Segundo/Rips/Bert Jansch - Just a Simple Soul (Disc 2) (2018) [FLAC]/20 High Days.flac
Pre-gap length : 00:01:27

Track gain : -3.12 dB
Peak : 0.794220
CRC32 hash (test run) : EEF0D790
CRC32 hash : EEF0D790
CRC32 hash (skip zero) : 858061BD
AccurateRip v1 signature : 84E4C1CA
AccurateRip v2 signature : F496ECC3
->Accurately ripped (v2, confidence 8/8)
Statistics
Read error : 0
Jitter error (maybe fixed) : 0
Retry sector count : 0
Damaged sector count : 0

No errors occurred

End of status report

––-BEGIN XLD SIGNATURE––-
qMvILT39GH8PUgZzYAZlwcKM3Yz_jjENlD8gc06OPIg8yj5bmd6nTJ1mTgBgH_Lt9FXSG5_eoQxvHFTY2Mt2pAPKEwo2gz2Vr0yBFlu
––-END XLD SIGNATURE––-

Thanks to the Original ripper !