Subcategories

Bill Nelson - My Secret Studio, Vol. 1 (2017) {4CD Box Set Cocteau Discs COCD 41013 rec 1988-1992}

Posted By: ruskaval
Bill Nelson - My Secret Studio, Vol. 1 (2017) {4CD Box Set Cocteau Discs COCD 41013 rec 1988-1992}

Bill Nelson - My Secret Studio, Vol. 1 (2017) {4CD Box Set Cocteau Discs COCD 41013 rec 1988-1992}
EAC rip (secure mode) | FLAC (tracks)+CUE+LOG -> 1.39 Gb | MP3 @320 -> 554 Mb
Full Artwork @ 600 dpi (png) -> 598 Mb | 5% repair rar
© 1988-92, 2017 Cocteau Discs / Esoteric Recordings / Bill Nelson / Cherry Red Records | COCD 41013
Rock / Alternative / Ambient / Experimental / Modern Instrumental / Post Rock / Guitar

My Secret Studio really isn't a secret, and never has been, unless you count the period of time when problems of life and surroundings seemed to make it impossible for Bill Nelson to actually get anything musical out into the open. His larger commercial connections had evaporated, his own label had been wracked by unethical behavior by his manager, and his life as a whole seemed to be one gigantically complex knot. Rather than letting these problems crushing the inspiration out of him, Nelson was energized by them. He might not have been able to release much of a anything for a while, but this didn't stop him from recording hundreds of new songs and instrumental pieces.

My Secret Studio, Vol. 1 is one distillation of the four years between 1988 and 1992, organizing 65 songs into four discs (three of these have been made available separately from the box set; Juke Box for Jet Boy remains available only as part of the complete box.) A packet of Nelson's photo-artwork is also included as an added bonus. My Secret Studio mostly focuses on songs throughout, with the Deep Dream Decoder and Juke Box for Jet Boy discs including some examples of Nelson's floating instrumental work. The first two discs, Buddha Head and Electricity Made Us Angels, take the form of statement and contemplation, providing an initial form, though this proves less important than a simple progression through the songs themselves – order definitely is not an issue here. The box set itself has become difficult to find – only 2,000 copies were pressed – but it is certainly worth acquiring, as the price is reasonable.
• A DELUXE LIMITED EDITION REMASTERED 4 CD CLAMSHELL BOXED SET REISSUE OF THE CLASSIC LIMITED EDITION SET ORIGINALLY RELEASED IN 1995 BY BILL NELSON
• FEATURING THE ALBUMS “BUDDAH HEAD”, “ELECTRICITY MADE US ANGELS”, “DEEP DREAM DECODER” & “JUKEBOX FOR JET BOY” – RECORDED BETWEEN 1988 – 1992

Esoteric Recordings’ imprint Cocteau Discs, dedicated to the work of BILL NELSON, are proud to announce the release of a deluxe 4 disc clamshell boxed set limited edition of the classic collection “My Secret Studio – Volume One”.

Originally issued as a limited edition release in 1995, “My Secret Studio” featured a collection of recordings made by Bill Nelson between 1988 and 1992; “Buddah Head”, “Electricity Made Us Angels”, “Deep Dream Decoder” and “Jukebox for Jet Boy”. In his notes for the original release, Bill explained the original recordings thus; “Between the years 1988 and 1992 my life underwent some severe changes…both emotional and financial. During that time I used my home studios to create sketches of songs for possible development with a potential band. The band, for various and nefarious reasons, never materialised. What you will hear is the raw stuff of dreams, instant song writing with a vengeance”.

“My Secret Studio – Volume One” has now become a highly regarded collection of songs in the prolific discography of Bill Nelson. Long out of print, this Cocteau Discs re-mastered limited edition presents these wonderful albums once again, restoring the original artwork in the collection in a clamshell boxed set.
Bill Nelson - My Secret Studio, Vol. 1 (2017) {4CD Box Set Cocteau Discs COCD 41013 rec 1988-1992}


Tracklisting:

DISC ONE:
BUDDAH HEAD


1. MY PHILOSOPHY
2. KILLING MY DESIRES
3. BUDDHA HEAD
4. THE WAY
5. BIG RIVER
6. KARMA KISSES
7. WE WILL RISE
8. SIGNS AND SIGNALS
9. LOTUS IN THE STREAM
10. ENLIGHTENMENT
11. ETERNALLY
12. DUALITY
13. PERFECT WORLD
14. THE HEART HAS ITS REASONS
15. SUN WILL RISE
16. THE BIG ILLUMINATION
17. LIFE AS WE KNOW IT

Bill Nelson - My Secret Studio, Vol. 1 (2017) {4CD Box Set Cocteau Discs COCD 41013 rec 1988-1992}


DISC TWO:
ELECTRICITY MADE US ANGELS


1. BEGIN TO BURN
2. HEAVENS HAPPY HEMISPHERE
3. GOD IN HER EYES
4. FLOAT AWAY
5. BIG BLUE DAY
6. SWEET IS THE MYSTERY
7. IF WISHES WERE HORSES
8. FAIR WINDS AND FLYING BOATS
9. OCEAN OVER BLUE
10. RIVER OF LOVE
11. THIS IS DESTINY
12. WONDERS NEVER CEASE
13. NOTHING YET
14. GOD THUNDERED BY
15. SHE SENDS ME

Bill Nelson - My Secret Studio, Vol. 1 (2017) {4CD Box Set Cocteau Discs COCD 41013 rec 1988-1992}


DISC THREE:
DEEP DREAM DECODER


1. THINGS TO COME
2. GOD BLESS ME
3. RISE…(ABOVE THESE THINGS)
4. SNOWING OUTSIDE
5. IT’S ALL TRUE
6. A HEAD FULL OF LIGHTS AND A HAT FULL OF HALOES
7. THE GIRLS I’VE LOVED
8. AMAZING THINGS
9. DEEP DREAM DECODER
10. DISSOLVE
11. YEAR 44 (THE BIRTHDAY SONG)
12. WING AND A PRAYER
13. DREAMNOISE AND ANGEL
14. TIRED EYES
15. GOLDEN GIRL
16. THE SPARK

Bill Nelson - My Secret Studio, Vol. 1 (2017) {4CD Box Set Cocteau Discs COCD 41013 rec 1988-1992}


DISC FOUR:
JUKE BOX FOR JET BOY


1. SHE’S SO EXTREME
2. ON A TRAIN I NEVER BOARDED
3. SAIL AWAY
4. ONLY DREAMING
5. SWING WITH THE RHYTHM BOYS
6. THE KING AND QUEEN OF NOW OR NEVER
7. HOLD ON TO YOUR HEART
8. TURN ME OVER
9. RUN AWAY
10. IT’S ALWAYS MAYBE
11. DREAM UP, BILLY
12. ALL YOU NEED TO KNOW
13. WARM AND WONDERFUL
14. A THING ABOUT THAT
15. NO FOOL FOR YOU
16. LIVING FOR TODAY
17. BIRDS IN BLUE SKY AGAIN

Bill Nelson - My Secret Studio, Vol. 1 (2017) {4CD Box Set Cocteau Discs COCD 41013 rec 1988-1992}


Restored original artwork
Recorded between 1988-1992
4CD Deluxe Clamshell Box Set, Limited Edition, 24-bit digital remastering


Exact Audio Copy V1.3 from 2. September 2016

EAC extraction logfile from 9. April 2017, 0:07

Bill Nelson / My Secret Studio, Vol. 1 (CD1) - Buddha Head

Used drive : HL-DT-STDVDRAM GT20N Adapter: 1 ID: 0

Read mode : Secure
Utilize accurate stream : Yes
Defeat audio cache : Yes
Make use of C2 pointers : No

Read offset correction : 667
Overread into Lead-In and Lead-Out : No
Fill up missing offset samples with silence : Yes
Delete leading and trailing silent blocks : No
Null samples used in CRC calculations : Yes
Used interface : Native Win32 interface for Win NT & 2000
Gap handling : Appended to previous track

Used output format : User Defined Encoder
Selected bitrate : 1024 kBit/s
Quality : High
Add ID3 tag : No
Command line compressor : C:\Program Files (x86)\FLAC Frontend\tools\flac.exe
Additional command line options : -8 -V -T "ARTIST=%artist%" -T "TITLE=%title%" -T "ALBUM=%albumtitle%" -T "DATE=%year%" -T "TRACKNUMBER=%tracknr%" -T "TOTALTRACKS=%numtracks%" -T "GENRE=%genre%" -T "ALBUMARTIST=%albumartist%" -T "ALBUM ARTIST=%albumartist%" -T "COMMENT=EAC Secure Mode, Test & Copy, AccurateRip, FLAC -8" %source%


TOC of the extracted CD

Track | Start | Length | Start sector | End sector
––––––––––––––––––––––––––––-
1 | 0:00.00 | 3:36.68 | 0 | 16267
2 | 3:36.68 | 5:08.13 | 16268 | 39380
3 | 8:45.06 | 3:23.38 | 39381 | 54643
4 | 12:08.44 | 3:53.56 | 54644 | 72174
5 | 16:02.25 | 4:09.64 | 72175 | 90913
6 | 20:12.14 | 2:37.17 | 90914 | 102705
7 | 22:49.31 | 3:27.17 | 102706 | 118247
8 | 26:16.48 | 4:49.65 | 118248 | 139987
9 | 31:06.38 | 3:33.01 | 139988 | 155963
10 | 34:39.39 | 4:29.43 | 155964 | 176181
11 | 39:09.07 | 3:10.46 | 176182 | 190477
12 | 42:19.53 | 4:12.51 | 190478 | 209428
13 | 46:32.29 | 4:46.73 | 209429 | 230951
14 | 51:19.27 | 4:41.24 | 230952 | 252050
15 | 56:00.51 | 4:06.07 | 252051 | 270507
16 | 60:06.58 | 3:58.37 | 270508 | 288394
17 | 64:05.20 | 3:07.47 | 288395 | 302466


Track 1

Filename C:\EAC_FLAC\Bill Nelson - My Secret Studio, Vol. 1 (2017) [FLAC] {4CD Box Set Cocteau Discs COCD 41013 rec 1988-1992}\CD1 - Buddha Head\01 - My Philosophy.wav

Pre-gap length 0:00:02.00

Peak level 99.4 %
Extraction speed 1.2 X
Track quality 100.0 %
Test CRC B3C51537
Copy CRC B3C51537
Accurately ripped (confidence 2) [834E7CD1] (AR v2)
Copy OK

Track 2

Filename C:\EAC_FLAC\Bill Nelson - My Secret Studio, Vol. 1 (2017) [FLAC] {4CD Box Set Cocteau Discs COCD 41013 rec 1988-1992}\CD1 - Buddha Head\02 - Killing My Desires.wav

Pre-gap length 0:00:02.31

Peak level 99.4 %
Extraction speed 1.4 X
Track quality 100.0 %
Test CRC CD63262B
Copy CRC CD63262B
Accurately ripped (confidence 2) [6189B32E] (AR v2)
Copy OK

Track 3

Filename C:\EAC_FLAC\Bill Nelson - My Secret Studio, Vol. 1 (2017) [FLAC] {4CD Box Set Cocteau Discs COCD 41013 rec 1988-1992}\CD1 - Buddha Head\03 - Buddha Head.wav

Pre-gap length 0:00:01.64

Peak level 99.4 %
Extraction speed 1.2 X
Track quality 99.9 %
Test CRC 268F00C3
Copy CRC 268F00C3
Accurately ripped (confidence 2) [87825A6D] (AR v2)
Copy OK

Track 4

Filename C:\EAC_FLAC\Bill Nelson - My Secret Studio, Vol. 1 (2017) [FLAC] {4CD Box Set Cocteau Discs COCD 41013 rec 1988-1992}\CD1 - Buddha Head\04 - The Way.wav

Pre-gap length 0:00:01.55

Peak level 99.4 %
Extraction speed 1.5 X
Track quality 100.0 %
Test CRC 04DFD14D
Copy CRC 04DFD14D
Accurately ripped (confidence 2) [F27D88B3] (AR v2)
Copy OK

Track 5

Filename C:\EAC_FLAC\Bill Nelson - My Secret Studio, Vol. 1 (2017) [FLAC] {4CD Box Set Cocteau Discs COCD 41013 rec 1988-1992}\CD1 - Buddha Head\05 - Big River.wav

Pre-gap length 0:00:02.36

Peak level 99.4 %
Extraction speed 1.6 X
Track quality 100.0 %
Test CRC B3F23D22
Copy CRC B3F23D22
Accurately ripped (confidence 2) [324A9D04] (AR v2)
Copy OK

Track 6

Filename C:\EAC_FLAC\Bill Nelson - My Secret Studio, Vol. 1 (2017) [FLAC] {4CD Box Set Cocteau Discs COCD 41013 rec 1988-1992}\CD1 - Buddha Head\06 - Karma Kisses.wav

Pre-gap length 0:00:01.20

Peak level 99.4 %
Extraction speed 1.6 X
Track quality 100.0 %
Test CRC A301E365
Copy CRC A301E365
Accurately ripped (confidence 2) [9C445240] (AR v2)
Copy OK

Track 7

Filename C:\EAC_FLAC\Bill Nelson - My Secret Studio, Vol. 1 (2017) [FLAC] {4CD Box Set Cocteau Discs COCD 41013 rec 1988-1992}\CD1 - Buddha Head\07 - We Will Rise.wav

Pre-gap length 0:00:01.42

Peak level 99.4 %
Extraction speed 1.8 X
Track quality 100.0 %
Test CRC A36279A1
Copy CRC A36279A1
Accurately ripped (confidence 2) [32D62B4E] (AR v2)
Copy OK

Track 8

Filename C:\EAC_FLAC\Bill Nelson - My Secret Studio, Vol. 1 (2017) [FLAC] {4CD Box Set Cocteau Discs COCD 41013 rec 1988-1992}\CD1 - Buddha Head\08 - Signs And Signals.wav

Pre-gap length 0:00:01.63

Peak level 99.4 %
Extraction speed 1.9 X
Track quality 100.0 %
Test CRC BBA1F40C
Copy CRC BBA1F40C
Accurately ripped (confidence 2) [B6CDA46C] (AR v2)
Copy OK

Track 9

Filename C:\EAC_FLAC\Bill Nelson - My Secret Studio, Vol. 1 (2017) [FLAC] {4CD Box Set Cocteau Discs COCD 41013 rec 1988-1992}\CD1 - Buddha Head\09 - Lotus In The Stream.wav

Pre-gap length 0:00:01.66

Peak level 99.4 %
Extraction speed 1.9 X
Track quality 100.0 %
Test CRC 72AE58D3
Copy CRC 72AE58D3
Accurately ripped (confidence 2) [AE71EB3F] (AR v2)
Copy OK

Track 10

Filename C:\EAC_FLAC\Bill Nelson - My Secret Studio, Vol. 1 (2017) [FLAC] {4CD Box Set Cocteau Discs COCD 41013 rec 1988-1992}\CD1 - Buddha Head\10 - Enlightenment.wav

Pre-gap length 0:00:01.72

Peak level 99.4 %
Extraction speed 1.8 X
Track quality 99.9 %
Test CRC 6B547D4F
Copy CRC 6B547D4F
Accurately ripped (confidence 2) [68A9E6C9] (AR v2)
Copy OK

Track 11

Filename C:\EAC_FLAC\Bill Nelson - My Secret Studio, Vol. 1 (2017) [FLAC] {4CD Box Set Cocteau Discs COCD 41013 rec 1988-1992}\CD1 - Buddha Head\11 - Eternally.wav

Pre-gap length 0:00:01.34

Peak level 99.4 %
Extraction speed 2.1 X
Track quality 100.0 %
Test CRC D6E2B140
Copy CRC D6E2B140
Accurately ripped (confidence 2) [08550565] (AR v2)
Copy OK

Track 12

Filename C:\EAC_FLAC\Bill Nelson - My Secret Studio, Vol. 1 (2017) [FLAC] {4CD Box Set Cocteau Discs COCD 41013 rec 1988-1992}\CD1 - Buddha Head\12 - Duality.wav

Pre-gap length 0:00:01.19

Peak level 99.4 %
Extraction speed 2.0 X
Track quality 99.9 %
Test CRC AC27E148
Copy CRC AC27E148
Accurately ripped (confidence 2) [178FC4A8] (AR v2)
Copy OK

Track 13

Filename C:\EAC_FLAC\Bill Nelson - My Secret Studio, Vol. 1 (2017) [FLAC] {4CD Box Set Cocteau Discs COCD 41013 rec 1988-1992}\CD1 - Buddha Head\13 - Perfect World.wav

Pre-gap length 0:00:01.27

Peak level 99.4 %
Extraction speed 2.3 X
Track quality 100.0 %
Test CRC 6DA39C1B
Copy CRC 6DA39C1B
Accurately ripped (confidence 2) [84DFA508] (AR v2)
Copy OK

Track 14

Filename C:\EAC_FLAC\Bill Nelson - My Secret Studio, Vol. 1 (2017) [FLAC] {4CD Box Set Cocteau Discs COCD 41013 rec 1988-1992}\CD1 - Buddha Head\14 - The Heart Has Its Reasons.wav

Pre-gap length 0:00:01.53

Peak level 99.4 %
Extraction speed 2.4 X
Track quality 100.0 %
Test CRC F93A241F
Copy CRC F93A241F
Accurately ripped (confidence 2) [121FB67E] (AR v2)
Copy OK

Track 15

Filename C:\EAC_FLAC\Bill Nelson - My Secret Studio, Vol. 1 (2017) [FLAC] {4CD Box Set Cocteau Discs COCD 41013 rec 1988-1992}\CD1 - Buddha Head\15 - Sun Will Rise.wav

Pre-gap length 0:00:02.35

Peak level 99.4 %
Extraction speed 2.4 X
Track quality 100.0 %
Test CRC 1E2EDA37
Copy CRC 1E2EDA37
Accurately ripped (confidence 2) [5DB91DF6] (AR v2)
Copy OK

Track 16

Filename C:\EAC_FLAC\Bill Nelson - My Secret Studio, Vol. 1 (2017) [FLAC] {4CD Box Set Cocteau Discs COCD 41013 rec 1988-1992}\CD1 - Buddha Head\16 - The Big Illumination.wav

Pre-gap length 0:00:03.09

Peak level 99.4 %
Extraction speed 2.5 X
Track quality 100.0 %
Test CRC 28536B8E
Copy CRC 28536B8E
Accurately ripped (confidence 2) [0C23430B] (AR v2)
Copy OK

Track 17

Filename C:\EAC_FLAC\Bill Nelson - My Secret Studio, Vol. 1 (2017) [FLAC] {4CD Box Set Cocteau Discs COCD 41013 rec 1988-1992}\CD1 - Buddha Head\17 - Life As We Know It.wav

Pre-gap length 0:00:01.50

Peak level 99.4 %
Extraction speed 2.4 X
Track quality 100.0 %
Test CRC 825C6FE7
Copy CRC 825C6FE7
Accurately ripped (confidence 2) [C855A179] (AR v2)
Copy OK


All tracks accurately ripped

No errors occurred

End of status report

–– CUETools DB Plugin V2.1.6

[CTDB TOCID: fXEwGoBpbwMgbvWEQTp7v_ZiV0o-] found
Submit result: fXEwGoBpbwMgbvWEQTp7v_ZiV0o- has been confirmed
Track | CTDB Status
1 | (1/1) Accurately ripped
2 | (1/1) Accurately ripped
3 | (1/1) Accurately ripped
4 | (1/1) Accurately ripped
5 | (1/1) Accurately ripped
6 | (1/1) Accurately ripped
7 | (1/1) Accurately ripped
8 | (1/1) Accurately ripped
9 | (1/1) Accurately ripped
10 | (1/1) Accurately ripped
11 | (1/1) Accurately ripped
12 | (1/1) Accurately ripped
13 | (1/1) Accurately ripped
14 | (1/1) Accurately ripped
15 | (1/1) Accurately ripped
16 | (1/1) Accurately ripped
17 | (1/1) Accurately ripped


==== Log checksum 282E41DCE171DDB8033FA79F7A812313FED7598E1CF4F365F34898324329E91E ====

Exact Audio Copy V1.3 from 2. September 2016

EAC extraction logfile from 9. April 2017, 11:07

Bill Nelson / My Secret Studio, Vol. 1 (CD2) - Electricity Made Us Angels

Used drive : HL-DT-STDVDRAM GT20N Adapter: 1 ID: 0

Read mode : Secure
Utilize accurate stream : Yes
Defeat audio cache : Yes
Make use of C2 pointers : No

Read offset correction : 667
Overread into Lead-In and Lead-Out : No
Fill up missing offset samples with silence : Yes
Delete leading and trailing silent blocks : No
Null samples used in CRC calculations : Yes
Used interface : Native Win32 interface for Win NT & 2000
Gap handling : Appended to previous track

Used output format : User Defined Encoder
Selected bitrate : 1024 kBit/s
Quality : High
Add ID3 tag : No
Command line compressor : C:\Program Files (x86)\FLAC Frontend\tools\flac.exe
Additional command line options : -8 -V -T "ARTIST=%artist%" -T "TITLE=%title%" -T "ALBUM=%albumtitle%" -T "DATE=%year%" -T "TRACKNUMBER=%tracknr%" -T "TOTALTRACKS=%numtracks%" -T "GENRE=%genre%" -T "ALBUMARTIST=%albumartist%" -T "ALBUM ARTIST=%albumartist%" -T "COMMENT=EAC Secure Mode, Test & Copy, AccurateRip, FLAC -8" %source%


TOC of the extracted CD

Track | Start | Length | Start sector | End sector
––––––––––––––––––––––––––––-
1 | 0:00.00 | 3:34.25 | 0 | 16074
2 | 3:34.25 | 3:51.06 | 16075 | 33405
3 | 7:25.31 | 2:41.12 | 33406 | 45492
4 | 10:06.43 | 3:56.49 | 45493 | 63241
5 | 14:03.17 | 4:08.48 | 63242 | 81889
6 | 18:11.65 | 4:47.47 | 81890 | 103461
7 | 22:59.37 | 3:27.31 | 103462 | 119017
8 | 26:26.68 | 3:28.72 | 119018 | 134689
9 | 29:55.65 | 3:59.11 | 134690 | 152625
10 | 33:55.01 | 3:33.38 | 152626 | 168638
11 | 37:28.39 | 2:48.00 | 168639 | 181238
12 | 40:16.39 | 2:51.18 | 181239 | 194081
13 | 43:07.57 | 3:26.10 | 194082 | 209541
14 | 46:33.67 | 3:45.74 | 209542 | 226490
15 | 50:19.66 | 1:35.13 | 226491 | 233628


Track 1

Filename C:\EAC_FLAC\Bill Nelson - My Secret Studio, Vol. 1 (2017) [FLAC] {4CD Box Set Cocteau Discs COCD 41013 rec 1988-1992}\CD2 - Electricity Made Us Angels\01 - Begin To Burn.wav

Pre-gap length 0:00:02.00

Peak level 99.4 %
Extraction speed 1.1 X
Track quality 100.0 %
Test CRC 0F02DDD0
Copy CRC 0F02DDD0
Accurately ripped (confidence 2) [07B0B87F] (AR v2)
Copy OK

Track 2

Filename C:\EAC_FLAC\Bill Nelson - My Secret Studio, Vol. 1 (2017) [FLAC] {4CD Box Set Cocteau Discs COCD 41013 rec 1988-1992}\CD2 - Electricity Made Us Angels\02 - Heaven's Happy Hemisphere.wav

Pre-gap length 0:00:02.57

Peak level 99.4 %
Extraction speed 1.1 X
Track quality 99.9 %
Test CRC 1B3DAE74
Copy CRC 1B3DAE74
Accurately ripped (confidence 2) [554E5B88] (AR v2)
Copy OK

Track 3

Filename C:\EAC_FLAC\Bill Nelson - My Secret Studio, Vol. 1 (2017) [FLAC] {4CD Box Set Cocteau Discs COCD 41013 rec 1988-1992}\CD2 - Electricity Made Us Angels\03 - God In Her Eyes.wav

Pre-gap length 0:00:02.18

Peak level 99.4 %
Extraction speed 1.3 X
Track quality 100.0 %
Test CRC 1162267C
Copy CRC 1162267C
Accurately ripped (confidence 2) [FF461B58] (AR v2)
Copy OK

Track 4

Filename C:\EAC_FLAC\Bill Nelson - My Secret Studio, Vol. 1 (2017) [FLAC] {4CD Box Set Cocteau Discs COCD 41013 rec 1988-1992}\CD2 - Electricity Made Us Angels\04 - Float Away.wav

Pre-gap length 0:00:02.07

Peak level 99.4 %
Extraction speed 1.5 X
Track quality 100.0 %
Test CRC 4DD1C6EB
Copy CRC 4DD1C6EB
Accurately ripped (confidence 2) [51F57330] (AR v2)
Copy OK

Track 5

Filename C:\EAC_FLAC\Bill Nelson - My Secret Studio, Vol. 1 (2017) [FLAC] {4CD Box Set Cocteau Discs COCD 41013 rec 1988-1992}\CD2 - Electricity Made Us Angels\05 - Big Blue Day.wav

Pre-gap length 0:00:02.03

Peak level 99.4 %
Extraction speed 1.4 X
Track quality 99.9 %
Test CRC 9E7FD93A
Copy CRC 9E7FD93A
Accurately ripped (confidence 2) [BCE2638E] (AR v2)
Copy OK

Track 6

Filename C:\EAC_FLAC\Bill Nelson - My Secret Studio, Vol. 1 (2017) [FLAC] {4CD Box Set Cocteau Discs COCD 41013 rec 1988-1992}\CD2 - Electricity Made Us Angels\06 - Sweet Is The Mystery.wav

Pre-gap length 0:00:02.03

Peak level 99.4 %
Extraction speed 1.8 X
Track quality 100.0 %
Test CRC EE540673
Copy CRC EE540673
Accurately ripped (confidence 2) [7468A6F0] (AR v2)
Copy OK

Track 7

Filename C:\EAC_FLAC\Bill Nelson - My Secret Studio, Vol. 1 (2017) [FLAC] {4CD Box Set Cocteau Discs COCD 41013 rec 1988-1992}\CD2 - Electricity Made Us Angels\07 - If Wishes Were Horses.wav

Pre-gap length 0:00:02.36

Peak level 99.4 %
Extraction speed 1.7 X
Track quality 100.0 %
Test CRC 13A5D9AD
Copy CRC 13A5D9AD
Accurately ripped (confidence 2) [71E65439] (AR v2)
Copy OK

Track 8

Filename C:\EAC_FLAC\Bill Nelson - My Secret Studio, Vol. 1 (2017) [FLAC] {4CD Box Set Cocteau Discs COCD 41013 rec 1988-1992}\CD2 - Electricity Made Us Angels\08 - Fair Winds And Flying Boats.wav

Pre-gap length 0:00:02.56

Peak level 99.4 %
Extraction speed 1.9 X
Track quality 100.0 %
Test CRC F0FEDF96
Copy CRC F0FEDF96
Accurately ripped (confidence 2) [94C87EDB] (AR v2)
Copy OK

Track 9

Filename C:\EAC_FLAC\Bill Nelson - My Secret Studio, Vol. 1 (2017) [FLAC] {4CD Box Set Cocteau Discs COCD 41013 rec 1988-1992}\CD2 - Electricity Made Us Angels\09 - Ocean Over Blue.wav

Pre-gap length 0:00:02.53

Peak level 99.4 %
Extraction speed 2.0 X
Track quality 100.0 %
Test CRC 60736462
Copy CRC 60736462
Accurately ripped (confidence 2) [42E5739E] (AR v2)
Copy OK

Track 10

Filename C:\EAC_FLAC\Bill Nelson - My Secret Studio, Vol. 1 (2017) [FLAC] {4CD Box Set Cocteau Discs COCD 41013 rec 1988-1992}\CD2 - Electricity Made Us Angels\10 - River Of Love.wav

Pre-gap length 0:00:02.41

Peak level 99.4 %
Extraction speed 2.0 X
Track quality 100.0 %
Test CRC 29FC10A6
Copy CRC 29FC10A6
Accurately ripped (confidence 2) [819C9BB0] (AR v2)
Copy OK

Track 11

Filename C:\EAC_FLAC\Bill Nelson - My Secret Studio, Vol. 1 (2017) [FLAC] {4CD Box Set Cocteau Discs COCD 41013 rec 1988-1992}\CD2 - Electricity Made Us Angels\11 - This Is Destiny.wav

Pre-gap length 0:00:02.30

Peak level 99.4 %
Extraction speed 1.7 X
Track quality 99.9 %
Test CRC 55CC9B19
Copy CRC 55CC9B19
Accurately ripped (confidence 2) [650BF192] (AR v2)
Copy OK

Track 12

Filename C:\EAC_FLAC\Bill Nelson - My Secret Studio, Vol. 1 (2017) [FLAC] {4CD Box Set Cocteau Discs COCD 41013 rec 1988-1992}\CD2 - Electricity Made Us Angels\12 - Wonders Never Cease.wav

Pre-gap length 0:00:02.29

Peak level 99.4 %
Extraction speed 2.0 X
Track quality 100.0 %
Test CRC 532C5F20
Copy CRC 532C5F20
Accurately ripped (confidence 2) [08D9B63C] (AR v2)
Copy OK

Track 13

Filename C:\EAC_FLAC\Bill Nelson - My Secret Studio, Vol. 1 (2017) [FLAC] {4CD Box Set Cocteau Discs COCD 41013 rec 1988-1992}\CD2 - Electricity Made Us Angels\13 - Nothing Yet.wav

Pre-gap length 0:00:02.45

Peak level 99.4 %
Extraction speed 2.2 X
Track quality 100.0 %
Test CRC FD7797DC
Copy CRC FD7797DC
Accurately ripped (confidence 2) [A271237E] (AR v2)
Copy OK

Track 14

Filename C:\EAC_FLAC\Bill Nelson - My Secret Studio, Vol. 1 (2017) [FLAC] {4CD Box Set Cocteau Discs COCD 41013 rec 1988-1992}\CD2 - Electricity Made Us Angels\14 - God Thundered Boy.wav

Pre-gap length 0:00:02.68

Peak level 99.4 %
Extraction speed 2.3 X
Track quality 100.0 %
Test CRC 15C5E9C9
Copy CRC 15C5E9C9
Accurately ripped (confidence 2) [4DBC27E0] (AR v2)
Copy OK

Track 15

Filename C:\EAC_FLAC\Bill Nelson - My Secret Studio, Vol. 1 (2017) [FLAC] {4CD Box Set Cocteau Discs COCD 41013 rec 1988-1992}\CD2 - Electricity Made Us Angels\15 - She Sends Me.wav

Pre-gap length 0:00:02.62

Peak level 84.4 %
Extraction speed 1.9 X
Track quality 100.0 %
Test CRC 75959A00
Copy CRC 75959A00
Accurately ripped (confidence 2) [663F4705] (AR v2)
Copy OK


All tracks accurately ripped

No errors occurred

End of status report

–– CUETools DB Plugin V2.1.6

[CTDB TOCID: VzgSRKhHdTglqtJAIGBIYdFqY5w-] found
Submit result: VzgSRKhHdTglqtJAIGBIYdFqY5w- has been confirmed
Track | CTDB Status
1 | (1/1) Accurately ripped
2 | (1/1) Accurately ripped
3 | (1/1) Accurately ripped
4 | (1/1) Accurately ripped
5 | (1/1) Accurately ripped
6 | (1/1) Accurately ripped
7 | (1/1) Accurately ripped
8 | (1/1) Accurately ripped
9 | (1/1) Accurately ripped
10 | (1/1) Accurately ripped
11 | (1/1) Accurately ripped
12 | (1/1) Accurately ripped
13 | (1/1) Accurately ripped
14 | (1/1) Accurately ripped
15 | (1/1) Accurately ripped


==== Log checksum 5823C2C385E6DA6D139EFD28A4B0FB016E3DF8052AB5F2D518F36E5F3A816CF1 ====

Exact Audio Copy V1.3 from 2. September 2016

EAC extraction logfile from 9. April 2017, 12:43

Bill Nelson / My Secret Studio, Vol. 1 (CD3) - Deep Dream Decoder

Used drive : HL-DT-STDVDRAM GT20N Adapter: 1 ID: 0

Read mode : Secure
Utilize accurate stream : Yes
Defeat audio cache : Yes
Make use of C2 pointers : No

Read offset correction : 667
Overread into Lead-In and Lead-Out : No
Fill up missing offset samples with silence : Yes
Delete leading and trailing silent blocks : No
Null samples used in CRC calculations : Yes
Used interface : Native Win32 interface for Win NT & 2000
Gap handling : Appended to previous track

Used output format : User Defined Encoder
Selected bitrate : 1024 kBit/s
Quality : High
Add ID3 tag : No
Command line compressor : C:\Program Files (x86)\FLAC Frontend\tools\flac.exe
Additional command line options : -8 -V -T "ARTIST=%artist%" -T "TITLE=%title%" -T "ALBUM=%albumtitle%" -T "DATE=%year%" -T "TRACKNUMBER=%tracknr%" -T "TOTALTRACKS=%numtracks%" -T "GENRE=%genre%" -T "ALBUMARTIST=%albumartist%" -T "ALBUM ARTIST=%albumartist%" -T "COMMENT=EAC Secure Mode, Test & Copy, AccurateRip, FLAC -8" %source%


TOC of the extracted CD

Track | Start | Length | Start sector | End sector
––––––––––––––––––––––––––––-
1 | 0:00.00 | 3:57.53 | 0 | 17827
2 | 3:57.53 | 3:11.19 | 17828 | 32171
3 | 7:08.72 | 4:41.31 | 32172 | 53277
4 | 11:50.28 | 3:50.31 | 53278 | 70558
5 | 15:40.59 | 2:18.03 | 70559 | 80911
6 | 17:58.62 | 3:56.47 | 80912 | 98658
7 | 21:55.34 | 4:18.21 | 98659 | 118029
8 | 26:13.55 | 2:35.56 | 118030 | 129710
9 | 28:49.36 | 6:14.26 | 129711 | 157786
10 | 35:03.62 | 4:12.16 | 157787 | 176702
11 | 39:16.03 | 3:36.58 | 176703 | 192960
12 | 42:52.61 | 3:52.07 | 192961 | 210367
13 | 46:44.68 | 2:57.22 | 210368 | 223664
14 | 49:42.15 | 4:00.71 | 223665 | 241735
15 | 53:43.11 | 3:54.03 | 241736 | 259288
16 | 57:37.14 | 2:48.59 | 259289 | 271947


Track 1

Filename C:\EAC_FLAC\Bill Nelson - My Secret Studio, Vol. 1 (2017) [FLAC] {4CD Box Set Cocteau Discs COCD 41013 rec 1988-1992}\CD3 - Deep Dream Decoder\01 - Things To Come.wav

Pre-gap length 0:00:02.00

Peak level 99.4 %
Extraction speed 1.0 X
Track quality 99.9 %
Test CRC E99ADE1F
Copy CRC E99ADE1F
Accurately ripped (confidence 2) [B53A5CF1] (AR v2)
Copy OK

Track 2

Filename C:\EAC_FLAC\Bill Nelson - My Secret Studio, Vol. 1 (2017) [FLAC] {4CD Box Set Cocteau Discs COCD 41013 rec 1988-1992}\CD3 - Deep Dream Decoder\02 - God Bless Me.wav

Pre-gap length 0:00:02.33

Peak level 99.4 %
Extraction speed 1.1 X
Track quality 99.9 %
Test CRC 8C206EEC
Copy CRC 8C206EEC
Accurately ripped (confidence 2) [170A5FFD] (AR v2)
Copy OK

Track 3

Filename C:\EAC_FLAC\Bill Nelson - My Secret Studio, Vol. 1 (2017) [FLAC] {4CD Box Set Cocteau Discs COCD 41013 rec 1988-1992}\CD3 - Deep Dream Decoder\03 - Rise (above these things).wav

Pre-gap length 0:00:01.64

Peak level 99.4 %
Extraction speed 1.4 X
Track quality 100.0 %
Test CRC 1D4FBCC4
Copy CRC 1D4FBCC4
Accurately ripped (confidence 2) [EC6FEA95] (AR v2)
Copy OK

Track 4

Filename C:\EAC_FLAC\Bill Nelson - My Secret Studio, Vol. 1 (2017) [FLAC] {4CD Box Set Cocteau Discs COCD 41013 rec 1988-1992}\CD3 - Deep Dream Decoder\04 - Snowing Outside.wav

Pre-gap length 0:00:02.69

Peak level 99.4 %
Extraction speed 1.3 X
Track quality 99.9 %
Test CRC 522D9B3C
Copy CRC 522D9B3C
Accurately ripped (confidence 2) [2BF1257B] (AR v2)
Copy OK

Track 5

Filename C:\EAC_FLAC\Bill Nelson - My Secret Studio, Vol. 1 (2017) [FLAC] {4CD Box Set Cocteau Discs COCD 41013 rec 1988-1992}\CD3 - Deep Dream Decoder\05 - It's All True.wav

Pre-gap length 0:00:01.42

Peak level 99.4 %
Extraction speed 1.4 X
Track quality 100.0 %
Test CRC C1A93C0D
Copy CRC C1A93C0D
Accurately ripped (confidence 2) [B8477DFF] (AR v2)
Copy OK

Track 6

Filename C:\EAC_FLAC\Bill Nelson - My Secret Studio, Vol. 1 (2017) [FLAC] {4CD Box Set Cocteau Discs COCD 41013 rec 1988-1992}\CD3 - Deep Dream Decoder\06 - A Head Full Of Lights And A Hat Full Of Haloes.wav

Pre-gap length 0:00:02.59

Peak level 99.4 %
Extraction speed 1.7 X
Track quality 100.0 %
Test CRC 5886850C
Copy CRC 5886850C
Accurately ripped (confidence 2) [6F860BFA] (AR v2)
Copy OK

Track 7

Filename C:\EAC_FLAC\Bill Nelson - My Secret Studio, Vol. 1 (2017) [FLAC] {4CD Box Set Cocteau Discs COCD 41013 rec 1988-1992}\CD3 - Deep Dream Decoder\07 - The Girls I've Loved.wav

Pre-gap length 0:00:02.45

Peak level 99.4 %
Extraction speed 1.6 X
Track quality 99.9 %
Test CRC 8DF195DC
Copy CRC 8DF195DC
Accurately ripped (confidence 2) [543B3B32] (AR v2)
Copy OK

Track 8

Filename C:\EAC_FLAC\Bill Nelson - My Secret Studio, Vol. 1 (2017) [FLAC] {4CD Box Set Cocteau Discs COCD 41013 rec 1988-1992}\CD3 - Deep Dream Decoder\08 - Amazing Things.wav

Pre-gap length 0:00:02.54

Peak level 99.4 %
Extraction speed 1.8 X
Track quality 100.0 %
Test CRC D92673FE
Copy CRC D92673FE
Accurately ripped (confidence 2) [C1DFBD44] (AR v2)
Copy OK

Track 9

Filename C:\EAC_FLAC\Bill Nelson - My Secret Studio, Vol. 1 (2017) [FLAC] {4CD Box Set Cocteau Discs COCD 41013 rec 1988-1992}\CD3 - Deep Dream Decoder\09 - Deep Dream Decoder.wav

Pre-gap length 0:00:01.42

Peak level 99.4 %
Extraction speed 2.1 X
Track quality 100.0 %
Test CRC A7E763FD
Copy CRC A7E763FD
Accurately ripped (confidence 2) [42CDC577] (AR v2)
Copy OK

Track 10

Filename C:\EAC_FLAC\Bill Nelson - My Secret Studio, Vol. 1 (2017) [FLAC] {4CD Box Set Cocteau Discs COCD 41013 rec 1988-1992}\CD3 - Deep Dream Decoder\10 - Dissolve.wav

Pre-gap length 0:00:02.56

Peak level 99.4 %
Extraction speed 2.1 X
Track quality 100.0 %
Test CRC 63DAF3F1
Copy CRC 63DAF3F1
Accurately ripped (confidence 2) [42BB3C01] (AR v2)
Copy OK

Track 11

Filename C:\EAC_FLAC\Bill Nelson - My Secret Studio, Vol. 1 (2017) [FLAC] {4CD Box Set Cocteau Discs COCD 41013 rec 1988-1992}\CD3 - Deep Dream Decoder\11 - Year 44 (The Birthday Song).wav

Pre-gap length 0:00:02.47

Peak level 99.4 %
Extraction speed 1.8 X
Track quality 99.9 %
Test CRC F7B97951
Copy CRC F7B97951
Accurately ripped (confidence 2) [841EAB9E] (AR v2)
Copy OK

Track 12

Filename C:\EAC_FLAC\Bill Nelson - My Secret Studio, Vol. 1 (2017) [FLAC] {4CD Box Set Cocteau Discs COCD 41013 rec 1988-1992}\CD3 - Deep Dream Decoder\12 - Wing & A Prayer.wav

Pre-gap length 0:00:02.63

Peak level 99.4 %
Extraction speed 1.9 X
Track quality 99.9 %
Test CRC F46A9471
Copy CRC F46A9471
Accurately ripped (confidence 2) [4A2991DB] (AR v2)
Copy OK

Track 13

Filename C:\EAC_FLAC\Bill Nelson - My Secret Studio, Vol. 1 (2017) [FLAC] {4CD Box Set Cocteau Discs COCD 41013 rec 1988-1992}\CD3 - Deep Dream Decoder\13 - Dreamnoise And Angel.wav

Pre-gap length 0:00:01.38

Peak level 99.4 %
Extraction speed 1.8 X
Track quality 99.9 %
Test CRC C7F37C6A
Copy CRC C7F37C6A
Accurately ripped (confidence 2) [BE743245] (AR v2)
Copy OK

Track 14

Filename C:\EAC_FLAC\Bill Nelson - My Secret Studio, Vol. 1 (2017) [FLAC] {4CD Box Set Cocteau Discs COCD 41013 rec 1988-1992}\CD3 - Deep Dream Decoder\14 - Tired Eyes.wav

Pre-gap length 0:00:03.02

Peak level 99.4 %
Extraction speed 2.3 X
Track quality 100.0 %
Test CRC 70CBF572
Copy CRC 70CBF572
Accurately ripped (confidence 2) [934D3172] (AR v2)
Copy OK

Track 15

Filename C:\EAC_FLAC\Bill Nelson - My Secret Studio, Vol. 1 (2017) [FLAC] {4CD Box Set Cocteau Discs COCD 41013 rec 1988-1992}\CD3 - Deep Dream Decoder\15 - Golden Girl.wav

Pre-gap length 0:00:01.41

Peak level 99.4 %
Extraction speed 2.1 X
Track quality 99.9 %
Test CRC 19169691
Copy CRC 19169691
Accurately ripped (confidence 2) [CD666B10] (AR v2)
Copy OK

Track 16

Filename C:\EAC_FLAC\Bill Nelson - My Secret Studio, Vol. 1 (2017) [FLAC] {4CD Box Set Cocteau Discs COCD 41013 rec 1988-1992}\CD3 - Deep Dream Decoder\16 - The Spark.wav

Pre-gap length 0:00:02.57

Peak level 99.4 %
Extraction speed 2.3 X
Track quality 100.0 %
Test CRC F2D9D01D
Copy CRC F2D9D01D
Accurately ripped (confidence 2) [AE262F55] (AR v2)
Copy OK


All tracks accurately ripped

No errors occurred

End of status report

–– CUETools DB Plugin V2.1.6

[CTDB TOCID: 75SIJJJO9ZcQS_0Pybjy.jvdN3U-] found
Submit result: 75SIJJJO9ZcQS_0Pybjy.jvdN3U- has been confirmed
Track | CTDB Status
1 | (1/1) Accurately ripped
2 | (1/1) Accurately ripped
3 | (1/1) Accurately ripped
4 | (1/1) Accurately ripped
5 | (1/1) Accurately ripped
6 | (1/1) Accurately ripped
7 | (1/1) Accurately ripped
8 | (1/1) Accurately ripped
9 | (1/1) Accurately ripped
10 | (1/1) Accurately ripped
11 | (1/1) Accurately ripped
12 | (1/1) Accurately ripped
13 | (1/1) Accurately ripped
14 | (1/1) Accurately ripped
15 | (1/1) Accurately ripped
16 | (1/1) Accurately ripped


==== Log checksum 4F55DB6E721A6B1B36BABEC39493413D0AEC26EB5B6D91482DBA253226D457B6 ====

Exact Audio Copy V1.3 from 2. September 2016

EAC extraction logfile from 9. April 2017, 15:44

Bill Nelson / My Secret Studio, Vol. 1 (CD4) - Juke Box For Jet Boy

Used drive : HL-DT-STDVDRAM GT20N Adapter: 1 ID: 0

Read mode : Secure
Utilize accurate stream : Yes
Defeat audio cache : Yes
Make use of C2 pointers : No

Read offset correction : 667
Overread into Lead-In and Lead-Out : No
Fill up missing offset samples with silence : Yes
Delete leading and trailing silent blocks : No
Null samples used in CRC calculations : Yes
Used interface : Native Win32 interface for Win NT & 2000
Gap handling : Appended to previous track

Used output format : User Defined Encoder
Selected bitrate : 1024 kBit/s
Quality : High
Add ID3 tag : No
Command line compressor : C:\Program Files (x86)\FLAC Frontend\tools\flac.exe
Additional command line options : -8 -V -T "ARTIST=%artist%" -T "TITLE=%title%" -T "ALBUM=%albumtitle%" -T "DATE=%year%" -T "TRACKNUMBER=%tracknr%" -T "TOTALTRACKS=%numtracks%" -T "GENRE=%genre%" -T "ALBUMARTIST=%albumartist%" -T "ALBUM ARTIST=%albumartist%" -T "COMMENT=EAC Secure Mode, Test & Copy, AccurateRip, FLAC -8" %source%


TOC of the extracted CD

Track | Start | Length | Start sector | End sector
––––––––––––––––––––––––––––-
1 | 0:00.00 | 3:29.54 | 0 | 15728
2 | 3:29.54 | 2:58.37 | 15729 | 29115
3 | 6:28.16 | 2:56.65 | 29116 | 42380
4 | 9:25.06 | 2:46.67 | 42381 | 54897
5 | 12:11.73 | 3:09.74 | 54898 | 69146
6 | 15:21.72 | 4:01.41 | 69147 | 87262
7 | 19:23.38 | 2:16.62 | 87263 | 97524
8 | 21:40.25 | 3:03.44 | 97525 | 111293
9 | 24:43.69 | 4:14.28 | 111294 | 130371
10 | 28:58.22 | 2:51.49 | 130372 | 143245
11 | 31:49.71 | 2:48.12 | 143246 | 155857
12 | 34:38.08 | 3:58.66 | 155858 | 173773
13 | 38:36.74 | 3:36.36 | 173774 | 190009
14 | 42:13.35 | 3:11.14 | 190010 | 204348
15 | 45:24.49 | 3:44.24 | 204349 | 221172
16 | 49:08.73 | 4:09.58 | 221173 | 239905
17 | 53:18.56 | 4:04.41 | 239906 | 258246


Track 1

Filename C:\EAC_FLAC\Bill Nelson - My Secret Studio, Vol. 1 (2017) [FLAC] {4CD Box Set Cocteau Discs COCD 41013 rec 1988-1992}\CD4 - Juke Box For Jet Boy\01 - She's So Extreme.wav

Pre-gap length 0:00:02.00

Peak level 99.4 %
Extraction speed 1.1 X
Track quality 100.0 %
Test CRC 70D94A43
Copy CRC 70D94A43
Accurately ripped (confidence 2) [67D15F1C] (AR v2)
Copy OK

Track 2

Filename C:\EAC_FLAC\Bill Nelson - My Secret Studio, Vol. 1 (2017) [FLAC] {4CD Box Set Cocteau Discs COCD 41013 rec 1988-1992}\CD4 - Juke Box For Jet Boy\02 - On A Train I Never Boarded.wav

Pre-gap length 0:00:02.61

Peak level 99.4 %
Extraction speed 1.2 X
Track quality 100.0 %
Test CRC 95BBB50C
Copy CRC 95BBB50C
Accurately ripped (confidence 2) [6C98D00D] (AR v2)
Copy OK

Track 3

Filename C:\EAC_FLAC\Bill Nelson - My Secret Studio, Vol. 1 (2017) [FLAC] {4CD Box Set Cocteau Discs COCD 41013 rec 1988-1992}\CD4 - Juke Box For Jet Boy\03 - Sail Away.wav

Pre-gap length 0:00:01.53

Peak level 99.4 %
Extraction speed 1.3 X
Track quality 100.0 %
Test CRC 915E2202
Copy CRC 915E2202
Accurately ripped (confidence 2) [506B6DB0] (AR v2)
Copy OK

Track 4

Filename C:\EAC_FLAC\Bill Nelson - My Secret Studio, Vol. 1 (2017) [FLAC] {4CD Box Set Cocteau Discs COCD 41013 rec 1988-1992}\CD4 - Juke Box For Jet Boy\04 - Only Dreaming.wav

Pre-gap length 0:00:00.39

Peak level 99.4 %
Extraction speed 1.4 X
Track quality 100.0 %
Test CRC BA8B91BD
Copy CRC BA8B91BD
Accurately ripped (confidence 2) [A550B88F] (AR v2)
Copy OK

Track 5

Filename C:\EAC_FLAC\Bill Nelson - My Secret Studio, Vol. 1 (2017) [FLAC] {4CD Box Set Cocteau Discs COCD 41013 rec 1988-1992}\CD4 - Juke Box For Jet Boy\05 - Swing With The Rhythm Boys.wav

Pre-gap length 0:00:01.09

Peak level 99.4 %
Extraction speed 1.5 X
Track quality 100.0 %
Test CRC 695C75C9
Copy CRC 695C75C9
Accurately ripped (confidence 2) [422A1AD5] (AR v2)
Copy OK

Track 6

Filename C:\EAC_FLAC\Bill Nelson - My Secret Studio, Vol. 1 (2017) [FLAC] {4CD Box Set Cocteau Discs COCD 41013 rec 1988-1992}\CD4 - Juke Box For Jet Boy\06 - The King And Queen Of Now Or Never.wav

Pre-gap length 0:00:01.35

Peak level 99.4 %
Extraction speed 1.6 X
Track quality 100.0 %
Test CRC 12D9CA18
Copy CRC 12D9CA18
Accurately ripped (confidence 2) [1C5A20B6] (AR v2)
Copy OK

Track 7

Filename C:\EAC_FLAC\Bill Nelson - My Secret Studio, Vol. 1 (2017) [FLAC] {4CD Box Set Cocteau Discs COCD 41013 rec 1988-1992}\CD4 - Juke Box For Jet Boy\07 - Hold On To Your Heart.wav

Pre-gap length 0:00:01.69

Peak level 99.4 %
Extraction speed 1.6 X
Track quality 100.0 %
Test CRC 664DDDE4
Copy CRC 664DDDE4
Accurately ripped (confidence 2) [823F3F54] (AR v2)
Copy OK

Track 8

Filename C:\EAC_FLAC\Bill Nelson - My Secret Studio, Vol. 1 (2017) [FLAC] {4CD Box Set Cocteau Discs COCD 41013 rec 1988-1992}\CD4 - Juke Box For Jet Boy\08 - Turn Me Over.wav

Pre-gap length 0:00:02.69

Peak level 99.4 %
Extraction speed 1.5 X
Track quality 99.9 %
Test CRC 45D564E4
Copy CRC 45D564E4
Accurately ripped (confidence 2) [B70BAECA] (AR v2)
Copy OK

Track 9

Filename C:\EAC_FLAC\Bill Nelson - My Secret Studio, Vol. 1 (2017) [FLAC] {4CD Box Set Cocteau Discs COCD 41013 rec 1988-1992}\CD4 - Juke Box For Jet Boy\09 - Runaway.wav

Pre-gap length 0:00:01.74

Peak level 99.4 %
Extraction speed 1.9 X
Track quality 100.0 %
Test CRC 3FE8D081
Copy CRC 3FE8D081
Accurately ripped (confidence 2) [F7840243] (AR v2)
Copy OK

Track 10

Filename C:\EAC_FLAC\Bill Nelson - My Secret Studio, Vol. 1 (2017) [FLAC] {4CD Box Set Cocteau Discs COCD 41013 rec 1988-1992}\CD4 - Juke Box For Jet Boy\10 - It's Always Maybe.wav

Pre-gap length 0:00:02.50

Peak level 99.4 %
Extraction speed 1.6 X
Track quality 99.9 %
Test CRC CB651A4D
Copy CRC CB651A4D
Accurately ripped (confidence 2) [65A09982] (AR v2)
Copy OK

Track 11

Filename C:\EAC_FLAC\Bill Nelson - My Secret Studio, Vol. 1 (2017) [FLAC] {4CD Box Set Cocteau Discs COCD 41013 rec 1988-1992}\CD4 - Juke Box For Jet Boy\11 - Dream Up, Billy.wav

Pre-gap length 0:00:02.39

Peak level 99.4 %
Extraction speed 1.9 X
Track quality 100.0 %
Test CRC 88D2DBA6
Copy CRC 88D2DBA6
Accurately ripped (confidence 2) [224A3FFC] (AR v2)
Copy OK

Track 12

Filename C:\EAC_FLAC\Bill Nelson - My Secret Studio, Vol. 1 (2017) [FLAC] {4CD Box Set Cocteau Discs COCD 41013 rec 1988-1992}\CD4 - Juke Box For Jet Boy\12 - All You Need To Know.wav

Pre-gap length 0:00:02.42

Peak level 99.4 %
Extraction speed 2.1 X
Track quality 100.0 %
Test CRC 1D610E39
Copy CRC 1D610E39
Accurately ripped (confidence 2) [3DEFE380] (AR v2)
Copy OK

Track 13

Filename C:\EAC_FLAC\Bill Nelson - My Secret Studio, Vol. 1 (2017) [FLAC] {4CD Box Set Cocteau Discs COCD 41013 rec 1988-1992}\CD4 - Juke Box For Jet Boy\13 - Warm And Wonderful.wav

Pre-gap length 0:00:01.66

Peak level 99.4 %
Extraction speed 1.8 X
Track quality 99.9 %
Test CRC AFCF4D5A
Copy CRC AFCF4D5A
Accurately ripped (confidence 2) [4562FFC7] (AR v2)
Copy OK

Track 14

Filename C:\EAC_FLAC\Bill Nelson - My Secret Studio, Vol. 1 (2017) [FLAC] {4CD Box Set Cocteau Discs COCD 41013 rec 1988-1992}\CD4 - Juke Box For Jet Boy\14 - A Thing About That.wav

Pre-gap length 0:00:01.69

Peak level 99.4 %
Extraction speed 2.1 X
Track quality 100.0 %
Test CRC 1B31660E
Copy CRC 1B31660E
Accurately ripped (confidence 2) [A5ED375D] (AR v2)
Copy OK

Track 15

Filename C:\EAC_FLAC\Bill Nelson - My Secret Studio, Vol. 1 (2017) [FLAC] {4CD Box Set Cocteau Discs COCD 41013 rec 1988-1992}\CD4 - Juke Box For Jet Boy\15 - No Fool For You.wav

Pre-gap length 0:00:02.37

Peak level 99.4 %
Extraction speed 2.2 X
Track quality 100.0 %
Test CRC ABDC500D
Copy CRC ABDC500D
Accurately ripped (confidence 2) [FA260532] (AR v2)
Copy OK

Track 16

Filename C:\EAC_FLAC\Bill Nelson - My Secret Studio, Vol. 1 (2017) [FLAC] {4CD Box Set Cocteau Discs COCD 41013 rec 1988-1992}\CD4 - Juke Box For Jet Boy\16 - Living For Today.wav

Pre-gap length 0:00:02.36

Peak level 99.4 %
Extraction speed 2.4 X
Track quality 100.0 %
Test CRC C800B83C
Copy CRC C800B83C
Accurately ripped (confidence 2) [E6C62E30] (AR v2)
Copy OK

Track 17

Filename C:\EAC_FLAC\Bill Nelson - My Secret Studio, Vol. 1 (2017) [FLAC] {4CD Box Set Cocteau Discs COCD 41013 rec 1988-1992}\CD4 - Juke Box For Jet Boy\17 - Birds In Blue Sky Again.wav

Pre-gap length 0:00:02.39

Peak level 99.4 %
Extraction speed 2.4 X
Track quality 100.0 %
Test CRC 1936DA0C
Copy CRC 1936DA0C
Accurately ripped (confidence 2) [B310551B] (AR v2)
Copy OK


All tracks accurately ripped

No errors occurred

End of status report

–– CUETools DB Plugin V2.1.6

[CTDB TOCID: 88yTkxuBuufLt19nsf0aL6_XE8A-] found
Submit result: 88yTkxuBuufLt19nsf0aL6_XE8A- has been confirmed
Track | CTDB Status
1 | (1/1) Accurately ripped
2 | (1/1) Accurately ripped
3 | (1/1) Accurately ripped
4 | (1/1) Accurately ripped
5 | (1/1) Accurately ripped
6 | (1/1) Accurately ripped
7 | (1/1) Accurately ripped
8 | (1/1) Accurately ripped
9 | (1/1) Accurately ripped
10 | (1/1) Accurately ripped
11 | (1/1) Accurately ripped
12 | (1/1) Accurately ripped
13 | (1/1) Accurately ripped
14 | (1/1) Accurately ripped
15 | (1/1) Accurately ripped
16 | (1/1) Accurately ripped
17 | (1/1) Accurately ripped


==== Log checksum 6BA5ADEA191E41061E428C86E73D2AA00D6EB0B8B07205AD5C54B67CB335A809 ====


Bill Nelson - My Secret Studio, Vol. 1 (2017) {4CD Box Set Cocteau Discs COCD 41013 rec 1988-1992}


see more Bill Nelson…

NEXT -> More Bill Nelson on the way…

===