Tags
Language
Tags
November 2022
Su Mo Tu We Th Fr Sa
30 31 1 2 3 4 5
6 7 8 9 10 11 12
13 14 15 16 17 18 19
20 21 22 23 24 25 26
27 28 29 30 1 2 3

Bülent Arel - Electronic Music 1960–1973 (2017)

Posted By: delpotro
Bülent Arel - Electronic Music 1960–1973 (2017)

Bülent Arel - Electronic Music 1960–1973 (2017)
XLD Rip | FLAC (tracks+log+.cue) - 310 Mb | MP3 CBR 320 kbps - 175 Mb | 01:16:11
Experimental Electronic | Label: Sub Rosa

Bülent Arel's (1919 Turkey - 1990 USA) work occupies a special place in the history of electronic music because one thing is certain: Arel's work is still fresh, groundbreaking, and it seems always to look out for the next adventure in sound.

Bülent Arel was a Turkish-born American composer of electronic and contemporary classical music. He was also a devoted teacher, a sculptor, and a painter. From 1940 until 1947 Arel studied composition, piano, and 20th century classical music at the Ankara Conservatory. In 1959 Arel came to the U.S. on a grant by the Rockefeller Foundation to work at the Columbia-Princeton Electronic Music Center. By that time the center had just started out under its director Vladimir Ussachevsky.

During Arel's work in Princeton he also met Edgard Varèse with whom in 1962 he worked on the electronic sections of Varèse's 'Déserts'. Frank Zappa lists Arel as a key influence. Today's electronic music - may it be by Autechre's 'Confield', Aphex Twin's 'Selected Ambient Works Vol. II', or Squarepusher's 'Do You Know Squarepusher' - builds upon a solid foundation which Bülent Arel helped to pave.
Tracklist:
1. Electronic Music No.1 (08:40)
2. Mimiana I : Flux (10:50)
3. Mimiana II : Frieze (13:15)
4. Mimiana III : 6 & 7 (12:35)
5. Stereo Electronic Music No.2 (14:18)
6. Out of Into (16:34)

X Lossless Decoder version 20211018 (154.0)

XLD extraction logfile from 2022-01-30 10:53:12 -0800

Bülent Arel / Electronic Music 1960-1973

Used drive : MATSHITA DVD-R UJ-8A8 (revision HB14)
Media type : Pressed CD

Ripper mode : XLD Secure Ripper
Disable audio cache : OK for the drive with a cache less than 1375KiB
Make use of C2 pointers : NO
Read offset correction : 102
Max retry count : 20
Gap status : Analyzed, Appended (except HTOA)

TOC of the extracted CD
Track | Start | Length | Start sector | End sector
––––––––––––––––––––––––––––-
1 | 00:00:00 | 08:40:19 | 0 | 39018
2 | 08:40:19 | 10:49:61 | 39019 | 87754
3 | 19:30:05 | 13:14:43 | 87755 | 147347
4 | 32:44:48 | 12:35:31 | 147348 | 204003
5 | 45:20:04 | 14:18:00 | 204004 | 268353
6 | 59:38:04 | 16:33:50 | 268354 | 342878

AccurateRip Summary (DiscID: 00109f4f-005af521-4911db06)
Track 01 : OK (v2, confidence 2/2)
Track 02 : OK (v2, confidence 2/2)
Track 03 : OK (v2, confidence 2/2)
Track 04 : OK (v2, confidence 2/2)
Track 05 : OK (v2, confidence 2/2)
Track 06 : OK (v2, confidence 2/2)
->All tracks accurately ripped.

All Tracks
Album gain : -5.38 dB
Peak : 0.989014
Statistics
Read error : 0
Jitter error (maybe fixed) : 0
Retry sector count : 0
Damaged sector count : 0

Track 01
Filename : /Users/Music Files/Bülent Arel - Electronic Music 1960-1973 (2017) [FLAC]/01 Electronic Music No. 1.flac
Pre-gap length : 00:02:00

Track gain : -2.46 dB
Peak : 0.989014
CRC32 hash (test run) : E6728774
CRC32 hash : E6728774
CRC32 hash (skip zero) : 2F3700AB
AccurateRip v1 signature : F46528AC
AccurateRip v2 signature : EE1A97D7
->Accurately ripped (v2, confidence 2/2)
Statistics
Read error : 0
Jitter error (maybe fixed) : 0
Retry sector count : 0
Damaged sector count : 0

Track 02
Filename : /Users/Music Files/Bülent Arel - Electronic Music 1960-1973 (2017) [FLAC]/02 Mimiana I- Flux.flac
Pre-gap length : 00:02:00

Track gain : -5.39 dB
Peak : 0.974213
CRC32 hash (test run) : 265F4460
CRC32 hash : 265F4460
CRC32 hash (skip zero) : B09C133A
AccurateRip v1 signature : EF063D1F
AccurateRip v2 signature : B5BCEA0A
->Accurately ripped (v2, confidence 2/2)
Statistics
Read error : 0
Jitter error (maybe fixed) : 0
Retry sector count : 0
Damaged sector count : 0

Track 03
Filename : /Users/Music Files/Bülent Arel - Electronic Music 1960-1973 (2017) [FLAC]/03 Mimiana II- Frieze.flac
Pre-gap length : 00:02:00

Track gain : -5.57 dB
Peak : 0.974213
CRC32 hash (test run) : 222B434B
CRC32 hash : 222B434B
CRC32 hash (skip zero) : B375DAC7
AccurateRip v1 signature : D1A9A798
AccurateRip v2 signature : A147BCCF
->Accurately ripped (v2, confidence 2/2)
Statistics
Read error : 0
Jitter error (maybe fixed) : 0
Retry sector count : 0
Damaged sector count : 0

Track 04
Filename : /Users/Music Files/Bülent Arel - Electronic Music 1960-1973 (2017) [FLAC]/04 Mimiana III- 6 & 7.flac
Pre-gap length : 00:02:00

Track gain : -5.22 dB
Peak : 0.974213
CRC32 hash (test run) : E8DDAB4E
CRC32 hash : E8DDAB4E
CRC32 hash (skip zero) : 705F98CF
AccurateRip v1 signature : E06BEE0A
AccurateRip v2 signature : AA89DE04
->Accurately ripped (v2, confidence 2/2)
Statistics
Read error : 0
Jitter error (maybe fixed) : 0
Retry sector count : 0
Damaged sector count : 0

Track 05
Filename : /Users/Music Files/Bülent Arel - Electronic Music 1960-1973 (2017) [FLAC]/05 Stereo Electronic Music No. 2.flac
Pre-gap length : 00:02:00

Track gain : -5.59 dB
Peak : 0.974213
CRC32 hash (test run) : FEE5C659
CRC32 hash : FEE5C659
CRC32 hash (skip zero) : 2F8B9C17
AccurateRip v1 signature : 7BC4378F
AccurateRip v2 signature : 2CA4F750
->Accurately ripped (v2, confidence 2/2)
Statistics
Read error : 0
Jitter error (maybe fixed) : 0
Retry sector count : 0
Damaged sector count : 0

Track 06
Filename : /Users/Music Files/Bülent Arel - Electronic Music 1960-1973 (2017) [FLAC]/06 Out of Into.flac
Pre-gap length : 00:02:00

Track gain : -6.00 dB
Peak : 0.974213
CRC32 hash (test run) : 8C0AA246
CRC32 hash : 8C0AA246
CRC32 hash (skip zero) : D14ADB94
AccurateRip v1 signature : 8E3B9062
AccurateRip v2 signature : 238A8FB6
->Accurately ripped (v2, confidence 2/2)
Statistics
Read error : 0
Jitter error (maybe fixed) : 0
Retry sector count : 0
Damaged sector count : 0

No errors occurred

End of status report

––-BEGIN XLD SIGNATURE––-
CMWzGshYbO2mhcEsrGulTSb2RTcOz7WTs5zPBM2HSjSXgUMYjiyMxKG4F7xERJsuQPe9vwjH70jRLTMPaFUuRLt875hQ8H4way4avW4
––-END XLD SIGNATURE––-

Thanks to the Original ripper !