Subcategories

El Camaron de la Isla & Paco de Lucia - Canastera (1972) {2011 Nueva Integral Box Set CD 04of21}

Posted By: ruskaval
El Camaron de la Isla & Paco de Lucia - Canastera (1972) {2011 Nueva Integral Box Set CD 04of21}

El Camaron de la Isla & Paco de Lucia - Canastera (1972) {2011 Nueva Integral Box Set CD 04of21}
EAC rip (secure mode) | FLAC (tracks)+CUE+LOG -> 210 Mb | MP3 @320 -> 90 Mb
Full Artwork @ 600 dpi (jpg) -> 22 Mb | 5% repair rar
© 1972, 2011 Universal Music Spain | 0602498715796
Flamenco / World Music / Vocal / Guitar / Latin / Western European Traditions

A limited edition of the Camaron de la Isla 'Integral' box-set. It represents a veritable journey through his life and singing. It includes 21 original albums. The first 17 of them were made in recording studios by Camaron from 1969 to 1992 while he was alive.

"The record itself marks a break with the previous ones in that the entertaining kitsch style of the cover disappears, to be replaced by a picture taken by Lamarca".

But Jose Monje -who would not integrate with anybody- committed the audacity of challenging the established flamencologists right after they had given him their approval, by daring to present in his next project nothing less than a new style of flamenco «cante»: «La Canastera».

El Camaron de la Isla & Paco de Lucia - Canastera (1972) {2011 Nueva Integral Box Set CD 04of21}


We recall at this point his interview with Jose Maria Velazquez: «If one has a good ear and interest he wants to learn more every day. I made this "Canastera" because I like it very much. But I did not record it well because I have it on tape just like it happened, by inspiration. It took place abroad. Paco -well we all know that he is an immense talent, and since I only had the tune I tell him inmediately "Paco, play this for me one more time", and I do it my way with the music I believe I should give".

What is certain is that the debate over this matter remains open, and Camaron himself seems to contradict himself when he tells Velazquez that "the "cante" is already complete. New tones and half- tones may come out, but I don't think a new "cante" can be created." There are some, however, who take these things so much to heart that they mount a crusade for purity. The late Francisco Vallecino Pecino, hammer of heretics, was one of these. He did not wait to shout blue murder when faced with the audacity of Camaron. Fourteen years later, in his post as Adviser of Flamenco Activities ("Mairenists") to the Andalusian regional goverment, Vallecillo recovered from his files the old article he wrote doubting the new creation, and published it in all the media within his reach. It ended thus: "Allow us our skepticism (…) As long as we are not shown likewise, I give you the words of another great spaniard: "Let them do the inventing".

Musically speaking, "La Canastera" is based on a fandango from Huelva and is accompanied by a rhythm similar to what Paco de Lucia uses in the rhythmic end of the "rondeсa". What cannot be disputed is that "La Canastera" was a very popular "cante", so much so that dances were made to it (5). The record itself marks a break with the previous ones in that the entertaining kitsch style of the cover disappears, to be replaced by a picture taken by Lamarca. The title, "Canastera", is added and Camaron and Paco appear with equally sized lettering as a tandem, removing the phrase "with the special collaboration of". Paco de Lucia and Antonio Sanchez once again signed their authorship of all the cuts in partnership, and Ramon de Algeciras joins them again on the second guitar.

Together with "La Canastera" we have some "alegrias" in which Camaron recalls the land where he was born, a "cante" he would always include in his repertoire. Using "seguiriyas" he follows the models of Paco Ia Luz and Manuel Molina, with modulations and cadences of Enrique Morente, especially in the beginning lines. In the fandangos he follows Antonio "El de la Calza'" and "El Rubio" making his own contributions. The "solea" "Estas ciego pa' no ver" is actually a "buleria for solea" and very well done, actually . In the tangos, "tientos" and "cartagena" he is not particularly brilliant, but the tangos -full of "neinos, noneinos"- clearly show the qualities of the "cantaor", who comes through with flying colors in the risky fine-turning of the low tones of the "estrofa" "Mentira es". The "verdiales", which are very beautiful, sound like Pepe de Lucia, who had a great influence on Camaron. The first one is really a modernized "verdial" and the second a fandango of Albaicin. The "bulerias" abound in flamenco and in them a constant dialogue between "cante" and guitar is maintained, especially in the first one, "No quisiera que te fueras", which Jose and Paco perform alone. In 1972, Camaron de Ia Isla appears in the filming of the movie "Casa Flora", where, accompanied by a small orchestra in the background , sings the "cante" "Sere … serenito" of Rafael de Leon and Juan Solano, as if he were a re-born Manolo Caracol. The cut was released in 1973 on side A of a single, the B side having the tangos "Detras del tuyo se va", which started his first Long-Play.
El Camaron de la Isla & Paco de Lucia - Canastera (1972) {2011 Nueva Integral Box Set CD 04of21}


Contents of the Box Set:
CD 1: Al verte las flores lloran (1969)
CD 2: Cada vez que nos miramos (1970)
CD 3: Son tus ojos dos estrellas (1971)
CD 4: Canastera (1972)
CD 5: Caminito de Totana (1973)
CD 6: Soy caminante (1974)
CD 7: Arte y majestad (1975)
CD 8: Rosa María (1976)
CD 9: Castillo de arena (1977)
CD 10: La leyenda del tiempo (1979)
CD 11: Como el agua (1981)
CD 12: Calle Real (1983)
CD 13: Viviré (1984)
CD 14: Te lo dice Camarón (1986)
CD 15: Flamenco vivo (1987)
CD 16: Soy gitano (1989)
CD 17: Potro de rabia y miel (1992)
CD 18: París, 1987 (1987)
CD 19: Antología inédita (2000)
CD 20: En la Venta de Vargas (2004)
CD 21: Reencuentro (2008)


Personnel:
Camarón de la Isla: Singer
Paco de Lucía: Guitar
Ramon de Algeciras: Second guitar

tracklist:
01 - Canastera (Canastera)
02 - No Dudes de la Nobleza (Fandangos)
03 - Que a Mi Me Vio de Nacer (Alegrias)
04 - Calabosito Oscuro (Seguirillas)
05 - No Quisiera Que Te Fueras (Bulerias)
06 - Las Campanas Tambien Lloran (Tientos)
07 - Una Gitana Morena (Bulerias)
08 - La Vi por Primera Vez (Fandangos)
09 - Estas Ciego Pa No Ver (Solea)
10 - Sonaba Siempre Contigo (Cartagenera)
11 - Y Me Gustan las Mujeres (Tangos)
12 - Dios Te Dara a Ti la Gloria (Verdiales)

Exact Audio Copy V1.0 beta 3 from 29. August 2011

EAC extraction logfile from 1. March 2012, 21:26

El Camaron de la Isla y Paco de Lucia / Canastera

Used drive : HL-DT-STDVDRAM GH22NS50 Adapter: 0 ID: 0

Read mode : Secure
Utilize accurate stream : Yes
Defeat audio cache : Yes
Make use of C2 pointers : No

Read offset correction : 667
Overread into Lead-In and Lead-Out : No
Fill up missing offset samples with silence : Yes
Delete leading and trailing silent blocks : No
Null samples used in CRC calculations : Yes
Used interface : Installed external ASPI interface
Gap handling : Appended to previous track

Used output format : User Defined Encoder
Selected bitrate : 1024 kBit/s
Quality : High
Add ID3 tag : No
Command line compressor : C:\Program Files\Exact Audio Copy\Flac\flac.exe
Additional command line options : -8 -V -T "ARTIST=%artist%" -T "TITLE=%title%" -T "ALBUM=%albumtitle%" -T "DATE=%year%" -T "TRACKNUMBER=%tracknr%" -T "TOTALTRACKS=%numtracks%" -T "GENRE=%genre%" -T "ALBUMARTIST=%albumartist%" -T "ALBUM ARTIST=%albumartist%" -T "COMMENT=EAC Secure Mode, Test & Copy, AccurateRip, FLAC -8" %source%


TOC of the extracted CD

Track | Start | Length | Start sector | End sector
––––––––––––––––––––––––––––-
1 | 0:00.00 | 3:50.20 | 0 | 17269
2 | 3:50.20 | 3:42.57 | 17270 | 33976
3 | 7:33.02 | 2:18.22 | 33977 | 44348
4 | 9:51.24 | 3:27.26 | 44349 | 59899
5 | 13:18.50 | 3:26.45 | 59900 | 75394
6 | 16:45.20 | 3:25.43 | 75395 | 90812
7 | 20:10.63 | 3:29.63 | 90813 | 106550
8 | 23:40.51 | 3:14.07 | 106551 | 121107
9 | 26:54.58 | 3:36.31 | 121108 | 137338
10 | 30:31.14 | 1:42.03 | 137339 | 144991
11 | 32:13.17 | 3:48.41 | 144992 | 162132
12 | 36:01.58 | 1:58.69 | 162133 | 171051


Track 1

Filename C:\Users\user\Documents\El Camaron de la Isla & Paco de Lucia - Canastera (1972) [FLAC] {New Integral Cd 4 of 21}\01 - Canastera (Canastera).wav

Pre-gap length 0:00:02.00

Peak level 99.8 %
Extraction speed 1.0 X
Track quality 100.0 %
Test CRC 2B45C44C
Copy CRC 2B45C44C
Track not present in AccurateRip database
Copy OK

Track 2

Filename C:\Users\user\Documents\El Camaron de la Isla & Paco de Lucia - Canastera (1972) [FLAC] {New Integral Cd 4 of 21}\02 - No Dudes de la Nobleza (Fandangos).wav

Peak level 99.8 %
Extraction speed 1.0 X
Track quality 99.9 %
Test CRC E1A34A63
Copy CRC E1A34A63
Track not present in AccurateRip database
Copy OK

Track 3

Filename C:\Users\user\Documents\El Camaron de la Isla & Paco de Lucia - Canastera (1972) [FLAC] {New Integral Cd 4 of 21}\03 - Que a Mi Me Vio de Nacer (Alegrias).wav

Peak level 99.8 %
Extraction speed 1.1 X
Track quality 100.0 %
Test CRC 1BE1B3DB
Copy CRC 1BE1B3DB
Track not present in AccurateRip database
Copy OK

Track 4

Filename C:\Users\user\Documents\El Camaron de la Isla & Paco de Lucia - Canastera (1972) [FLAC] {New Integral Cd 4 of 21}\04 - Calabosito Oscuro (Seguirillas).wav

Peak level 99.8 %
Extraction speed 1.3 X
Track quality 100.0 %
Test CRC A5254BEE
Copy CRC A5254BEE
Track not present in AccurateRip database
Copy OK

Track 5

Filename C:\Users\user\Documents\El Camaron de la Isla & Paco de Lucia - Canastera (1972) [FLAC] {New Integral Cd 4 of 21}\05 - No Quisiera Que Te Fueras (Bulerias).wav

Peak level 99.8 %
Extraction speed 1.4 X
Track quality 100.0 %
Test CRC 98177174
Copy CRC 98177174
Track not present in AccurateRip database
Copy OK

Track 6

Filename C:\Users\user\Documents\El Camaron de la Isla & Paco de Lucia - Canastera (1972) [FLAC] {New Integral Cd 4 of 21}\06 - Las Campanas Tambien Lloran (Tientos).wav

Peak level 99.8 %
Extraction speed 1.5 X
Track quality 100.0 %
Test CRC F12C85D2
Copy CRC F12C85D2
Track not present in AccurateRip database
Copy OK

Track 7

Filename C:\Users\user\Documents\El Camaron de la Isla & Paco de Lucia - Canastera (1972) [FLAC] {New Integral Cd 4 of 21}\07 - Una Gitana Morena (Bulerias).wav

Peak level 99.8 %
Extraction speed 1.3 X
Track quality 99.9 %
Test CRC 98DC381E
Copy CRC 98DC381E
Track not present in AccurateRip database
Copy OK

Track 8

Filename C:\Users\user\Documents\El Camaron de la Isla & Paco de Lucia - Canastera (1972) [FLAC] {New Integral Cd 4 of 21}\08 - La Vi por Primera Vez (Fandangos).wav

Peak level 99.8 %
Extraction speed 1.5 X
Track quality 100.0 %
Test CRC 04B7D195
Copy CRC 04B7D195
Track not present in AccurateRip database
Copy OK

Track 9

Filename C:\Users\user\Documents\El Camaron de la Isla & Paco de Lucia - Canastera (1972) [FLAC] {New Integral Cd 4 of 21}\09 - Estas Ciego Pa No Ver (Solea).wav

Peak level 99.8 %
Extraction speed 1.6 X
Track quality 100.0 %
Test CRC 1230FDC6
Copy CRC 1230FDC6
Track not present in AccurateRip database
Copy OK

Track 10

Filename C:\Users\user\Documents\El Camaron de la Isla & Paco de Lucia - Canastera (1972) [FLAC] {New Integral Cd 4 of 21}\10 - Sonaba Siempre Contigo (Cartagenera).wav

Peak level 99.8 %
Extraction speed 1.5 X
Track quality 100.0 %
Test CRC F3E4C606
Copy CRC F3E4C606
Track not present in AccurateRip database
Copy OK

Track 11

Filename C:\Users\user\Documents\El Camaron de la Isla & Paco de Lucia - Canastera (1972) [FLAC] {New Integral Cd 4 of 21}\11 - Y Me Gustan las Mujeres (Tangos).wav

Peak level 99.8 %
Extraction speed 1.8 X
Track quality 100.0 %
Test CRC DC72EE87
Copy CRC DC72EE87
Track not present in AccurateRip database
Copy OK

Track 12

Filename C:\Users\user\Documents\El Camaron de la Isla & Paco de Lucia - Canastera (1972) [FLAC] {New Integral Cd 4 of 21}\12 - Dios Te Dara a Ti la Gloria (Verdiales).wav

Peak level 99.8 %
Extraction speed 1.6 X
Track quality 100.0 %
Test CRC 81E974BE
Copy CRC 81E974BE
Track not present in AccurateRip database
Copy OK


None of the tracks are present in the AccurateRip database

No errors occurred

End of status report

==== Log checksum A8257BA307F4161325C2AB879B3EE27913E40800C84CA4F6A7793D4BEA2ED127 ====


El Camaron de la Isla & Paco de Lucia - Canastera (1972) {2011 Nueva Integral Box Set CD 04of21}

El Camaron de la Isla & Paco de Lucia - Canastera (1972) {2011 Nueva Integral Box Set CD 04of21}


All thanks goes to the original releaser!

NEXT -> El Camaron de la Isla & Paco de Lucia - Caminito de Totana (1973) {2011 Nueva Integral Box Set CD 05of21}

Paco de Lucia & Ricardo Mo...va Integral Box Set CD 01of27}
Paco de Lucia & Ricardo Mo...va Integral Box Set CD 02of27}
Paco de Lucia & Ricardo Mo...va Integral Box Set CD 03of27}
Paco de Lucia - La Fabulosa Gu...va Integral Box Set CD 04of27}
Paco de Lucia & Ramon de A...va Integral Box Set CD 05of27}

Paco de Lucia & Ramon de A...va Integral Box Set CD 06of27}
Paco de Lucia - Fantasia Flame...va Integral Box Set CD 07of27}
Paco de Lucia & Ramon de A...va Integral Box Set CD 08of27}
Paco de Lucia & Ramon de A...va Integral Box Set CD 09of27}
Paco de Lucia - El mundo del F...va Integral Box Set CD 10of27}

Paco de Lucia - Recital de Gui...va Integral Box Set CD 11of27}
Paco de Lucia - El Duende Flam...va Integral Box Set CD 12of27}
Paco de Lucia - Fuente y Cauda...va Integral Box Set CD 13of27}
Paco de Lucia - En vivo desde ... Integral Box Set CD 14 of 27}
Paco de Lucia - Almoraima (197... Integral Box Set CD 15 of 27}

Paco de Lucia - Interpreta a M... Integral Box Set CD 16 of 27}
Paco de Lucia - Castro Marin (... Integral Box Set CD 17 of 27}
Paco de Lucia - Solo Quiero Ca... Integral Box Set CD 18 of 27}
Paco de Lucia & Sextet - L... Integral Box Set CD 19 of 27}
Paco de Lucia - Siroco (1987) ... Integral Box Set CD 20 of 27}

Paco de Lucia - Zyryab (1990) ... Integral Box Set CD 21 of 27}
Paco de Lucia - Concierto de A... Integral Box Set CD 22 of 27}
Paco de Lucia & Sextet - L... Integral Box Set CD 23 of 27}
Paco de Lucia , Al Di Meola &a... Integral Box Set CD 24 of 27}
Paco de Lucia - Luzia (1998) {2010 Nueva Integral Box Set CD 25 of 27}

Paco de Lucia - Por Descubrir ... Integral Box Set CD 26 of 27}
Paco de Lucia - Cositas Buenas... Integral Box Set CD 27 of 27}

== Camaron - La Leyenda Del Ti...versary Remastered Edition} ==

Paco de Lucia - En Vivo Concie...5 PAL - Universal Music Spain}

Paco de Lucia - Francisco Sanc...5 PAL] {Universal Music Spain}

Paco de Lucia & John McLau...x 1987 (2016) {2CD+Bonus DVD9}

El Camaron de la Isla & Pa...va Integral Box Set CD 01of21}
El Camaron de la Isla & Pa...va Integral Box Set CD 02of21}
El Camaron de la Isla & Pa...va Integral Box Set CD 03of21}



===