Tags
Language
Tags

El Camaron de la Isla with Paco de Lucia & Tomatito - Vivire (1984) {2011 Nueva Integral Box Set CD 13of21}

Posted By: ruskaval
El Camaron de la Isla with Paco de Lucia & Tomatito - Vivire (1984) {2011 Nueva Integral Box Set CD 13of21}

El Camaron de la Isla with Paco de Lucia & Tomatito - Vivire (1984) {2011 Nueva Integral Box Set CD 13of21}
EAC rip (secure mode) | FLAC (tracks)+CUE+LOG -> 195 Mb | MP3 @320 -> 73 Mb
Full Artwork @ 600 dpi (jpg) -> 18 Mb | 5% repair rar
© 1984, 2011 Universal Music Spain | 0602498716205
Flamenco / World Music / Vocal / Guitar / Western European Traditions

A limited edition of the Camaron de la Isla 'Integral' box-set. It represents a veritable journey through his life and singing. It includes 21 original albums. The first 17 of them were made in recording studios by Camaron from 1969 to 1992 while he was alive. "In this album the Paco de Lucia Sextet attains a significant role, except for Ramon de Algeciras, who is absent"

The next album "Vivire", arrived a year later. Despite the short space of time passed, we notice a certain change in the timbre of Camaron's voice, which can maybe be blamed on the recording's mixing. It is the first time the front jacket cover is formed by a drawing, a bust of the "cantaor" drawn by the specialist Maximo Moreno. In this album the Paco de Lucia Sextet attains a significant role, except for Ramon de Algeciras, who is absent. Pepe de Lucia returns to compose (five cuts), and with him Antonio Humanes (three). In production the responsibilities are shared by Ricardo Pachon, Paco and Pepe de Lucia.

El Camaron de la Isla with Paco de Lucia & Tomatito - Vivire (1984) {2011 Nueva Integral Box Set CD 13of21}


"Vivire'" is the "buleria" opening the album. It has an almost identical structure to the "Gitanos andaluces" of the Sextet, except that here Jose sings and Tomatito plays second guitar. "Campanas del Alba" is based on the "cante" with "seguirioas" that Camaron performs with astounding pathos, and is intelligently arranged by Joan Albert Amargos, who brings back the memory of Manuel de Falla's music definitely not a bad thing. "Mi sangre grita" is a "tango-rumba" in the style of Humanes, with catchy choruses that are well-executed. The guitars play with the flute of Jorge Pardo, and the choir and hand-clapping come in at the end. The "alegrias" "Mar amargo" also reminds us of the Sextet. The bass of Benavent comes in every time the chorus "Hacia la mar Ia vela" is repeated and has a significant role in the flourish of Paco de Lucia. "Ne mes que'r dia" is a tango in the rumba style in which the whole group performs efficiently, and "Nuestros sueсos" is similar to a "tanguillo-rumba" stupendously accompanied by the guitars, bass and "cajon" (box-drum). What remain are two "bulerias" accompanied on guitar and hand-clapping "Dios de la nada" of the Sextet, followed by "Tres luceros", which starts out in major mode then rambles through variants of the classic "cante por fiesta", also recovering a bit of "La Repompa". It cannot be understated.
El Camaron de la Isla with Paco de Lucia & Tomatito - Vivire (1984) {2011 Nueva Integral Box Set CD 13of21}


Contents of the Box Set:
CD 1: Al verte las flores lloran (1969)
CD 2: Cada vez que nos miramos (1970)
CD 3: Son tus ojos dos estrellas (1971)
CD 4: Canastera (1972)
CD 5: Caminito de Totana (1973)
CD 6: Soy caminante (1974)
CD 7: Arte y majestad (1975)
CD 8: Rosa María (1976)
CD 9: Castillo de arena (1977)
CD 10: La leyenda del tiempo (1979)
CD 11: Como el agua (1981)
CD 12: Calle Real (1983)
CD 13: Viviré (1984) <- this one…
CD 14: Te lo dice Camarón (1986)
CD 15: Flamenco vivo (1987)
CD 16: Soy gitano (1989)
CD 17: Potro de rabia y miel (1992)
CD 18: París, 1987 (1987)
CD 19: Antología inédita (2000)
CD 20: En la Venta de Vargas (2004)
CD 21: Reencuentro (2008)


Artists:
Camaron: Singer
Paco de Lucia & Tomatito: guitars

tracklist:
01 - Vivire (Bulerias)
02 - Campanas del Alba (Seguiriyas)
03 - Mi Sangre Grita (Tango-Rumba)
04 - Mar Amargo (Alegrias)
05 - Na Mas Que er Dia (Tangos)
06 - Nuestros Suenos (Tanguillos-Rumba)
07 - Dios de la Nada (Bulerias)
08 - Tres Luceros (Bulerias)

Exact Audio Copy V1.0 beta 3 from 29. August 2011

EAC extraction logfile from 15. April 2012, 16:26

El Camaron de la Isla with Paco de Lucia & Tomatito / Vivire

Used drive : HL-DT-STDVDRAM GH22NS50 Adapter: 0 ID: 0

Read mode : Secure
Utilize accurate stream : Yes
Defeat audio cache : Yes
Make use of C2 pointers : No

Read offset correction : 667
Overread into Lead-In and Lead-Out : No
Fill up missing offset samples with silence : Yes
Delete leading and trailing silent blocks : No
Null samples used in CRC calculations : Yes
Used interface : Installed external ASPI interface
Gap handling : Appended to previous track

Used output format : User Defined Encoder
Selected bitrate : 1024 kBit/s
Quality : High
Add ID3 tag : No
Command line compressor : C:\Program Files\Exact Audio Copy\Flac\flac.exe
Additional command line options : -8 -V -T "ARTIST=%artist%" -T "TITLE=%title%" -T "ALBUM=%albumtitle%" -T "DATE=%year%" -T "TRACKNUMBER=%tracknr%" -T "TOTALTRACKS=%numtracks%" -T "GENRE=%genre%" -T "ALBUMARTIST=%albumartist%" -T "ALBUM ARTIST=%albumartist%" -T "COMMENT=EAC Secure Mode, Test & Copy, AccurateRip, FLAC -8" %source%


TOC of the extracted CD

Track | Start | Length | Start sector | End sector
––––––––––––––––––––––––––––-
1 | 0:00.00 | 3:53.24 | 0 | 17498
2 | 3:53.24 | 4:00.41 | 17499 | 35539
3 | 7:53.65 | 3:59.68 | 35540 | 53532
4 | 11:53.58 | 3:29.46 | 53533 | 69253
5 | 15:23.29 | 3:15.50 | 69254 | 83928
6 | 18:39.04 | 3:05.22 | 83929 | 97825
7 | 21:44.26 | 3:18.13 | 97826 | 112688
8 | 25:02.39 | 5:40.21 | 112689 | 138209


Track 1

Filename C:\Users\user\Documents\El Camaron de la Isla with Paco de Lucia & Tomatito - Vivire (1984) [FLAC] {New Integral Cd 13 of 21}\01 - Vivire (Bulerias).wav

Pre-gap length 0:00:02.00

Peak level 99.8 %
Extraction speed 1.1 X
Track quality 100.0 %
Test CRC 4BF77ADC
Copy CRC 4BF77ADC
Track not present in AccurateRip database
Copy OK

Track 2

Filename C:\Users\user\Documents\El Camaron de la Isla with Paco de Lucia & Tomatito - Vivire (1984) [FLAC] {New Integral Cd 13 of 21}\02 - Campanas del Alba (Seguiriyas).wav

Pre-gap length 0:00:01.33

Peak level 99.8 %
Extraction speed 1.3 X
Track quality 100.0 %
Test CRC 9319C0C1
Copy CRC 9319C0C1
Track not present in AccurateRip database
Copy OK

Track 3

Filename C:\Users\user\Documents\El Camaron de la Isla with Paco de Lucia & Tomatito - Vivire (1984) [FLAC] {New Integral Cd 13 of 21}\03 - Mi Sangre Grita (Tango-Rumba).wav

Pre-gap length 0:00:01.57

Peak level 99.8 %
Extraction speed 1.4 X
Track quality 100.0 %
Test CRC 2CCA5444
Copy CRC 2CCA5444
Track not present in AccurateRip database
Copy OK

Track 4

Filename C:\Users\user\Documents\El Camaron de la Isla with Paco de Lucia & Tomatito - Vivire (1984) [FLAC] {New Integral Cd 13 of 21}\04 - Mar Amargo (Alegrias).wav

Pre-gap length 0:00:01.57

Peak level 99.8 %
Extraction speed 1.5 X
Track quality 100.0 %
Test CRC 29B8E4B3
Copy CRC 29B8E4B3
Track not present in AccurateRip database
Copy OK

Track 5

Filename C:\Users\user\Documents\El Camaron de la Isla with Paco de Lucia & Tomatito - Vivire (1984) [FLAC] {New Integral Cd 13 of 21}\05 - Na Mas Que er Dia (Tangos).wav

Pre-gap length 0:00:01.57

Peak level 99.8 %
Extraction speed 1.6 X
Track quality 100.0 %
Test CRC CC5EEBF5
Copy CRC CC5EEBF5
Track not present in AccurateRip database
Copy OK

Track 6

Filename C:\Users\user\Documents\El Camaron de la Isla with Paco de Lucia & Tomatito - Vivire (1984) [FLAC] {New Integral Cd 13 of 21}\06 - Nuestros Suenos (Tanguillos-Rumba).wav

Pre-gap length 0:00:01.57

Peak level 99.8 %
Extraction speed 1.6 X
Track quality 100.0 %
Test CRC 2AA180A9
Copy CRC 2AA180A9
Track not present in AccurateRip database
Copy OK

Track 7

Filename C:\Users\user\Documents\El Camaron de la Isla with Paco de Lucia & Tomatito - Vivire (1984) [FLAC] {New Integral Cd 13 of 21}\07 - Dios de la Nada (Bulerias).wav

Pre-gap length 0:00:01.54

Peak level 99.8 %
Extraction speed 1.5 X
Track quality 99.9 %
Test CRC 6B1F79B0
Copy CRC 6B1F79B0
Track not present in AccurateRip database
Copy OK

Track 8

Filename C:\Users\user\Documents\El Camaron de la Isla with Paco de Lucia & Tomatito - Vivire (1984) [FLAC] {New Integral Cd 13 of 21}\08 - Tres Luceros (Bulerias).wav

Pre-gap length 0:00:01.57

Peak level 99.8 %
Extraction speed 1.8 X
Track quality 99.9 %
Test CRC BE4951EF
Copy CRC BE4951EF
Track not present in AccurateRip database
Copy OK


None of the tracks are present in the AccurateRip database

No errors occurred

End of status report

==== Log checksum B5B88FCF1FB8BA8D2BFD528F3BFD5CF67802DAA79CEBE1DA4B7A9B02E48397CD ====


El Camaron de la Isla with Paco de Lucia & Tomatito - Vivire (1984) {2011 Nueva Integral Box Set CD 13of21}

El Camaron de la Isla with Paco de Lucia & Tomatito - Vivire (1984) {2011 Nueva Integral Box Set CD 13of21}


All thanks goes to the original releaser!

Paco de Lucia & Ricardo Mo...va Integral Box Set CD 01of27}
Paco de Lucia & Ricardo Mo...va Integral Box Set CD 02of27}
Paco de Lucia & Ricardo Mo...va Integral Box Set CD 03of27}
Paco de Lucia - La Fabulosa Gu...va Integral Box Set CD 04of27}
Paco de Lucia & Ramon de A...va Integral Box Set CD 05of27}

Paco de Lucia & Ramon de A...va Integral Box Set CD 06of27}
Paco de Lucia - Fantasia Flame...va Integral Box Set CD 07of27}
Paco de Lucia & Ramon de A...va Integral Box Set CD 08of27}
Paco de Lucia & Ramon de A...va Integral Box Set CD 09of27}
Paco de Lucia - El mundo del F...va Integral Box Set CD 10of27}

Paco de Lucia - Recital de Gui...va Integral Box Set CD 11of27}
Paco de Lucia - El Duende Flam...va Integral Box Set CD 12of27}
Paco de Lucia - Fuente y Cauda...va Integral Box Set CD 13of27}
Paco de Lucia - En vivo desde ... Integral Box Set CD 14 of 27}
Paco de Lucia - Almoraima (197... Integral Box Set CD 15 of 27}

Paco de Lucia - Interpreta a M... Integral Box Set CD 16 of 27}
Paco de Lucia - Castro Marin (... Integral Box Set CD 17 of 27}
Paco de Lucia - Solo Quiero Ca... Integral Box Set CD 18 of 27}
Paco de Lucia & Sextet - L... Integral Box Set CD 19 of 27}
Paco de Lucia - Siroco (1987) ... Integral Box Set CD 20 of 27}

Paco de Lucia - Zyryab (1990) ... Integral Box Set CD 21 of 27}
Paco de Lucia - Concierto de A... Integral Box Set CD 22 of 27}
Paco de Lucia & Sextet - L... Integral Box Set CD 23 of 27}
Paco de Lucia , Al Di Meola &a... Integral Box Set CD 24 of 27}
Paco de Lucia - Luzia (1998) {2010 Nueva Integral Box Set CD 25 of 27}

Paco de Lucia - Por Descubrir ... Integral Box Set CD 26 of 27}
Paco de Lucia - Cositas Buenas... Integral Box Set CD 27 of 27}

== Camaron - La Leyenda Del Ti...versary Remastered Edition} ==

Paco de Lucia - En Vivo Concie...5 PAL - Universal Music Spain}

Paco de Lucia - Francisco Sanc...5 PAL] {Universal Music Spain}

Paco de Lucia & John McLau...x 1987 (2016) {2CD+Bonus DVD9}

El Camaron de la Isla & Pa...va Integral Box Set CD 01of21}
El Camaron de la Isla & Pa...va Integral Box Set CD 02of21}
El Camaron de la Isla & Pa...va Integral Box Set CD 03of21}
El Camaron de la Isla & Pa...va Integral Box Set CD 04of21}
El Camaron de la Isla & Pa...va Integral Box Set CD 05of21}

El Camaron de la Isla & Pa...va Integral Box Set CD 06of21}
El Camaron de la Isla & Pa...va Integral Box Set CD 07of21}
El Camaron de la Isla & Pa...va Integral Box Set CD 08of21}
El Camaron de la Isla & Pa...va Integral Box Set CD 09of21}

Juan el Flaco - Suena Flamenco (2014) {La Voz del Flamenco LVF1072}

El Camaron de la Isla - La Ley...va Integral Box Set CD 10of21}
El Camaron de la Isla with Pac...va Integral Box Set CD 11of21}
El Camaron de la Isla with Pac...va Integral Box Set CD 12of21}



===