Tags
Language
Tags

Chrissie Hynde - Standing in the Doorway: Chrissie Hynde Sings Bob Dylan (2021)

Posted By: delpotro
Chrissie Hynde - Standing in the Doorway: Chrissie Hynde Sings Bob Dylan (2021)

Chrissie Hynde - Standing in the Doorway: Chrissie Hynde Sings Bob Dylan (2021)
EAC Rip | FLAC (tracks+log+.cue) - 263 Mb | MP3 CBR 320 kbps - 105 Mb | 00:44:57
Folk Rock, Female Vocal | Label: BMG Rights Management

Standing In The Doorway: Chrissie Hynde Sings Bob Dylan will comprises nine renditions of Dylan’s songs and it’s due for release on 21 May – a few days before the icon’s 80th birthday.

Hynde made the record “almost entirely by text message” with her Pretenders bandmate James Walbourne who, according to a press release, would record an initial idea on his phone and send it to Hynde to add her vocal before the tracks were mixed by Tchad Blake.

Speaking about how the album came together and its inspiration, Hynde said: “A few weeks into lockdown last year, James sent me the new Dylan track, Murder Most Foul. Listening to that song completely changed everything for me. I was lifted out of this morose mood that I’d been in.

“I remember where I was sitting the day that Kennedy was shot – every reference in the song. Whatever Bob does, he still manages somewhere in there to make you laugh because as much as anything, he’s a comedian. He’s always funny and always has something to say. That’s when I called James and said, ‘Let’s do some Dylan covers’ and that’s what started this whole thing.”

Accompanying the release of Hynde’s album is Tomorrow Is A Long Time, a new film that captures the recording process of her Dylan covers. The Michael Nunn and William Trevitt-directed film features exclusive filmed performances of all nine songs. It airs on Sky Arts on May 24, Dylan’s birthday.
Tracklist:
1. In the Summertime (03:15)
2. You're a Big Girl Now (04:23)
3. Standing in the Doorway (07:13)
4. Sweetheart like You (05:02)
5. Blind Willie McTell (06:05)
6. Love Minus Zero / No Limit (04:12)
7. Don't Fall Apart on Me Tonight (06:55)
8. Tomorrow Is a Long Time (03:34)
9. Every Grain of Sand (04:12)

Exact Audio Copy V1.6 from 23. October 2020

EAC extraction logfile from 20. November 2021, 14:29

Chrissie Hynde / Standing in the Doorway

Used drive : TSSTcorpDVD+-RW TS-H653A Adapter: 1 ID: 1

Read mode : Secure
Utilize accurate stream : Yes
Defeat audio cache : Yes
Make use of C2 pointers : No

Read offset correction : 6
Overread into Lead-In and Lead-Out : No
Fill up missing offset samples with silence : Yes
Delete leading and trailing silent blocks : No
Null samples used in CRC calculations : Yes
Used interface : Native Win32 interface for Win NT & 2000
Gap handling : Appended to previous track

Used output format : User Defined Encoder
Selected bitrate : 1024 kBit/s
Quality : High
Add ID3 tag : No
Command line compressor : C:\Tools\flac-1.3.2-win\win64\flac.exe
Additional command line options : -8 -V -T "ARTIST=%artist%" -T "TITLE=%title%" -T "ALBUM=%albumtitle%" -T "DATE=%year%" -T "TRACKNUMBER=%tracknr%" -T "GENRE=%genre%" -T "PERFORMER=%albuminterpret%" -T "COMPOSER=%composer%" %haslyrics%–tag-from-file=LYRICS="%lyricsfile%"%haslyrics% -T "ALBUMARTIST=%albumartist%" -T "DISCNUMBER=%cdnumber%" -T "TOTALDISCS=%totalcds%" -T "TOTALTRACKS=%numtracks%" -T "COMMENT=%comment%" %source% -o %dest%


TOC of the extracted CD

Track | Start | Length | Start sector | End sector
––––––––––––––––––––––––––––-
1 | 0:00.00 | 3:16.22 | 0 | 14721
2 | 3:16.22 | 4:23.18 | 14722 | 34464
3 | 7:39.40 | 7:13.58 | 34465 | 66997
4 | 14:53.23 | 5:02.36 | 66998 | 89683
5 | 19:55.59 | 6:05.22 | 89684 | 117080
6 | 26:01.06 | 4:12.03 | 117081 | 135983
7 | 30:13.09 | 6:55.17 | 135984 | 167125
8 | 37:08.26 | 3:34.06 | 167126 | 183181
9 | 40:42.32 | 4:15.02 | 183182 | 202308


Track 1

Filename S:\EAC\Chrissie Hynde - Standing in the Doorway (2021) [CD FLAC] {538684252}\01 - In the Summertime.wav

Pre-gap length 0:00:02.00

Peak level 99.0 %
Extraction speed 4.1 X
Track quality 100.0 %
Test CRC 74245555
Copy CRC 74245555
Accurately ripped (confidence 9) [64741DE7] (AR v2)
Copy OK

Track 2

Filename S:\EAC\Chrissie Hynde - Standing in the Doorway (2021) [CD FLAC] {538684252}\02 - You’re a Big Girl Now.wav

Peak level 98.8 %
Extraction speed 4.3 X
Track quality 99.9 %
Test CRC 07E4CC02
Copy CRC 07E4CC02
Accurately ripped (confidence 9) [A4AB8B13] (AR v2)
Copy OK

Track 3

Filename S:\EAC\Chrissie Hynde - Standing in the Doorway (2021) [CD FLAC] {538684252}\03 - Standing in the Doorway.wav

Peak level 98.8 %
Extraction speed 5.7 X
Track quality 100.0 %
Test CRC 79024FDB
Copy CRC 79024FDB
Accurately ripped (confidence 9) [CB8ED49C] (AR v2)
Copy OK

Track 4

Filename S:\EAC\Chrissie Hynde - Standing in the Doorway (2021) [CD FLAC] {538684252}\04 - Sweetheart Like You.wav

Peak level 99.0 %
Extraction speed 6.0 X
Track quality 100.0 %
Test CRC AF8C303F
Copy CRC AF8C303F
Accurately ripped (confidence 9) [48A7EF2D] (AR v2)
Copy OK

Track 5

Filename S:\EAC\Chrissie Hynde - Standing in the Doorway (2021) [CD FLAC] {538684252}\05 - Blind Willie McTell.wav

Peak level 98.8 %
Extraction speed 6.6 X
Track quality 100.0 %
Test CRC 315922AC
Copy CRC 315922AC
Accurately ripped (confidence 9) [D7A9E0A7] (AR v2)
Copy OK

Track 6

Filename S:\EAC\Chrissie Hynde - Standing in the Doorway (2021) [CD FLAC] {538684252}\06 - Love Minus Zero , No Limit.wav

Peak level 99.1 %
Extraction speed 6.8 X
Track quality 100.0 %
Test CRC 95707726
Copy CRC 95707726
Accurately ripped (confidence 9) [6905ADF7] (AR v2)
Copy OK

Track 7

Filename S:\EAC\Chrissie Hynde - Standing in the Doorway (2021) [CD FLAC] {538684252}\07 - Don’t Fall Apart on Me Tonight.wav

Peak level 98.9 %
Extraction speed 7.5 X
Track quality 100.0 %
Test CRC 15BBB408
Copy CRC 15BBB408
Accurately ripped (confidence 9) [AE2D2C10] (AR v2)
Copy OK

Track 8

Filename S:\EAC\Chrissie Hynde - Standing in the Doorway (2021) [CD FLAC] {538684252}\08 - Tomorrow Is a Long Time.wav

Peak level 98.8 %
Extraction speed 7.4 X
Track quality 100.0 %
Test CRC 1F25FB68
Copy CRC 1F25FB68
Accurately ripped (confidence 9) [A064F499] (AR v2)
Copy OK

Track 9

Filename S:\EAC\Chrissie Hynde - Standing in the Doorway (2021) [CD FLAC] {538684252}\09 - Every Grain of Sand.wav

Peak level 98.8 %
Extraction speed 7.8 X
Track quality 100.0 %
Test CRC 9216D73C
Copy CRC 9216D73C
Accurately ripped (confidence 9) [6BCC6FCB] (AR v2)
Copy OK


All tracks accurately ripped

No errors occurred

End of status report

–– CUETools DB Plugin V2.1.6

[CTDB TOCID: w3ec1bL5nyOvolOkhSSmFZ2lcks-] found
Submit result: w3ec1bL5nyOvolOkhSSmFZ2lcks- has been confirmed
Track | CTDB Status
1 | (57/57) Accurately ripped
2 | (57/57) Accurately ripped
3 | (57/57) Accurately ripped
4 | (57/57) Accurately ripped
5 | (57/57) Accurately ripped
6 | (57/57) Accurately ripped
7 | (57/57) Accurately ripped
8 | (57/57) Accurately ripped
9 | (57/57) Accurately ripped


==== Log checksum DEDCDBD3B8AE66CFC9BA6DCBA3A4F57911786D7C0AF2CF04C407242282833943 ====

Thanks to the Original ripper !