Subcategories

Deben Bhattacharya - Musical Explorers: Music of Tibet (2017)

Posted By: delpotro
Deben Bhattacharya - Musical Explorers: Music of Tibet (2017)

Deben Bhattacharya - Musical Explorers: Music of Tibet (2017)
EAC Rip | FLAC (tracks+log+.cue) | 01:04:04 | 334 Mb
World | Label: Arc Music

Deben Bhattacharya’s film, Echoes from Tibet, was shot in 1979 in Ladakh, (often called ‘Little Tibet’), Darjeeling and Dharamsala. Here many Tibetan exiles and the Dalai Lama (who appears in the film) are based. The music on the accompanying CD was recorded in 1975 and 1979 in the refugee communities of Ladakh, Himalchal Pradesh, Sikkim and Darjeeling, and also in Sarnath, close to Varanasi where the Buddha gave his first sermon.
Tracklist:
1. Jensey (20:20)
2. Reading of the Sacred Text (07:39)
3. Monks at Prayer in Sarnath (03:35)
4. Temple Ceremony of the Drugpa Kagyu Sect (10:24)
5. Tucho Dawe Duchi (08:41)
6. Ema Linchey (02:46)
7. Khampa Folk Dance (04:49)
8. Khampa Patriotic Song (02:42)
9. Khampa Tashi Song (00:49)
10. Conch Shell Blowing (01:38)

Exact Audio Copy V1.3 from 2. September 2016

EAC extraction logfile from 14. April 2018, 20:06

Unknown Artist / Unknown Title

Used drive : PIONEER BD-RW BDR-208D Adapter: 1 ID: 0

Read mode : Secure
Utilize accurate stream : Yes
Defeat audio cache : Yes
Make use of C2 pointers : No

Read offset correction : 667
Overread into Lead-In and Lead-Out : No
Fill up missing offset samples with silence : Yes
Delete leading and trailing silent blocks : No
Null samples used in CRC calculations : Yes
Used interface : Native Win32 interface for Win NT & 2000
Gap handling : Appended to previous track

Used output format : User Defined Encoder
Selected bitrate : 1024 kBit/s
Quality : High
Add ID3 tag : No
Command line compressor : C:\Program Files (x86)\Exact Audio Copy\Flac\flac.exe
Additional command line options : -8 -e -V -T "ARTIST=%artist%" -T "TITLE=%title%" -T "ALBUM=%albumtitle%" -T "DATE=%year%" -T "TRACKNUMBER=%tracknr%" -T "GENRE=%genre%" -T "PERFORMER=%albuminterpret%" -T "COMPOSER=%composer%" %haslyrics%–tag-from-file=LYRICS="%lyricsfile%"%haslyrics% -T "ALBUMARTIST=%albumartist%" -T "DISCNUMBER=%cdnumber%" -T "TOTALDISCS=%totalcds%" -T "TOTALTRACKS=%numtracks%" -T "COMMENT=%comment%" %source% -o %dest%


TOC of the extracted CD

Track | Start | Length | Start sector | End sector
––––––––––––––––––––––––––––-
1 | 0:00.00 | 20:24.65 | 0 | 91864
2 | 20:24.65 | 7:43.32 | 91865 | 126621
3 | 28:08.22 | 3:39.14 | 126622 | 143060
4 | 31:47.36 | 10:28.10 | 143061 | 190170
5 | 42:15.46 | 8:45.43 | 190171 | 229588
6 | 51:01.14 | 2:50.38 | 229589 | 242376
7 | 53:51.52 | 4:53.62 | 242377 | 264413
8 | 58:45.39 | 2:47.02 | 264414 | 276940
9 | 61:32.41 | 0:53.54 | 276941 | 280969
10 | 62:26.20 | 1:38.44 | 280970 | 288363


Track 1

Filename K:\Musique\Tibet\01 - Track01.wav

Pre-gap length 0:00:02.00

Peak level 85.5 %
Extraction speed 3.0 X
Track quality 100.0 %
Test CRC EA6628DC
Copy CRC EA6628DC
Track not present in AccurateRip database
Copy OK

Track 2

Filename K:\Musique\Tibet\02 - Track02.wav

Pre-gap length 0:00:04.00

Peak level 56.6 %
Extraction speed 3.6 X
Track quality 100.0 %
Test CRC B045766F
Copy CRC B045766F
Track not present in AccurateRip database
Copy OK

Track 3

Filename K:\Musique\Tibet\03 - Track03.wav

Pre-gap length 0:00:04.00

Peak level 60.3 %
Extraction speed 3.6 X
Track quality 100.0 %
Test CRC AFF56B1C
Copy CRC AFF56B1C
Track not present in AccurateRip database
Copy OK

Track 4

Filename K:\Musique\Tibet\04 - Track04.wav

Pre-gap length 0:00:04.00

Peak level 97.9 %
Extraction speed 4.0 X
Track quality 99.9 %
Test CRC D044DC94
Copy CRC D044DC94
Track not present in AccurateRip database
Copy OK

Track 5

Filename K:\Musique\Tibet\05 - Track05.wav

Pre-gap length 0:00:04.00

Peak level 71.5 %
Extraction speed 4.5 X
Track quality 100.0 %
Test CRC 2335ADC8
Copy CRC 2335ADC8
Track not present in AccurateRip database
Copy OK

Track 6

Filename K:\Musique\Tibet\06 - Track06.wav

Pre-gap length 0:00:04.00

Peak level 57.6 %
Extraction speed 4.1 X
Track quality 100.0 %
Test CRC 3AB7DD84
Copy CRC 3AB7DD84
Track not present in AccurateRip database
Copy OK

Track 7

Filename K:\Musique\Tibet\07 - Track07.wav

Pre-gap length 0:00:04.00

Peak level 98.8 %
Extraction speed 4.1 X
Track quality 99.9 %
Test CRC 4D519EB8
Copy CRC 4D519EB8
Track not present in AccurateRip database
Copy OK

Track 8

Filename K:\Musique\Tibet\08 - Track08.wav

Pre-gap length 0:00:04.00

Peak level 51.5 %
Extraction speed 4.2 X
Track quality 100.0 %
Test CRC D40552A2
Copy CRC D40552A2
Track not present in AccurateRip database
Copy OK

Track 9

Filename K:\Musique\Tibet\09 - Track09.wav

Pre-gap length 0:00:04.00

Peak level 55.0 %
Extraction speed 3.0 X
Track quality 100.0 %
Test CRC 7B7D80AE
Copy CRC 7B7D80AE
Track not present in AccurateRip database
Copy OK

Track 10

Filename K:\Musique\Tibet\10 - Track10.wav

Pre-gap length 0:00:04.00

Peak level 85.7 %
Extraction speed 3.9 X
Track quality 100.0 %
Test CRC 73D58721
Copy CRC 73D58721
Track not present in AccurateRip database
Copy OK


None of the tracks are present in the AccurateRip database

No errors occurred

End of status report

–– CUETools DB Plugin V2.1.6

[CTDB TOCID: Bk8rDP35LGSUGynFPVx1Mz5R9wk-] disk not present in database
Submit result: Bk8rDP35LGSUGynFPVx1Mz5R9wk- has been uploaded


==== Log checksum 06F5B57A90388282B791D3352EFA509490DAF0C227051F717E76D710395F51C7 ====

Thanks to the Original ripper ravana !