Tags
Language
Tags

Declan McKenna - Zeros (2020)

Posted By: delpotro
Declan McKenna - Zeros (2020)

Declan McKenna - Zeros (2020)
EAC Rip | FLAC (tracks+log+.cue) - 323 Mb | MP3 CBR 320 kbps - 125 Mb | Covers included | 00:40:34
Indie Rock, Indie Pop, Neo-psychedelia | Label: Columbia Records

Columbia Records release eagerly anticipated second record from 21 year old singer / songwriter. This 10 song follow up to 2017's What Do You Think About The Car? includes the hit singles Beautiful Faces, The Key To Life On Earth, Daniel, You're Still A Child and latest single Be An Astronaut.
Tracklist:
1. You Better Believe!!! (04:53)
2. Be an Astronaut (04:35)
3. The Key to Life on Earth (04:06)
4. Beautiful Faces (03:16)
5. Daniel, You're Still a Child (03:58)
6. Emily (04:12)
7. Twice Your Size (03:19)
8. Rapture (03:59)
9. Sagittarius A* (03:57)
10. Eventually, Darling (04:11)

Exact Audio Copy V1.3 from 2. September 2016

EAC extraction logfile from 18. December 2020, 9:28

Declan McKenna / Zeros

Used drive : PLEXTOR PX-891SAF Adapter: 1 ID: 0

Read mode : Secure
Utilize accurate stream : Yes
Defeat audio cache : Yes
Make use of C2 pointers : No

Read offset correction : 6
Overread into Lead-In and Lead-Out : No
Fill up missing offset samples with silence : Yes
Delete leading and trailing silent blocks : No
Null samples used in CRC calculations : Yes
Used interface : Native Win32 interface for Win NT & 2000
Gap handling : Appended to previous track

Used output format : User Defined Encoder
Selected bitrate : 1024 kBit/s
Quality : High
Add ID3 tag : No
Command line compressor : C:\Program Files (x86)\Exact Audio Copy\Flac\flac.exe
Additional command line options : -8 -V -T "ARTIST=%artist%" -T "TITLE=%title%" -T "ALBUM=%albumtitle%" -T "DATE=%year%" -T "TRACKNUMBER=%tracknr%" -T "GENRE=%genre%" -T "PERFORMER=%albuminterpret%" -T "COMPOSER=%composer%" %haslyrics%–tag-from-file=LYRICS="%lyricsfile%"%haslyrics% -T "ALBUMARTIST=%albumartist%" -T "DISCNUMBER=%cdnumber%" -T "TOTALDISCS=%totalcds%" -T "TOTALTRACKS=%numtracks%" -T "COMMENT=%comment%" %source% -o %dest%


TOC of the extracted CD

Track | Start | Length | Start sector | End sector
––––––––––––––––––––––––––––-
1 | 0:00.00 | 4:54.08 | 0 | 22057
2 | 4:54.08 | 4:35.54 | 22058 | 42736
3 | 9:29.62 | 4:06.44 | 42737 | 61230
4 | 13:36.31 | 3:16.58 | 61231 | 75988
5 | 16:53.14 | 3:58.69 | 75989 | 93907
6 | 20:52.08 | 4:12.20 | 93908 | 112827
7 | 25:04.28 | 3:19.61 | 112828 | 127813
8 | 28:24.14 | 3:59.50 | 127814 | 145788
9 | 32:23.64 | 3:57.36 | 145789 | 163599
10 | 36:21.25 | 4:13.49 | 163600 | 182623


Track 1

Filename F:\#EAC wav+flac\#Add\Declan McKenna - Zeros\01. Declan McKenna - You Better Believe!!!.wav

Pre-gap length 0:00:02.00

Peak level 96.4 %
Extraction speed 4.5 X
Track quality 99.9 %
Test CRC 745BD438
Copy CRC 745BD438
Cannot be verified as accurate (confidence 2) [F627BD80], AccurateRip returned [F71A097C] (AR v2)
Copy OK

Track 2

Filename F:\#EAC wav+flac\#Add\Declan McKenna - Zeros\02. Declan McKenna - Be An Astronaut.wav

Peak level 96.6 %
Extraction speed 5.9 X
Track quality 100.0 %
Test CRC EAF6751B
Copy CRC EAF6751B
Cannot be verified as accurate (confidence 2) [299949A1], AccurateRip returned [4FC4FED2] (AR v2)
Copy OK

Track 3

Filename F:\#EAC wav+flac\#Add\Declan McKenna - Zeros\03. Declan McKenna - The Key To Life On Earth.wav

Peak level 96.4 %
Extraction speed 6.4 X
Track quality 100.0 %
Test CRC ACEFBC8E
Copy CRC ACEFBC8E
Cannot be verified as accurate (confidence 2) [FCAD3EF0], AccurateRip returned [73EDE30F] (AR v2)
Copy OK

Track 4

Filename F:\#EAC wav+flac\#Add\Declan McKenna - Zeros\04. Declan McKenna - Beautiful Faces.wav

Peak level 96.4 %
Extraction speed 6.6 X
Track quality 100.0 %
Test CRC CBB50AD8
Copy CRC CBB50AD8
Cannot be verified as accurate (confidence 2) [CF60CBCD], AccurateRip returned [41174E9D] (AR v2)
Copy OK

Track 5

Filename F:\#EAC wav+flac\#Add\Declan McKenna - Zeros\05. Declan McKenna - Daniel, You're Still A Child.wav

Peak level 96.4 %
Extraction speed 7.2 X
Track quality 100.0 %
Test CRC ADD7D3F0
Copy CRC ADD7D3F0
Cannot be verified as accurate (confidence 2) [A43E19B1], AccurateRip returned [788411F5] (AR v2)
Copy OK

Track 6

Filename F:\#EAC wav+flac\#Add\Declan McKenna - Zeros\06. Declan McKenna - Emily.wav

Peak level 96.4 %
Extraction speed 7.6 X
Track quality 100.0 %
Test CRC 544A1722
Copy CRC 544A1722
Cannot be verified as accurate (confidence 2) [9C933BA4], AccurateRip returned [66D0E3C3] (AR v2)
Copy OK

Track 7

Filename F:\#EAC wav+flac\#Add\Declan McKenna - Zeros\07. Declan McKenna - Twice Your Size.wav

Peak level 96.6 %
Extraction speed 6.0 X
Track quality 99.9 %
Test CRC 6D0B6EA3
Copy CRC 6D0B6EA3
Cannot be verified as accurate (confidence 2) [6DBA7F1C], AccurateRip returned [4E365AD3] (AR v2)
Copy OK

Track 8

Filename F:\#EAC wav+flac\#Add\Declan McKenna - Zeros\08. Declan McKenna - Rapture.wav

Peak level 96.4 %
Extraction speed 6.7 X
Track quality 99.9 %
Test CRC DFC75C3D
Copy CRC DFC75C3D
Cannot be verified as accurate (confidence 2) [EDF74954], AccurateRip returned [EDDEB8E6] (AR v2)
Copy OK

Track 9

Filename F:\#EAC wav+flac\#Add\Declan McKenna - Zeros\09. Declan McKenna - Sagittarius Ax.wav

Peak level 96.6 %
Extraction speed 8.4 X
Track quality 100.0 %
Test CRC 18EF7087
Copy CRC 18EF7087
Cannot be verified as accurate (confidence 2) [74559779], AccurateRip returned [9FE7A0B3] (AR v2)
Copy OK

Track 10

Filename F:\#EAC wav+flac\#Add\Declan McKenna - Zeros\10. Declan McKenna - Eventually, Darling.wav

Peak level 96.6 %
Extraction speed 7.2 X
Track quality 99.9 %
Test CRC CCD947E2
Copy CRC CCD947E2
Cannot be verified as accurate (confidence 2) [AEE05E8B], AccurateRip returned [EB92055E] (AR v2)
Copy OK


No tracks could be verified as accurate
You may have a different pressing from the one(s) in the database

No errors occurred

End of status report

–– CUETools DB Plugin V2.1.6

[CTDB TOCID: .DCIZI0gWTvQRXZK1VGZZfVXrkw-] found
Submit result: .DCIZI0gWTvQRXZK1VGZZfVXrkw- has been confirmed
Track | CTDB Status
1 | (17/17) Accurately ripped
2 | (17/17) Accurately ripped
3 | (17/17) Accurately ripped
4 | (17/17) Accurately ripped
5 | (17/17) Accurately ripped
6 | (17/17) Accurately ripped
7 | (17/17) Accurately ripped
8 | (17/17) Accurately ripped
9 | (17/17) Accurately ripped
10 | (17/17) Accurately ripped


==== Log checksum 004F64513CB7685C583BDE96FFAAE54DEACAB7957AE9D82CAB26752FD45C7337 ====

––––––––––––––––––––––––––––––

Exact Audio Copy V1.3 from 2. September 2016

EAC extraction logfile from 18. December 2020, 9:28

Declan McKenna / Zeros

Used drive : PLEXTOR PX-891SAF Adapter: 1 ID: 0

Read mode : Secure
Utilize accurate stream : Yes
Defeat audio cache : Yes
Make use of C2 pointers : No

Read offset correction : 6
Overread into Lead-In and Lead-Out : No
Fill up missing offset samples with silence : Yes
Delete leading and trailing silent blocks : No
Null samples used in CRC calculations : Yes
Used interface : Native Win32 interface for Win NT & 2000
Gap handling : Appended to previous track

Used output format : User Defined Encoder
Selected bitrate : 1024 kBit/s
Quality : High
Add ID3 tag : No
Command line compressor : C:\Program Files (x86)\Exact Audio Copy\Flac\flac.exe
Additional command line options : -8 -V -T "ARTIST=%artist%" -T "TITLE=%title%" -T "ALBUM=%albumtitle%" -T "DATE=%year%" -T "TRACKNUMBER=%tracknr%" -T "GENRE=%genre%" -T "PERFORMER=%albuminterpret%" -T "COMPOSER=%composer%" %haslyrics%–tag-from-file=LYRICS="%lyricsfile%"%haslyrics% -T "ALBUMARTIST=%albumartist%" -T "DISCNUMBER=%cdnumber%" -T "TOTALDISCS=%totalcds%" -T "TOTALTRACKS=%numtracks%" -T "COMMENT=%comment%" %source% -o %dest%


TOC of the extracted CD

Track | Start | Length | Start sector | End sector
––––––––––––––––––––––––––––-
1 | 0:00.00 | 4:54.08 | 0 | 22057
2 | 4:54.08 | 4:35.54 | 22058 | 42736
3 | 9:29.62 | 4:06.44 | 42737 | 61230
4 | 13:36.31 | 3:16.58 | 61231 | 75988
5 | 16:53.14 | 3:58.69 | 75989 | 93907
6 | 20:52.08 | 4:12.20 | 93908 | 112827
7 | 25:04.28 | 3:19.61 | 112828 | 127813
8 | 28:24.14 | 3:59.50 | 127814 | 145788
9 | 32:23.64 | 3:57.36 | 145789 | 163599
10 | 36:21.25 | 4:13.49 | 163600 | 182623


Track 1

Filename F:\#EAC wav+flac\#Add\Declan McKenna - Zeros\01. Declan McKenna - You Better Believe!!!.wav

Pre-gap length 0:00:02.00

Peak level 96.4 %
Extraction speed 4.5 X
Track quality 99.9 %
Test CRC 745BD438
Copy CRC 745BD438
Cannot be verified as accurate (confidence 2) [F627BD80], AccurateRip returned [F71A097C] (AR v2)
Copy OK

Track 2

Filename F:\#EAC wav+flac\#Add\Declan McKenna - Zeros\02. Declan McKenna - Be An Astronaut.wav

Peak level 96.6 %
Extraction speed 5.9 X
Track quality 100.0 %
Test CRC EAF6751B
Copy CRC EAF6751B
Cannot be verified as accurate (confidence 2) [299949A1], AccurateRip returned [4FC4FED2] (AR v2)
Copy OK

Track 3

Filename F:\#EAC wav+flac\#Add\Declan McKenna - Zeros\03. Declan McKenna - The Key To Life On Earth.wav

Peak level 96.4 %
Extraction speed 6.4 X
Track quality 100.0 %
Test CRC ACEFBC8E
Copy CRC ACEFBC8E
Cannot be verified as accurate (confidence 2) [FCAD3EF0], AccurateRip returned [73EDE30F] (AR v2)
Copy OK

Track 4

Filename F:\#EAC wav+flac\#Add\Declan McKenna - Zeros\04. Declan McKenna - Beautiful Faces.wav

Peak level 96.4 %
Extraction speed 6.6 X
Track quality 100.0 %
Test CRC CBB50AD8
Copy CRC CBB50AD8
Cannot be verified as accurate (confidence 2) [CF60CBCD], AccurateRip returned [41174E9D] (AR v2)
Copy OK

Track 5

Filename F:\#EAC wav+flac\#Add\Declan McKenna - Zeros\05. Declan McKenna - Daniel, You're Still A Child.wav

Peak level 96.4 %
Extraction speed 7.2 X
Track quality 100.0 %
Test CRC ADD7D3F0
Copy CRC ADD7D3F0
Cannot be verified as accurate (confidence 2) [A43E19B1], AccurateRip returned [788411F5] (AR v2)
Copy OK

Track 6

Filename F:\#EAC wav+flac\#Add\Declan McKenna - Zeros\06. Declan McKenna - Emily.wav

Peak level 96.4 %
Extraction speed 7.6 X
Track quality 100.0 %
Test CRC 544A1722
Copy CRC 544A1722
Cannot be verified as accurate (confidence 2) [9C933BA4], AccurateRip returned [66D0E3C3] (AR v2)
Copy OK

Track 7

Filename F:\#EAC wav+flac\#Add\Declan McKenna - Zeros\07. Declan McKenna - Twice Your Size.wav

Peak level 96.6 %
Extraction speed 6.0 X
Track quality 99.9 %
Test CRC 6D0B6EA3
Copy CRC 6D0B6EA3
Cannot be verified as accurate (confidence 2) [6DBA7F1C], AccurateRip returned [4E365AD3] (AR v2)
Copy OK

Track 8

Filename F:\#EAC wav+flac\#Add\Declan McKenna - Zeros\08. Declan McKenna - Rapture.wav

Peak level 96.4 %
Extraction speed 6.7 X
Track quality 99.9 %
Test CRC DFC75C3D
Copy CRC DFC75C3D
Cannot be verified as accurate (confidence 2) [EDF74954], AccurateRip returned [EDDEB8E6] (AR v2)
Copy OK

Track 9

Filename F:\#EAC wav+flac\#Add\Declan McKenna - Zeros\09. Declan McKenna - Sagittarius Ax.wav

Peak level 96.6 %
Extraction speed 8.4 X
Track quality 100.0 %
Test CRC 18EF7087
Copy CRC 18EF7087
Cannot be verified as accurate (confidence 2) [74559779], AccurateRip returned [9FE7A0B3] (AR v2)
Copy OK

Track 10

Filename F:\#EAC wav+flac\#Add\Declan McKenna - Zeros\10. Declan McKenna - Eventually, Darling.wav

Peak level 96.6 %
Extraction speed 7.2 X
Track quality 99.9 %
Test CRC CCD947E2
Copy CRC CCD947E2
Cannot be verified as accurate (confidence 2) [AEE05E8B], AccurateRip returned [EB92055E] (AR v2)
Copy OK


No tracks could be verified as accurate
You may have a different pressing from the one(s) in the database

No errors occurred

End of status report

–– CUETools DB Plugin V2.1.6

[CTDB TOCID: .DCIZI0gWTvQRXZK1VGZZfVXrkw-] found
Submit result: .DCIZI0gWTvQRXZK1VGZZfVXrkw- has been confirmed
Track | CTDB Status
1 | (17/17) Accurately ripped
2 | (17/17) Accurately ripped
3 | (17/17) Accurately ripped
4 | (17/17) Accurately ripped
5 | (17/17) Accurately ripped
6 | (17/17) Accurately ripped
7 | (17/17) Accurately ripped
8 | (17/17) Accurately ripped
9 | (17/17) Accurately ripped
10 | (17/17) Accurately ripped


==== Log checksum 004F64513CB7685C583BDE96FFAAE54DEACAB7957AE9D82CAB26752FD45C7337 ====

Thanks to the Original ripper !