Subcategories

Delerium - Voice: An Acoustic Collection

Posted By: jetset
Delerium - Voice: An Acoustic Collection

Delerium - Voice: An Acoustic Collection (2010)
EAC Rip | FLAC (Tracks)+CUE, LOG | Scans | MP3 320 CBR | 400 MB/145 MB
Ambient pop | Label: Nettwerk | Fileserve + Filesonic

2010 release, the first-ever acoustic album from the legendary and influential Canadian Electronic duo. Voice: An Acoustic Collection is comprised of previously unreleased versions of Delerium's most memorable tracks, which are beautifully transformed into stripped down, acoustic renditions that serve justice to their ambient, Electronic Pop originals. Voice: An Acoustic Collection features serene interpretations of Delerium's most successful singles, including 'Silence' (featuring Sarah McLachlan), 'Lost And Found' (featuring Jael), 'Innocente' (featuring Leigh Nash), and 'Flowers Become Screens' (featuring Kristy Thirsk). The album also includes three brand new songs in the acoustic style: 'Too Late Farewell' (featuring Butterfly Boucher), 'Send Me An Angel' (featuring Miranda Lee Richards) and 'Vienna' (featuring Elsiane).

Tracklist:

01. Send Me An Angel (Previously Unreleased) (Feat. Miranda Lee Richards) (3:52)
02. Dust In Gravity (Acoustic) (Feat. Kreesha Turner) (4:02)
03. Too Late, Farewell (Previously Unreleased) (Feat. Butterfly Boucher) (3:57)
04. Silence (Acoustic) (Feat. Sarah McLachlan) (5:05)
05. Innocente (Acoustic) (Feat. Leigh Nash) (6:08)
06. Vienna (Previously Unreleased) (Feat. Elsiane) (5:08)
07. Lost And Found (Acoustic) (Feat. Jaël) (3:43)
08. Flowers Become Screens (Acoustic) (Feat. Kristy Thirsk) (5:59)
09. Love (Acoustic) (Feat. Zoe Johnston) (3:35)
10. After All (Acoustic) (Feat. Jaël) (3:48)
11. Orbit Of Me (Acoustic) (Feat. Leigh Nash) (4:27)
12. Touched (Acoustic) (Feat. Rachel Fuller) (4:07)

Exact Audio Copy V0.99 prebeta 5 from 4. May 2009

EAC extraction logfile from 1. November 2010, 16:58

Delerium / Voice (An Acoustic Collection)

Used drive : TSSTcorpCDRWDVD TS-H492C Adapter: 0 ID: 0

Read mode : Secure
Utilize accurate stream : Yes
Defeat audio cache : Yes
Make use of C2 pointers : No

Read offset correction : 6
Overread into Lead-In and Lead-Out : No
Fill up missing offset samples with silence : Yes
Delete leading and trailing silent blocks : No
Null samples used in CRC calculations : No
Used interface : Native Win32 interface for Win NT & 2000
Gap handling : Appended to previous track

Used output format : User Defined Encoder
Selected bitrate : 1024 kBit/s
Quality : High
Add ID3 tag : No
Command line compressor : C:\Program Files\Exact Audio Copy\Flac\flac.exe
Additional command line options : -f –best -T "artist=%a" -T "title=%t" -T "album=%g" -T "date=%y" -T "tracknumber=%n" -T "genre=%m" %s


TOC of the extracted CD

Track | Start | Length | Start sector | End sector
––––––––––––––––––––––––––––-
1 | 0:00.00 | 3:51.60 | 0 | 17384
2 | 3:51.60 | 4:01.67 | 17385 | 35526
3 | 7:53.52 | 3:56.63 | 35527 | 53289
4 | 11:50.40 | 5:04.58 | 53290 | 76147
5 | 16:55.23 | 6:07.40 | 76148 | 103712
6 | 23:02.63 | 5:07.55 | 103713 | 126792
7 | 28:10.43 | 3:43.30 | 126793 | 143547
8 | 31:53.73 | 5:58.64 | 143548 | 170461
9 | 37:52.62 | 3:35.02 | 170462 | 186588
10 | 41:27.64 | 3:48.37 | 186589 | 203725
11 | 45:16.26 | 4:26.50 | 203726 | 223725
12 | 49:43.01 | 4:06.62 | 223726 | 242237


Track 1

Filename C:\Delerium - Voice (An Acoustic Collection)\tracks\01 - Send Me An Angel.wav

Pre-gap length 0:00:02.00

Peak level 98.8 %
Track quality 100.0 %
Test CRC 7A035FA0
Copy CRC 7A035FA0
Track not present in AccurateRip database
Copy OK

Track 2

Filename C:\Delerium - Voice (An Acoustic Collection)\tracks\02 - Dust In Gravity (acoustic).wav

Pre-gap length 0:00:00.35

Peak level 98.7 %
Track quality 100.0 %
Test CRC 196C0F74
Copy CRC 196C0F74
Track not present in AccurateRip database
Copy OK

Track 3

Filename C:\Delerium - Voice (An Acoustic Collection)\tracks\03 - Too Late, Farewell.wav

Pre-gap length 0:00:00.72

Peak level 97.5 %
Track quality 100.0 %
Test CRC BAE0EEF7
Copy CRC BAE0EEF7
Track not present in AccurateRip database
Copy OK

Track 4

Filename C:\Delerium - Voice (An Acoustic Collection)\tracks\04 - Silence (acoustic).wav

Pre-gap length 0:00:00.67

Peak level 97.7 %
Track quality 100.0 %
Test CRC 8A7B581A
Copy CRC 8A7B581A
Track not present in AccurateRip database
Copy OK

Track 5

Filename C:\Delerium - Voice (An Acoustic Collection)\tracks\05 - Innocente (acoustic).wav

Pre-gap length 0:00:00.36

Peak level 97.7 %
Track quality 100.0 %
Test CRC D6E1C852
Copy CRC D6E1C852
Track not present in AccurateRip database
Copy OK

Track 6

Filename C:\Delerium - Voice (An Acoustic Collection)\tracks\06 - Vienna.wav

Pre-gap length 0:00:02.00

Peak level 97.7 %
Track quality 100.0 %
Test CRC BD110C4B
Copy CRC BD110C4B
Track not present in AccurateRip database
Copy OK

Track 7

Filename C:\Delerium - Voice (An Acoustic Collection)\tracks\07 - Lost And Found (acoustic).wav

Pre-gap length 0:00:00.04

Peak level 97.7 %
Track quality 100.0 %
Test CRC A832EF75
Copy CRC A832EF75
Track not present in AccurateRip database
Copy OK

Track 8

Filename C:\Delerium - Voice (An Acoustic Collection)\tracks\08 - Flowers Become Screens (acoustic).wav

Pre-gap length 0:00:00.35

Peak level 97.7 %
Track quality 100.0 %
Test CRC EE7961DC
Copy CRC EE7961DC
Track not present in AccurateRip database
Copy OK

Track 9

Filename C:\Delerium - Voice (An Acoustic Collection)\tracks\09 - Love (acoustic).wav

Pre-gap length 0:00:02.00

Peak level 97.7 %
Track quality 100.0 %
Test CRC 2D2E5ACC
Copy CRC 2D2E5ACC
Track not present in AccurateRip database
Copy OK

Track 10

Filename C:\Delerium - Voice (An Acoustic Collection)\tracks\10 - After All (acoustic).wav

Pre-gap length 0:00:02.00

Peak level 98.6 %
Track quality 100.0 %
Test CRC F1BC5919
Copy CRC F1BC5919
Track not present in AccurateRip database
Copy OK

Track 11

Filename C:\Delerium - Voice (An Acoustic Collection)\tracks\11 - Orbit Of Me (acoustic).wav

Pre-gap length 0:00:01.40

Peak level 97.7 %
Track quality 100.0 %
Test CRC ED490DDF
Copy CRC ED490DDF
Track not present in AccurateRip database
Copy OK

Track 12

Filename C:\Delerium - Voice (An Acoustic Collection)\tracks\12 - Touched (acoustic).wav

Pre-gap length 0:00:02.00

Peak level 97.7 %
Track quality 100.0 %
Test CRC 29B9D771
Copy CRC 29B9D771
Track not present in AccurateRip database
Copy OK


None of the tracks are present in the AccurateRip database

No errors occurred

End of status report


Download FREE


NO Mirror Please!