Daniel Licht & VA - Dexter Season 5: Music from the Showtime Original Series (2011)

Posted By: Designol
Daniel Licht & VA - Dexter Season 5: Music from the Showtime Original Series (2011)

Daniel Licht & VA - Dexter Season 5: Music from the Showtime Original Series (2011)
EAC | FLAC | Tracks (Cue&Log) ~ 405 Mb (incl 5%) | Mp3 (CBR320/Stereo) ~ 189 Mb (incl 5%) | Scans included
Genre: Soundtrack, Score, Salsa | Label: Milan Records | # M2-36548 | Time: 01:09:52

After a season of committing high-risk, high-absurdity murders that contributed to a heart-wrenching conclusion, season five of Dexter finds the lawful evil antihero trying to pick up the pieces of his broken life while continuing to struggle with his inner demons. The soundtrack offers plenty of stylish, sun-soaked Latin and salsa music, from classic artists like Beny More to contemporary acts like the electro and hip hop-tinged Bomba Estereo. Selections from Daniel Licht’s atmospheric score round out the collection, capturing all of the drama and eeriness viewers have come to expect from the cable series.

Review by Chrysta Cherrie, Allmusic.com
Daniel Licht & VA - Dexter Season 5: Music from the Showtime Original Series (2011)

Daniel Licht Website
Daniel Licht at Wiki

Dexter Website
Dexter at IMDB
Dexter at Wiki


Tracklist:

01. Rolfe Kent - Dexter Main Title [01:42]
02. Bomba Estereo - Fuego [04:34]
03. Patato - San Francisco Tiene Su Propio Son (Edit) [04:03]
04. The Cuban All Star Band - Chan Chan [04:17]
05. Malo - Suavecito [03:25]
06. Los Iracundos - Moritat (Mack the Knife) [02:20]
07. Beny More - Conoci la Paz [03:03]
08. Latin Bitman - I Wanna Wake You Up (feat. C-Funk & Juan Sativo) [03:32]
09. Amicklar & Chocolate - Som de Preto [03:32]
10. Daniel Licht - Blood Theme 2010 [02:13]
11. Daniel Licht - Nurse Dexter [02:30]
12. Daniel Licht - Headstart [02:21]
13. Daniel Licht - Don't Be Sorry [03:09]
14. Daniel Licht - Go Home [01:57]
15. Daniel Licht - Tattoo-Chasing Lance [01:37]
16. Daniel Licht - The Kids Leave [02:27]
17. Daniel Licht - Red Rainbows [01:29]
18. Daniel Licht - Dex Takes the Stage [02:57]
19. Daniel Licht - About Owen [01:58]
20. Daniel Licht - The Past [01:00]
21. Daniel Licht - The Pond [04:12]
22. Daniel Licht - Peculiar [00:55]
23. Daniel Licht - Laura and Harry [01:44]
24. Daniel Licht - Chasing Lumen [01:07]
25. Daniel Licht - Liddy Dies [01:32]
26. Daniel Licht - Eulogy / Have a Chance [02:59]
27. Daniel Licht - Amor Mas Mas Locon (Bonus Track / Exclusive song performer by Jon Licht) [02:55]


Exact Audio Copy V0.99 prebeta 5 from 4. May 2009

EAC extraction logfile from 23. August 2011, 21:04

Various / Dexter: Season 5 - Music From The Showtime Original Series

Used drive : Optiarc DVD RW AD-7241S Adapter: 1 ID: 0

Read mode : Secure
Utilize accurate stream : Yes
Defeat audio cache : Yes
Make use of C2 pointers : No

Read offset correction : 48
Overread into Lead-In and Lead-Out : No
Fill up missing offset samples with silence : Yes
Delete leading and trailing silent blocks : No
Null samples used in CRC calculations : Yes
Used interface : Native Win32 interface for Win NT & 2000
Gap handling : Appended to previous track

Used output format : User Defined Encoder
Selected bitrate : 128 kBit/s
Quality : High
Add ID3 tag : No
Command line compressor : C:\Program Files (x86)\Exact Audio Copy\Flac\flac.exe
Additional command line options : -8 -V -T "artist=%a" -T "title=%t" -T "album=%g" -T "date=%y" -T "tracknumber=%n" -T "genre=%m" %s


TOC of the extracted CD

Track | Start | Length | Start sector | End sector
––––––––––––––––––––––––––––-
1 | 0:00.00 | 1:42.70 | 0 | 7719
2 | 1:42.70 | 4:34.25 | 7720 | 28294
3 | 6:17.20 | 4:03.48 | 28295 | 46567
4 | 10:20.68 | 4:17.62 | 46568 | 65904
5 | 14:38.55 | 3:25.15 | 65905 | 81294
6 | 18:03.70 | 2:20.42 | 81295 | 91836
7 | 20:24.37 | 3:03.00 | 91837 | 105561
8 | 23:27.37 | 3:32.38 | 105562 | 121499
9 | 27:00.00 | 3:32.21 | 121500 | 137420
10 | 30:32.21 | 2:13.20 | 137421 | 147415
11 | 32:45.41 | 2:30.57 | 147416 | 158722
12 | 35:16.23 | 2:21.14 | 158723 | 169311
13 | 37:37.37 | 3:09.63 | 169312 | 183549
14 | 40:47.25 | 1:57.62 | 183550 | 192386
15 | 42:45.12 | 1:37.53 | 192387 | 199714
16 | 44:22.65 | 2:27.36 | 199715 | 210775
17 | 46:50.26 | 1:29.00 | 210776 | 217450
18 | 48:19.26 | 2:57.48 | 217451 | 230773
19 | 51:16.74 | 1:58.17 | 230774 | 239640
20 | 53:15.16 | 1:00.62 | 239641 | 244202
21 | 54:16.03 | 4:12.21 | 244203 | 263123
22 | 58:28.24 | 0:55.20 | 263124 | 267268
23 | 59:23.44 | 1:44.01 | 267269 | 275069
24 | 61:07.45 | 1:07.03 | 275070 | 280097
25 | 62:14.48 | 1:32.30 | 280098 | 287027
26 | 63:47.03 | 2:59.23 | 287028 | 300475
27 | 66:46.26 | 2:55.74 | 300476 | 313674


Track 1

Filename C:\Users\chris\Desktop\Rips\01 - Dexter Main Title.wav

Pre-gap length 0:00:02.00

Peak level 70.7 %
Track quality 99.8 %
Test CRC 9F5C24D7
Copy CRC 9F5C24D7
Track not present in AccurateRip database
Copy OK

Track 2

Filename C:\Users\chris\Desktop\Rips\02 - Fuego.wav

Peak level 70.7 %
Track quality 100.0 %
Test CRC A5DCD149
Copy CRC A5DCD149
Track not present in AccurateRip database
Copy OK

Track 3

Filename C:\Users\chris\Desktop\Rips\03 - San Francisco Tiene Su Propio Son (Edit).wav

Peak level 70.7 %
Track quality 100.0 %
Test CRC 0AEF25A4
Copy CRC 0AEF25A4
Track not present in AccurateRip database
Copy OK

Track 4

Filename C:\Users\chris\Desktop\Rips\04 - Chan Chan.wav

Peak level 70.7 %
Track quality 100.0 %
Test CRC 2764E1D0
Copy CRC 2764E1D0
Track not present in AccurateRip database
Copy OK

Track 5

Filename C:\Users\chris\Desktop\Rips\05 - Suavecito.wav

Peak level 69.6 %
Track quality 99.9 %
Test CRC 46F21D04
Copy CRC 46F21D04
Track not present in AccurateRip database
Copy OK

Track 6

Filename C:\Users\chris\Desktop\Rips\06 - Moritat (Mack the Knife).wav

Peak level 70.7 %
Track quality 100.0 %
Test CRC 9A9316A1
Copy CRC 9A9316A1
Track not present in AccurateRip database
Copy OK

Track 7

Filename C:\Users\chris\Desktop\Rips\07 - Conoci la Paz.wav

Peak level 66.1 %
Track quality 100.0 %
Test CRC 36BE58A8
Copy CRC 36BE58A8
Track not present in AccurateRip database
Copy OK

Track 8

Filename C:\Users\chris\Desktop\Rips\08 - I Wanna Wake You Up (feat. C-Funk & Juan Sativo).wav

Peak level 70.7 %
Track quality 99.9 %
Test CRC 90FD2826
Copy CRC 90FD2826
Track not present in AccurateRip database
Copy OK

Track 9

Filename C:\Users\chris\Desktop\Rips\09 - Som de Preto.wav

Peak level 69.5 %
Track quality 100.0 %
Test CRC 8A0CF5D1
Copy CRC 8A0CF5D1
Track not present in AccurateRip database
Copy OK

Track 10

Filename C:\Users\chris\Desktop\Rips\10 - Blood Theme 2010.wav

Peak level 96.5 %
Track quality 100.0 %
Test CRC 47B1B587
Copy CRC 47B1B587
Track not present in AccurateRip database
Copy OK

Track 11

Filename C:\Users\chris\Desktop\Rips\11 - Nurse Dexter.wav

Peak level 97.7 %
Track quality 99.9 %
Test CRC C4FBD25F
Copy CRC C4FBD25F
Track not present in AccurateRip database
Copy OK

Track 12

Filename C:\Users\chris\Desktop\Rips\12 - Headstart.wav

Peak level 97.0 %
Track quality 100.0 %
Test CRC F931DFFB
Copy CRC F931DFFB
Track not present in AccurateRip database
Copy OK

Track 13

Filename C:\Users\chris\Desktop\Rips\13 - Don't Be Sorry.wav

Peak level 97.4 %
Track quality 100.0 %
Test CRC 730352BB
Copy CRC 730352BB
Track not present in AccurateRip database
Copy OK

Track 14

Filename C:\Users\chris\Desktop\Rips\14 - Go Home.wav

Peak level 96.5 %
Track quality 100.0 %
Test CRC 745469A1
Copy CRC 745469A1
Track not present in AccurateRip database
Copy OK

Track 15

Filename C:\Users\chris\Desktop\Rips\15 - Tattoo-Chasing Lance.wav

Peak level 100.0 %
Track quality 100.0 %
Test CRC 6C563CD3
Copy CRC 6C563CD3
Track not present in AccurateRip database
Copy OK

Track 16

Filename C:\Users\chris\Desktop\Rips\16 - The Kids Leave.wav

Peak level 94.8 %
Track quality 100.0 %
Test CRC 03D2D147
Copy CRC 03D2D147
Track not present in AccurateRip database
Copy OK

Track 17

Filename C:\Users\chris\Desktop\Rips\17 - Red Rainbows.wav

Peak level 96.5 %
Track quality 99.8 %
Test CRC 8437F46F
Copy CRC 8437F46F
Track not present in AccurateRip database
Copy OK

Track 18

Filename C:\Users\chris\Desktop\Rips\18 - Dex Takes the Stage.wav

Peak level 96.5 %
Track quality 99.9 %
Test CRC B6B8136B
Copy CRC B6B8136B
Track not present in AccurateRip database
Copy OK

Track 19

Filename C:\Users\chris\Desktop\Rips\19 - About Owen.wav

Peak level 99.2 %
Track quality 99.9 %
Test CRC 51463374
Copy CRC 51463374
Track not present in AccurateRip database
Copy OK

Track 20

Filename C:\Users\chris\Desktop\Rips\20 - The Past.wav

Peak level 99.6 %
Track quality 100.0 %
Test CRC DD162E5C
Copy CRC DD162E5C
Track not present in AccurateRip database
Copy OK

Track 21

Filename C:\Users\chris\Desktop\Rips\21 - The Pond.wav

Peak level 96.3 %
Track quality 100.0 %
Test CRC B0DE9BE6
Copy CRC B0DE9BE6
Track not present in AccurateRip database
Copy OK

Track 22

Filename C:\Users\chris\Desktop\Rips\22 - Peculiar.wav

Peak level 97.0 %
Track quality 100.0 %
Test CRC E4782523
Copy CRC E4782523
Track not present in AccurateRip database
Copy OK

Track 23

Filename C:\Users\chris\Desktop\Rips\23 - Laura and Harry.wav

Peak level 61.6 %
Track quality 100.0 %
Test CRC DE91C482
Copy CRC DE91C482
Track not present in AccurateRip database
Copy OK

Track 24

Filename C:\Users\chris\Desktop\Rips\24 - Chasing Lumen.wav

Peak level 89.0 %
Track quality 100.0 %
Test CRC 5F369119
Copy CRC 5F369119
Track not present in AccurateRip database
Copy OK

Track 25

Filename C:\Users\chris\Desktop\Rips\25 - Liddy Dies.wav

Peak level 99.9 %
Track quality 100.0 %
Test CRC 0230DB22
Copy CRC 0230DB22
Track not present in AccurateRip database
Copy OK

Track 26

Filename C:\Users\chris\Desktop\Rips\26 - Eulogy , Have a Chance.wav

Peak level 96.3 %
Track quality 99.9 %
Test CRC B836397A
Copy CRC B836397A
Track not present in AccurateRip database
Copy OK

Track 27

Filename C:\Users\chris\Desktop\Rips\27 - Amor Mas Mas Locon (Bonus Track).wav

Peak level 100.0 %
Track quality 99.9 %
Test CRC 5B356B0A
Copy CRC 5B356B0A
Track not present in AccurateRip database
Copy OK


None of the tracks are present in the AccurateRip database

No errors occurred

End of status report

foobar2000 1.2 / Dynamic Range Meter 1.1.1
log date: 2013-07-09 14:11:59

––––––––––––––––––––––––––––––––––––––––
Analyzed: Amicklar & Chocolate / Dexter: Season 5 - Music From The Showtime Original Series (1)
Beny More / Dexter: Season 5 - Music From The Showtime Original Series (2)
Bomba Estereo / Dexter: Season 5 - Music From The Showtime Original Series (3)
Daniel Licht / Dexter: Season 5 - Music From The Showtime Original Series (4-20)
Jon Licht / Dexter: Season 5 - Music From The Showtime Original Series (21)
Latin Bitman / Dexter: Season 5 - Music From The Showtime Original Series (22)
Los Iracundos / Dexter: Season 5 - Music From The Showtime Original Series (23)
Malo / Dexter: Season 5 - Music From The Showtime Original Series (24)
Patato / Dexter: Season 5 - Music From The Showtime Original Series (25)
Rolfe Kent / Dexter: Season 5 - Music From The Showtime Original Series (26)
The Cuban All Star Band / Dexter: Season 5 - Music From The Showtime Original Series (27)
––––––––––––––––––––––––––––––––––––––––

DR Peak RMS Duration Track
––––––––––––––––––––––––––––––––––––––––
DR7 -3.16 dB -11.35 dB 3:32 09-Som de Preto
DR9 -3.60 dB -13.93 dB 3:03 07-Conoci la Paz
DR8 -3.01 dB -12.65 dB 4:34 02-Fuego
DR8 -0.31 dB -13.07 dB 2:13 10-Blood Theme 2010
DR11 -0.20 dB -15.60 dB 2:31 11-Nurse Dexter
DR10 -0.26 dB -14.00 dB 2:21 12-Headstart
DR9 -0.23 dB -13.42 dB 3:10 13-Don't Be Sorry
DR11 -0.31 dB -15.64 dB 1:58 14-Go Home
DR8 0.00 dB -12.77 dB 1:38 15-Tattoo-Chasing Lance
DR11 -0.46 dB -16.60 dB 2:27 16-The Kids Leave
DR10 -0.30 dB -14.89 dB 1:29 17-Red Rainbows
DR11 -0.31 dB -15.28 dB 2:58 18-Dex Takes the Stage
DR11 -0.06 dB -14.18 dB 1:58 19-About Owen
DR11 -0.03 dB -12.99 dB 1:01 20-The Past
DR12 -0.32 dB -17.72 dB 4:12 21-The Pond
DR12 -0.26 dB -17.12 dB 0:55 22-Peculiar
DR9 -4.20 dB -17.00 dB 1:44 23-Laura and Harry
DR9 -1.00 dB -12.78 dB 1:07 24-Chasing Lumen
DR9 0.00 dB -11.70 dB 1:32 25-Liddy Dies
DR11 -0.32 dB -16.20 dB 2:59 26-Eulogy / Have a Chance
DR9 0.00 dB -12.21 dB 2:56 27-Amor Mas Mas Locon (Bonus Track)
DR7 -3.01 dB -11.12 dB 3:33 08-I Wanna Wake You Up (feat. C-Funk & Juan Sativo)
DR9 -3.01 dB -13.26 dB 2:21 06-Moritat (Mack the Knife)
DR6 -3.14 dB -11.94 dB 3:25 05-Suavecito
DR7 -3.01 dB -11.55 dB 4:04 03-San Francisco Tiene Su Propio Son (Edit)
DR8 -3.01 dB -12.70 dB 1:43 01-Dexter Main Title
DR7 -3.01 dB -12.10 dB 4:18 04-Chan Chan
––––––––––––––––––––––––––––––––––––––––

Number of tracks: 27
Official DR value: DR9

Samplerate: 44100 Hz
Channels: 2
Bits per sample: 16
Bitrate: 848 kbps
Codec: FLAC
================================================================================

Daniel Licht & VA - Dexter Season 5: Music from the Showtime Original Series (2011)

Daniel Licht & VA - Dexter Season 5: Music from the Showtime Original Series (2011)