Tags
Language
Tags

Dio - Holy Diver Live (2021)

Posted By: delpotro
Dio - Holy Diver Live (2021)

Dio - Holy Diver Live (2021)
EAC Rip | FLAC (tracks+log+.cue) | Covers included | 01:53:50 | 930 Mb
Hard Rock, Heavy Metal | Label: BMG Rights Management

Wendy Dio, who has served as the curator of Dio's musical legacy and everything that relates to her late husband's career (including the Ronnie James Dio hologram tour), says: "I am very excited to be working with BMG, a label that still has a passion for rock music. They will be making the complete DIO catalog available again with some interesting surprises."
Tracklist:
1. Intro / Stand Up and Shout (Live) (04:34)
2. Holy Diver (Live) (04:46)
3. Gypsy / Drum Solo (Live) (09:46)
4. Caught in the Middle (Live) (04:51)
5. Don't Talk to Strangers (Live) (05:11)
6. Straight Through the Heart (Live) (04:37)
7. Invisible (Live) (05:14)
8. Rainbow in the Dark (Live) (04:46)
9. Shame on the Night / Guitar Solo (Live) (16:55)
10. Holy Diver (Reprise) / Tarot Woman [Live] (06:42)
11. Sign of the Southern Cross (Live) (03:33)
12. One More Night In the City (Live) (05:51)
13. Gates of Babylon (Live) (08:13)
14. Heaven and Hell (Live) (10:37)
15. Man on the Sliver Mountain (Live) (04:14)
16. Catch the Rainbow / Long Live Rock 'N' Roll (Live) (05:02)
17. We Rock (Live) (07:36)

Exact Audio Copy V1.6 from 23. October 2020

EAC extraction logfile from 14. February 2021, 19:54

Dio / Holy Diver Live (2021 Reissue Disc I)

Used drive : TSSTcorpCDDVDW SE-208AB Adapter: 1 ID: 0

Read mode : Secure
Utilize accurate stream : Yes
Defeat audio cache : Yes
Make use of C2 pointers : No

Read offset correction : 6
Overread into Lead-In and Lead-Out : No
Fill up missing offset samples with silence : Yes
Delete leading and trailing silent blocks : No
Null samples used in CRC calculations : Yes
Used interface : Native Win32 interface for Win NT & 2000
Gap handling : Appended to previous track

Used output format : User Defined Encoder
Selected bitrate : 768 kBit/s
Quality : High
Add ID3 tag : No
Command line compressor : C:\Program Files (x86)\Exact Audio Copy\FLAC\FLAC.EXE
Additional command line options : -6 -V -T "ARTIST=%artist%" -T "TITLE=%title%" -T "ALBUM=%albumtitle%" -T "DATE=%year%" -T "TRACKNUMBER=%tracknr%" -T "GENRE=%genre%" -T "COMMENT=%comment%" -T "BAND=%albuminterpret%" -T "ALBUMARTIST=%albuminterpret%" -T "COMPOSER=%composer%" %haslyrics%–tag-from-file=LYRICS="%lyricsfile%"%haslyrics% -T "DISCNUMBER=%cdnumber%" -T "TOTALDISCS=%totalcds%" -T "TOTALTRACKS=%numtracks%" %hascover%–picture="%coverfile%"%hascover% %source% -o %dest%


TOC of the extracted CD

Track | Start | Length | Start sector | End sector
––––––––––––––––––––––––––––-
1 | 0:00.00 | 1:02.73 | 0 | 4722
2 | 1:02.73 | 3:31.11 | 4723 | 20558
3 | 4:34.09 | 4:45.57 | 20559 | 41990
4 | 9:19.66 | 3:54.06 | 41991 | 59546
5 | 13:13.72 | 5:52.54 | 59547 | 86000
6 | 19:06.51 | 4:51.63 | 86001 | 107888
7 | 23:58.39 | 5:14.34 | 107889 | 131472
8 | 29:12.73 | 4:35.05 | 131473 | 152102
9 | 33:48.03 | 5:15.53 | 152103 | 175780
10 | 39:03.56 | 4:45.30 | 175781 | 197185
11 | 43:49.11 | 4:01.19 | 197186 | 215279
12 | 47:50.30 | 9:56.34 | 215280 | 260013
13 | 57:46.64 | 0:57.64 | 260014 | 264352
14 | 58:44.53 | 1:59.46 | 264353 | 273323


Track 1

Filename D:\My Rips\Dio\Dio - Holy Diver Live (2006) [FLAC] {2021 2CD Deluxe Edition}\CD01\01 - Introduction.wav

Pre-gap length 0:00:02.00

Peak level 84.0 %
Extraction speed 0.7 X
Track quality 100.0 %
Test CRC E8ED2BF0
Copy CRC E8ED2BF0
Track not present in AccurateRip database
Copy OK

Track 2

Filename D:\My Rips\Dio\Dio - Holy Diver Live (2006) [FLAC] {2021 2CD Deluxe Edition}\CD01\02 - Stand Up and Shout.wav

Peak level 87.9 %
Extraction speed 1.0 X
Track quality 99.9 %
Test CRC 9BE3DC12
Copy CRC 9BE3DC12
Track not present in AccurateRip database
Copy OK

Track 3

Filename D:\My Rips\Dio\Dio - Holy Diver Live (2006) [FLAC] {2021 2CD Deluxe Edition}\CD01\03 - Holy Diver.wav

Peak level 88.0 %
Extraction speed 1.3 X
Track quality 100.0 %
Test CRC 72550032
Copy CRC 72550032
Track not present in AccurateRip database
Copy OK

Track 4

Filename D:\My Rips\Dio\Dio - Holy Diver Live (2006) [FLAC] {2021 2CD Deluxe Edition}\CD01\04 - Gypsy.wav

Peak level 88.1 %
Extraction speed 1.3 X
Track quality 100.0 %
Test CRC 739551DF
Copy CRC 739551DF
Track not present in AccurateRip database
Copy OK

Track 5

Filename D:\My Rips\Dio\Dio - Holy Diver Live (2006) [FLAC] {2021 2CD Deluxe Edition}\CD01\05 - Drum Solo.wav

Peak level 88.6 %
Extraction speed 1.6 X
Track quality 100.0 %
Test CRC 829D2F8D
Copy CRC 829D2F8D
Track not present in AccurateRip database
Copy OK

Track 6

Filename D:\My Rips\Dio\Dio - Holy Diver Live (2006) [FLAC] {2021 2CD Deluxe Edition}\CD01\06 - Caught in the Middle.wav

Peak level 88.1 %
Extraction speed 1.5 X
Track quality 99.9 %
Test CRC 33BC99E4
Copy CRC 33BC99E4
Track not present in AccurateRip database
Copy OK

Track 7

Filename D:\My Rips\Dio\Dio - Holy Diver Live (2006) [FLAC] {2021 2CD Deluxe Edition}\CD01\07 - Don't Talk to Strangers.wav

Peak level 88.2 %
Extraction speed 1.8 X
Track quality 100.0 %
Test CRC 89D89656
Copy CRC 89D89656
Track not present in AccurateRip database
Copy OK

Track 8

Filename D:\My Rips\Dio\Dio - Holy Diver Live (2006) [FLAC] {2021 2CD Deluxe Edition}\CD01\08 - Straight Through the Heart.wav

Peak level 88.0 %
Extraction speed 1.8 X
Track quality 100.0 %
Test CRC E45131B1
Copy CRC E45131B1
Track not present in AccurateRip database
Copy OK

Track 9

Filename D:\My Rips\Dio\Dio - Holy Diver Live (2006) [FLAC] {2021 2CD Deluxe Edition}\CD01\09 - Invisable.wav

Peak level 88.7 %
Extraction speed 1.8 X
Track quality 99.9 %
Test CRC D0844CAD
Copy CRC D0844CAD
Track not present in AccurateRip database
Copy OK

Track 10

Filename D:\My Rips\Dio\Dio - Holy Diver Live (2006) [FLAC] {2021 2CD Deluxe Edition}\CD01\10 - Rainbow in the Dark.wav

Peak level 88.1 %
Extraction speed 2.0 X
Track quality 100.0 %
Test CRC FEC18DEE
Copy CRC FEC18DEE
Track not present in AccurateRip database
Copy OK

Track 11

Filename D:\My Rips\Dio\Dio - Holy Diver Live (2006) [FLAC] {2021 2CD Deluxe Edition}\CD01\11 - Shame on the Night.wav

Peak level 88.4 %
Extraction speed 2.1 X
Track quality 100.0 %
Test CRC C5523249
Copy CRC C5523249
Track not present in AccurateRip database
Copy OK

Track 12

Filename D:\My Rips\Dio\Dio - Holy Diver Live (2006) [FLAC] {2021 2CD Deluxe Edition}\CD01\12 - Guitar Solo.wav

Peak level 88.0 %
Extraction speed 2.4 X
Track quality 100.0 %
Test CRC D56E9B2D
Copy CRC D56E9B2D
Track not present in AccurateRip database
Copy OK

Track 13

Filename D:\My Rips\Dio\Dio - Holy Diver Live (2006) [FLAC] {2021 2CD Deluxe Edition}\CD01\13 - Shame on the Nght (Ending).wav

Peak level 87.8 %
Extraction speed 1.5 X
Track quality 100.0 %
Test CRC 731C3E4E
Copy CRC 731C3E4E
Track not present in AccurateRip database
Copy OK

Track 14

Filename D:\My Rips\Dio\Dio - Holy Diver Live (2006) [FLAC] {2021 2CD Deluxe Edition}\CD01\14 - Holy Diver (Reprise).wav

Peak level 88.4 %
Extraction speed 2.0 X
Track quality 100.0 %
Test CRC EDAE599F
Copy CRC EDAE599F
Track not present in AccurateRip database
Copy OK


None of the tracks are present in the AccurateRip database

No errors occurred

End of status report

==== Log checksum 6733887311855CC81FDE60BD8DFB0D591D29B4A863122B835023ACEA873843C0 ====


–––––––––––––––––––––––––––––––––––––––––––

Exact Audio Copy V1.6 from 23. October 2020

EAC extraction logfile from 14. February 2021, 18:37

Dio / Holy Diver Live (2021 Reissue Disc II)

Used drive : TSSTcorpCDDVDW SE-208AB Adapter: 1 ID: 0

Read mode : Secure
Utilize accurate stream : Yes
Defeat audio cache : Yes
Make use of C2 pointers : No

Read offset correction : 6
Overread into Lead-In and Lead-Out : No
Fill up missing offset samples with silence : Yes
Delete leading and trailing silent blocks : No
Null samples used in CRC calculations : Yes
Used interface : Native Win32 interface for Win NT & 2000
Gap handling : Appended to previous track

Used output format : User Defined Encoder
Selected bitrate : 768 kBit/s
Quality : High
Add ID3 tag : No
Command line compressor : C:\Program Files (x86)\Exact Audio Copy\FLAC\FLAC.EXE
Additional command line options : -6 -V -T "ARTIST=%artist%" -T "TITLE=%title%" -T "ALBUM=%albumtitle%" -T "DATE=%year%" -T "TRACKNUMBER=%tracknr%" -T "GENRE=%genre%" -T "COMMENT=%comment%" -T "BAND=%albuminterpret%" -T "ALBUMARTIST=%albuminterpret%" -T "COMPOSER=%composer%" %haslyrics%–tag-from-file=LYRICS="%lyricsfile%"%haslyrics% -T "DISCNUMBER=%cdnumber%" -T "TOTALDISCS=%totalcds%" -T "TOTALTRACKS=%numtracks%" %hascover%–picture="%coverfile%"%hascover% %source% -o %dest%


TOC of the extracted CD

Track | Start | Length | Start sector | End sector
––––––––––––––––––––––––––––-
1 | 0:00.00 | 1:31.46 | 0 | 6870
2 | 1:31.46 | 5:22.00 | 6871 | 31020
3 | 6:53.46 | 3:26.55 | 31021 | 46525
4 | 10:20.26 | 6:14.23 | 46526 | 74598
5 | 16:34.49 | 8:16.06 | 74599 | 111804
6 | 24:50.55 | 11:24.01 | 111805 | 163105
7 | 36:14.56 | 4:11.73 | 163106 | 182003
8 | 40:26.54 | 0:56.40 | 182004 | 186243
9 | 41:23.19 | 4:53.12 | 186244 | 208230
10 | 46:16.31 | 0:28.19 | 208231 | 210349
11 | 46:44.50 | 6:21.38 | 210350 | 238962


Track 1

Filename D:\My Rips\Dio\Dio - Holy Diver Live (2006) [FLAC] {2021 2CD Deluxe Edition}\CD02\01 - Introduction.wav

Pre-gap length 0:00:02.00

Peak level 85.0 %
Extraction speed 0.7 X
Track quality 99.8 %
Test CRC 0E94F238
Copy CRC 0E94F238
Track not present in AccurateRip database
Copy OK

Track 2

Filename D:\My Rips\Dio\Dio - Holy Diver Live (2006) [FLAC] {2021 2CD Deluxe Edition}\CD02\02 - Tarot Woman.wav

Peak level 88.0 %
Extraction speed 1.1 X
Track quality 99.9 %
Test CRC 75DD9084
Copy CRC 75DD9084
Track not present in AccurateRip database
Copy OK

Track 3

Filename D:\My Rips\Dio\Dio - Holy Diver Live (2006) [FLAC] {2021 2CD Deluxe Edition}\CD02\03 - Sign of the Southern Cross.wav

Peak level 88.4 %
Extraction speed 1.3 X
Track quality 100.0 %
Test CRC 5C44A85B
Copy CRC 5C44A85B
Track not present in AccurateRip database
Copy OK

Track 4

Filename D:\My Rips\Dio\Dio - Holy Diver Live (2006) [FLAC] {2021 2CD Deluxe Edition}\CD02\04 - One More Night In the City.wav

Peak level 88.4 %
Extraction speed 1.5 X
Track quality 100.0 %
Test CRC 21C6F03E
Copy CRC 21C6F03E
Track not present in AccurateRip database
Copy OK

Track 5

Filename D:\My Rips\Dio\Dio - Holy Diver Live (2006) [FLAC] {2021 2CD Deluxe Edition}\CD02\05 - Gates of Babylon.wav

Peak level 88.1 %
Extraction speed 1.7 X
Track quality 100.0 %
Test CRC 93B0931C
Copy CRC 93B0931C
Track not present in AccurateRip database
Copy OK

Track 6

Filename D:\My Rips\Dio\Dio - Holy Diver Live (2006) [FLAC] {2021 2CD Deluxe Edition}\CD02\06 - Heaven and Hell.wav

Peak level 88.3 %
Extraction speed 2.0 X
Track quality 100.0 %
Test CRC D8946746
Copy CRC D8946746
Track not present in AccurateRip database
Copy OK

Track 7

Filename D:\My Rips\Dio\Dio - Holy Diver Live (2006) [FLAC] {2021 2CD Deluxe Edition}\CD02\07 - Man on the Silver Mountain.wav

Peak level 88.0 %
Extraction speed 1.7 X
Track quality 99.9 %
Test CRC D368D790
Copy CRC D368D790
Track not present in AccurateRip database
Copy OK

Track 8

Filename D:\My Rips\Dio\Dio - Holy Diver Live (2006) [FLAC] {2021 2CD Deluxe Edition}\CD02\08 - Catch the Rainbow.wav

Peak level 87.5 %
Extraction speed 1.3 X
Track quality 100.0 %
Test CRC 8A05F6D9
Copy CRC 8A05F6D9
Track not present in AccurateRip database
Copy OK

Track 9

Filename D:\My Rips\Dio\Dio - Holy Diver Live (2006) [FLAC] {2021 2CD Deluxe Edition}\CD02\09 - Long Live Rock and Roll.wav

Peak level 88.1 %
Extraction speed 1.9 X
Track quality 99.9 %
Test CRC 7C5E92D0
Copy CRC 7C5E92D0
Track not present in AccurateRip database
Copy OK

Track 10

Filename D:\My Rips\Dio\Dio - Holy Diver Live (2006) [FLAC] {2021 2CD Deluxe Edition}\CD02\10 - Encore Ronnie thanks his fans.wav

Peak level 58.0 %
Extraction speed 1.0 X
Track quality 100.0 %
Test CRC B4771F79
Copy CRC B4771F79
Track not present in AccurateRip database
Copy OK

Track 11

Filename D:\My Rips\Dio\Dio - Holy Diver Live (2006) [FLAC] {2021 2CD Deluxe Edition}\CD02\11 - We Rock.wav

Peak level 88.2 %
Extraction speed 2.2 X
Track quality 100.0 %
Test CRC DEDD15F4
Copy CRC DEDD15F4
Track not present in AccurateRip database
Copy OK


None of the tracks are present in the AccurateRip database

No errors occurred

End of status report

==== Log checksum DADBF51512E500D225568FD792702C3535F9923D5EEC09DB3CE8B62708BD4349 ====

Thanks to the Original ripper !