Subcategories

Steven Wilson & Dirk Serries - Continuum II / The Continuum Recyclings, Volume II (2007/2016)

Posted By: delpotro
Steven Wilson & Dirk Serries - Continuum II / The Continuum Recyclings, Volume II (2007/2016)

Steven Wilson & Dirk Serries - Continuum II / The Continuum Recyclings, Volume II (2007/2016)
EAC Rip | FLAC (tracks+log+.cue) - 746 Mb | MP3 CBR 320 kbps - 305 Mb | 02:12:57
Ambient | Label: Tonefloat

Continuum was a collaboration between Steven Wilson and Dirk Serries (VidnaObmana, Fear Falls Burning) that resulted in two releases, Continuum I (2005) and Continuum II (2007), originally issued by US label Soleilmoon in limited editions that sold out almost instantly. The project was motivated by their immense passion for a wide-range of musical styles, ranging from spacious ambience to pounding doom metal.

On 10th June 2016 both albums of their collaborative ambient and drone music project became available on ToneFloat as 2CD box sets, each in an expanded edition complete with the previously vinyl only The Continuum Recyclings albums which followed the original albums. The expanded 2CD edition of Continuum II comes in a deluxe edition cardboard box with exclusive 15inch poster. The second CD contains the Continuum Recyclings Volume Two which was remixed by Justin Broadrick (Godflesh, Jesu, Final) using source material from the album, and originally released in 2010 on Tonefloat as a double vinyl LP.

Continuum II is the more “doom metal” orientated of the two albums (although it also includes ambient sections).
Tracklist:
Disc 1 (58:53)
1. Construct IV (22:54)
2. Construct V (17:28)
3. Construct VI (18:31)

Disc 2 (01:14:22)
1. I (17:54)
2. II (18:54)
3. III (21:52)
4. IV (15:42)

Exact Audio Copy V1.1 from 23. June 2015

EAC extraction logfile from 17. June 2016, 13:07

Steven Wilson & Dirk Serries / Continuum II

Used drive : Optiarc DVD RW AD-5240S Adapter: 1 ID: 0

Read mode : Secure
Utilize accurate stream : Yes
Defeat audio cache : Yes
Make use of C2 pointers : No

Read offset correction : 48
Overread into Lead-In and Lead-Out : No
Fill up missing offset samples with silence : Yes
Delete leading and trailing silent blocks : No
Null samples used in CRC calculations : Yes
Used interface : Native Win32 interface for Win NT & 2000
Gap handling : Appended to previous track

Used output format : User Defined Encoder
Selected bitrate : 1024 kBit/s
Quality : High
Add ID3 tag : No
Command line compressor : D:\iROpack\FLAC\flac.exe
Additional command line options : -8 -V -T "ARTIST=%artist%" -T "TITLE=%title%" -T "ALBUM=%albumtitle%" -T "DATE=%year%" -T "TRACKNUMBER=%tracknr%" -T "GENRE=%genre%" %source% -o %dest%


TOC of the extracted CD

Track | Start | Length | Start sector | End sector
––––––––––––––––––––––––––––-
1 | 0:00.00 | 22:47.56 | 0 | 102580
2 | 22:47.56 | 17:30.64 | 102581 | 181394
3 | 40:18.45 | 18:31.21 | 181395 | 264740


Track 1

Filename R:\iRO\Rip\Continuum II - The Continuum Recyclings Volume II\CD1\01-Steven_Wilson_&_Dirk_Serries-Construct_IV.wav

Pre-gap length 0:00:02.00

Peak level 98.2 %
Extraction speed 3.2 X
Track quality 100.0 %
Test CRC E8AF88D6
Copy CRC E8AF88D6
Track not present in AccurateRip database
Copy OK

Track 2

Filename R:\iRO\Rip\Continuum II - The Continuum Recyclings Volume II\CD1\02-Steven_Wilson_&_Dirk_Serries-Construct_V.wav

Pre-gap length 0:00:02.00

Peak level 98.2 %
Extraction speed 4.3 X
Track quality 100.0 %
Test CRC 9EA29BD8
Copy CRC 9EA29BD8
Track not present in AccurateRip database
Copy OK

Track 3

Filename R:\iRO\Rip\Continuum II - The Continuum Recyclings Volume II\CD1\03-Steven_Wilson_&_Dirk_Serries-Construct_VI.wav

Pre-gap length 0:00:02.00

Peak level 98.2 %
Extraction speed 5.0 X
Track quality 100.0 %
Test CRC A97A819C
Copy CRC A97A819C
Track not present in AccurateRip database
Copy OK


None of the tracks are present in the AccurateRip database

No errors occurred

End of status report

–– CUETools DB Plugin V2.1.6

[CTDB TOCID: hCSmXuUMERadTNj0BC2_N_r0l30-] disk not present in database
Submit result: hCSmXuUMERadTNj0BC2_N_r0l30- has been uploaded


==== Log checksum E7DBD52D4391B016EBA9CB74E8FEF3E3447CBABE5B12B167697E4B05358C8F6E ====
Exact Audio Copy V1.1 from 23. June 2015

EAC extraction logfile from 17. June 2016, 19:45

Steven Wilson & Dirk Serries / ‎The Continuum Recyclings Volume II

Used drive : Optiarc DVD RW AD-5240S Adapter: 1 ID: 0

Read mode : Secure
Utilize accurate stream : Yes
Defeat audio cache : Yes
Make use of C2 pointers : No

Read offset correction : 48
Overread into Lead-In and Lead-Out : No
Fill up missing offset samples with silence : Yes
Delete leading and trailing silent blocks : No
Null samples used in CRC calculations : Yes
Used interface : Native Win32 interface for Win NT & 2000
Gap handling : Appended to previous track

Used output format : User Defined Encoder
Selected bitrate : 1024 kBit/s
Quality : High
Add ID3 tag : No
Command line compressor : D:\iROpack\FLAC\flac.exe
Additional command line options : -8 -V -T "ARTIST=%artist%" -T "TITLE=%title%" -T "ALBUM=%albumtitle%" -T "DATE=%year%" -T "TRACKNUMBER=%tracknr%" -T "GENRE=%genre%" %source% -o %dest%


TOC of the extracted CD

Track | Start | Length | Start sector | End sector
––––––––––––––––––––––––––––-
1 | 0:00.00 | 17:55.74 | 0 | 80698
2 | 17:55.74 | 18:52.34 | 80699 | 165632
3 | 36:48.33 | 21:54.00 | 165633 | 264182
4 | 58:42.33 | 15:24.52 | 264183 | 333534


Track 1

Filename R:\iRO\Rip\Continuum II - The Continuum Recyclings Volume II\CD2\01-Steven_Wilson_&_Dirk_Serries-The_Continuum_Recyclings_I.wav

Pre-gap length 0:00:02.00

Peak level 98.2 %
Extraction speed 3.0 X
Track quality 99.9 %
Test CRC 8B51DBF4
Copy CRC 8B51DBF4
Track not present in AccurateRip database
Copy OK

Track 2

Filename R:\iRO\Rip\Continuum II - The Continuum Recyclings Volume II\CD2\02-Steven_Wilson_&_Dirk_Serries-The_Continuum_Recyclings_II.wav

Pre-gap length 0:00:02.00

Peak level 98.2 %
Extraction speed 4.0 X
Track quality 99.9 %
Test CRC 89661E7D
Copy CRC 89661E7D
Track not present in AccurateRip database
Copy OK

Track 3

Filename R:\iRO\Rip\Continuum II - The Continuum Recyclings Volume II\CD2\03-Steven_Wilson_&_Dirk_Serries-The_Continuum_Recyclings_III.wav

Pre-gap length 0:00:02.00

Peak level 98.2 %
Extraction speed 4.9 X
Track quality 100.0 %
Test CRC 76733430
Copy CRC 76733430
Track not present in AccurateRip database
Copy OK

Track 4

Filename R:\iRO\Rip\Continuum II - The Continuum Recyclings Volume II\CD2\04-Steven_Wilson_&_Dirk_Serries-The_Continuum_Recyclings_IV.wav

Pre-gap length 0:00:02.00

Peak level 98.2 %
Extraction speed 5.5 X
Track quality 100.0 %
Test CRC F7EB3B67
Copy CRC F7EB3B67
Track not present in AccurateRip database
Copy OK


None of the tracks are present in the AccurateRip database

No errors occurred

End of status report

–– CUETools DB Plugin V2.1.6

[CTDB TOCID: MVrr4hWXTkGJtkopcgIB.RljLNQ-] disk not present in database
Submit result: MVrr4hWXTkGJtkopcgIB.RljLNQ- has been uploaded


==== Log checksum 2C45A96B9A5EF9326BE07E2424FB8A20D54BA45A346AD290135D6371AB14A5C3 ====

Thanks to the Original ripper !