Tags
Language
Tags

Dizzy Gillespie - Dizzy's Diamonds: The Best of the Verve Years (1950-1964) (3CD) (1997)

Posted By: Domestos
Dizzy Gillespie - Dizzy's Diamonds: The Best of the Verve Years (1950-1964) (3CD) (1997)

Dizzy Gillespie - Dizzy's Diamonds: The Best of the Verve Years (1950-1964) (3CD) (1997)
XLD Rip | FLAC (tracks+.cue, log) ~ 1,12 Gb | 03:43:03 | Covers
Bop, Afro-Cuban Jazz, Big Band, Bossa Nova | Label: Verve Records - 314 513 875-2

Many of trumpeter Dizzy Gillespie's recordings for the Verve label in the '50s and early '60s show him at the peak of his powers. This three-CD set is a sampler of his legacy, with the discs subtitled "Big Band," "Small Groups & Guests" and "In an Afro Cuban, Bossa Nova, Calypso Groove." The programming jumps all over the place and makes little sense but this set serves as a good excuse to acquire 40 performances by the great Gillespie and the many all-stars who recorded with him. Few but the most fanatical veteran Gillespie fans will have all of these selections. This collection filled a void until Verve got around to doing a much more comprehensive Dizzy Gillespie reissue program. ~ AllMusic Review by Scott Yanow



CD1 - Big Band {01:12:27}
01. Prelude (5:57)
02. 'Bout to Wail (6:49)
03. Umbrella Man (3:03)
04. The Chains (9:12)
05. Birks' Works (4:59)
06. Stella by Starlight (4:08)
07. Dizzy's Business (3:39)
08. Autumn Leaves (3:12)
09. Dizzy's Blues (11:51)
10. Flamingo (3:56)
11. Jordu (4:15)
12. Evening Sound (4:47)
13. Take the "A" Train (6:39)

CD2 - Small Groups & Guests {01:14:03}
01. Blue 'n' Boogie (11:52)
02. Bonnie's Blues (4:01)
03. Ool-Ya-Koo (5:39)
04. Blues After Dark (6:30)
05. The Heat's On (6:36)
06. Leap Frog (2:32)
07. Where's Adam? (3:40)
08. There Is No Greater Love (3:26)
09. Just One of Those Things (6:12)
10. I Know That You Know (5:31)
11. Swing Low, Sweet Cadillac (7:09)
12. Dizzy Atmosphere (10:55)

CD3 - In an Afro Cuban, Bossa Nova, Calypso Groove {01:16:33}
01. Manteca (6:28)
02. Fiesta Mojo (3:56)
03. A Night in Tunisia (4:17)
04. And Then She Stopped (3:21)
05. Tin Tin Deo (4:18)
06. Desafinado (3:29)
07. Africana (7:37)
08. Pergunte Ao Joao (Ask John) (2:46)
09. Caravan (7:22)
10. This Lovely Feeling (3:05)
11. Ungawa (3:22)
12. Begin the Beguine (4:55)
13. Con Alma (5:02)
14. Rio Pakistan (11:33)
15. Jambo (5:02)

Dizzy Gillespie - Dizzy's Diamonds: The Best of the Verve Years (1950-1964) (3CD) (1997)

X Lossless Decoder version 20181019 (151.1)

XLD extraction logfile from 2019-07-04 10:53:24 -0400

Dizzy Gillespie / Dizzy's Diamonds - The Best of Verve Years (1950-1964) (Disc 1 - Big Band

Used drive : ATAPI iHAS124 F (revision CL9N)
Media type : Pressed CD

Ripper mode : XLD Secure Ripper
Disable audio cache : OK for the drive with a cache less than 1375KiB
Make use of C2 pointers : NO
Read offset correction : 6
Max retry count : 20
Gap status : Analyzed, Appended (except HTOA)

TOC of the extracted CD
Track | Start | Length | Start sector | End sector
––––––––––––––––––––––––––––-
1 | 00:00:32 | 05:56:60 | 32 | 26791
2 | 05:57:17 | 06:48:48 | 26792 | 57439
3 | 12:45:65 | 03:02:55 | 57440 | 71144
4 | 15:48:45 | 09:11:52 | 71145 | 112521
5 | 25:00:22 | 04:58:50 | 112522 | 134921
6 | 29:58:72 | 04:08:28 | 134922 | 153549
7 | 34:07:25 | 03:38:65 | 153550 | 169964
8 | 37:46:15 | 03:11:62 | 169965 | 184351
9 | 40:58:02 | 11:51:20 | 184352 | 237696
10 | 52:49:22 | 03:56:03 | 237697 | 255399
11 | 56:45:25 | 04:15:10 | 255400 | 274534
12 | 61:00:35 | 04:47:10 | 274535 | 296069
13 | 65:47:45 | 06:39:27 | 296070 | 326021

List of alternate offset correction values
# | Absolute | Relative | Confidence
–––––––––––––––––––––
1 | -104 | -110 | 8

AccurateRip Summary (DiscID: 00231a1c-015cf984-b710fa0d)
Track 01 : OK (v1+v2, confidence 35/51)
Track 02 : OK (v1+v2, confidence 34/50)
Track 03 : OK (v1+v2, confidence 35/52)
Track 04 : OK (v1+v2, confidence 35/49)
Track 05 : OK (v1+v2, confidence 35/51)
Track 06 : OK (v1+v2, confidence 35/50)
Track 07 : OK (v1+v2, confidence 35/52)
Track 08 : OK (v1+v2, confidence 35/52)
Track 09 : OK (v1+v2, confidence 35/49)
Track 10 : OK (v1+v2, confidence 35/50)
Track 11 : OK (v1+v2, confidence 35/51)
Track 12 : OK (v1+v2, confidence 35/48)
Track 13 : OK (v1+v2, confidence 33/45)
->All tracks accurately ripped.

All Tracks
Album gain : -2.68 dB
Peak : 0.999969
Statistics
Read error : 0
Jitter error (maybe fixed) : 0
Retry sector count : 1
Damaged sector count : 0

Track 01
Filename : /Rips/Dizzy Gillespie - Dizzy's Diamonds - The Best of Verve Years (1950-1964) (Disc 1 - Big Band (1992) [FLAC]/01 Prelude.flac
Pre-gap length : 00:02:32

Track gain : -2.99 dB
Peak : 0.965668
CRC32 hash (test run) : 845ADED2
CRC32 hash : 845ADED2
CRC32 hash (skip zero) : 2122BE53
AccurateRip v1 signature : E4CA1F05
AccurateRip v2 signature : CD1AFC1E
->Accurately ripped (v1+v2, confidence 6+29/51)
Statistics
Read error : 0
Jitter error (maybe fixed) : 0
Retry sector count : 0
Damaged sector count : 0

Track 02
Filename : /Rips/Dizzy Gillespie - Dizzy's Diamonds - The Best of Verve Years (1950-1964) (Disc 1 - Big Band (1992) [FLAC]/02 'Bout to Wail.flac
Pre-gap length : 00:02:62

Track gain : -3.48 dB
Peak : 0.879761
CRC32 hash (test run) : 123B9B6E
CRC32 hash : 123B9B6E
CRC32 hash (skip zero) : 874F7B9B
AccurateRip v1 signature : 0256B009
AccurateRip v2 signature : 946E4654
->Accurately ripped (v1+v2, confidence 6+28/50)
Statistics
Read error : 0
Jitter error (maybe fixed) : 0
Retry sector count : 0
Damaged sector count : 0

Track 03
Filename : /Rips/Dizzy Gillespie - Dizzy's Diamonds - The Best of Verve Years (1950-1964) (Disc 1 - Big Band (1992) [FLAC]/03 Umbrella Man.flac
Pre-gap length : 00:02:45

Track gain : -0.60 dB
Peak : 0.758148
CRC32 hash (test run) : 849C91DB
CRC32 hash : 849C91DB
CRC32 hash (skip zero) : 644E19E2
AccurateRip v1 signature : 24A87F9A
AccurateRip v2 signature : 1DA08519
->Accurately ripped (v1+v2, confidence 6+29/52)
Statistics
Read error : 0
Jitter error (maybe fixed) : 0
Retry sector count : 0
Damaged sector count : 0

Track 04
Filename : /Rips/Dizzy Gillespie - Dizzy's Diamonds - The Best of Verve Years (1950-1964) (Disc 1 - Big Band (1992) [FLAC]/04 The Chains.flac
Pre-gap length : 00:02:63

Track gain : -3.43 dB
Peak : 0.979187
CRC32 hash (test run) : 0F556CAF
CRC32 hash : 0F556CAF
CRC32 hash (skip zero) : 26C9372F
AccurateRip v1 signature : 046D862A
AccurateRip v2 signature : 20AFDEC1
->Accurately ripped (v1+v2, confidence 6+29/49)
Statistics
Read error : 0
Jitter error (maybe fixed) : 0
Retry sector count : 0
Damaged sector count : 0

Track 05
Filename : /Rips/Dizzy Gillespie - Dizzy's Diamonds - The Best of Verve Years (1950-1964) (Disc 1 - Big Band (1992) [FLAC]/05 Birk's Works.flac
Pre-gap length : 00:02:62

Track gain : -1.91 dB
Peak : 0.805145
CRC32 hash (test run) : B3D58C2A
CRC32 hash : B3D58C2A
CRC32 hash (skip zero) : CB9E3762
AccurateRip v1 signature : 72C16D70
AccurateRip v2 signature : B24E75D8
->Accurately ripped (v1+v2, confidence 6+29/51)
Statistics
Read error : 0
Jitter error (maybe fixed) : 0
Retry sector count : 0
Damaged sector count : 0

Track 06
Filename : /Rips/Dizzy Gillespie - Dizzy's Diamonds - The Best of Verve Years (1950-1964) (Disc 1 - Big Band (1992) [FLAC]/06 Stella by Starlight.flac
Pre-gap length : 00:02:62

Track gain : -3.33 dB
Peak : 0.831818
CRC32 hash (test run) : A62ED6AB
CRC32 hash : A62ED6AB
CRC32 hash (skip zero) : 60E9D481
AccurateRip v1 signature : 9B606951
AccurateRip v2 signature : 10BB7DC9
->Accurately ripped (v1+v2, confidence 6+29/50)
Statistics
Read error : 0
Jitter error (maybe fixed) : 0
Retry sector count : 0
Damaged sector count : 0

Track 07
Filename : /Rips/Dizzy Gillespie - Dizzy's Diamonds - The Best of Verve Years (1950-1964) (Disc 1 - Big Band (1992) [FLAC]/07 Dizzy's Business.flac
Pre-gap length : 00:02:63

Track gain : -2.90 dB
Peak : 0.913452
CRC32 hash (test run) : 535346AB
CRC32 hash : 535346AB
CRC32 hash (skip zero) : F0652516
AccurateRip v1 signature : F52F0C6C
AccurateRip v2 signature : E7043875
->Accurately ripped (v1+v2, confidence 6+29/52)
Statistics
Read error : 0
Jitter error (maybe fixed) : 0
Retry sector count : 0
Damaged sector count : 0

Track 08
Filename : /Rips/Dizzy Gillespie - Dizzy's Diamonds - The Best of Verve Years (1950-1964) (Disc 1 - Big Band (1992) [FLAC]/08 Autumn Leaves.flac
Pre-gap length : 00:02:63

Track gain : -1.69 dB
Peak : 0.745239
CRC32 hash (test run) : 85339BE6
CRC32 hash : 85339BE6
CRC32 hash (skip zero) : DCE6A111
AccurateRip v1 signature : D9B34FE0
AccurateRip v2 signature : 296CF091
->Accurately ripped (v1+v2, confidence 6+29/52)
Statistics
Read error : 0
Jitter error (maybe fixed) : 0
Retry sector count : 0
Damaged sector count : 0

Track 09
Filename : /Rips/Dizzy Gillespie - Dizzy's Diamonds - The Best of Verve Years (1950-1964) (Disc 1 - Big Band (1992) [FLAC]/09 Dizzy's Blues.flac
Pre-gap length : 00:02:62

Track gain : -3.30 dB
Peak : 0.999969
CRC32 hash (test run) : 4B84B49A
CRC32 hash : 4B84B49A
CRC32 hash (skip zero) : A642C672
AccurateRip v1 signature : CD06C759
AccurateRip v2 signature : BA4E0D4B
->Accurately ripped (v1+v2, confidence 6+29/49)
Statistics
Read error : 0
Jitter error (maybe fixed) : 0
Retry sector count : 0
Damaged sector count : 0

Track 10
Filename : /Rips/Dizzy Gillespie - Dizzy's Diamonds - The Best of Verve Years (1950-1964) (Disc 1 - Big Band (1992) [FLAC]/10 Flamingo.flac
Pre-gap length : 00:02:62

Track gain : 2.02 dB
Peak : 0.500488
CRC32 hash (test run) : 81906EDA
CRC32 hash : 81906EDA
CRC32 hash (skip zero) : 1D56E38F
AccurateRip v1 signature : 777CC242
AccurateRip v2 signature : DC6DC314
->Accurately ripped (v1+v2, confidence 6+29/50)
Statistics
Read error : 0
Jitter error (maybe fixed) : 0
Retry sector count : 0
Damaged sector count : 0

Track 11
Filename : /Rips/Dizzy Gillespie - Dizzy's Diamonds - The Best of Verve Years (1950-1964) (Disc 1 - Big Band (1992) [FLAC]/11 Jordu.flac
Pre-gap length : 00:02:45

Track gain : -1.43 dB
Peak : 0.839752
CRC32 hash (test run) : B5CFE7F5
CRC32 hash : B5CFE7F5
CRC32 hash (skip zero) : C1C9B9D5
AccurateRip v1 signature : 7227BCFB
AccurateRip v2 signature : BEB59FD6
->Accurately ripped (v1+v2, confidence 6+29/51)
Statistics
Read error : 0
Jitter error (maybe fixed) : 0
Retry sector count : 0
Damaged sector count : 0

Track 12
Filename : /Rips/Dizzy Gillespie - Dizzy's Diamonds - The Best of Verve Years (1950-1964) (Disc 1 - Big Band (1992) [FLAC]/12 Evening Sound.flac
Pre-gap length : 00:02:63

Track gain : -2.84 dB
Peak : 0.721313
CRC32 hash (test run) : 18ED9204
CRC32 hash : 18ED9204
CRC32 hash (skip zero) : 8ECFF348
AccurateRip v1 signature : A088CCBC
AccurateRip v2 signature : DE0BA86C
->Accurately ripped (v1+v2, confidence 6+29/48)
Statistics
Read error : 0
Jitter error (maybe fixed) : 0
Retry sector count : 1
Damaged sector count : 0

Track 13
Filename : /Rips/Dizzy Gillespie - Dizzy's Diamonds - The Best of Verve Years (1950-1964) (Disc 1 - Big Band (1992) [FLAC]/13 Take the "A" Train.flac
Pre-gap length : 00:02:63

Track gain : -2.10 dB
Peak : 0.747284
CRC32 hash (test run) : 25430703
CRC32 hash : 25430703
CRC32 hash (skip zero) : 98D8FB29
AccurateRip v1 signature : 5545C147
AccurateRip v2 signature : 3D209CF9
->Accurately ripped (v1+v2, confidence 5+28/45)
Statistics
Read error : 0
Jitter error (maybe fixed) : 0
Retry sector count : 0
Damaged sector count : 0

No errors occurred

End of status report

––-BEGIN XLD SIGNATURE––-
TqirU22TfIREshnFzgQNzv.EA56vbWjm80ssvQkXAK8e9.ZVfmAkYzb7VZsLn_9WWdx8xz9NoQ3xCJbdskGvnDhu8WgBdgop9InsDma
––-END XLD SIGNATURE––-

X Lossless Decoder version 20181019 (151.1)

XLD extraction logfile from 2019-07-04 11:10:12 -0400

Dizzy Gillespie / Dizzy's Diamonds - The Best of Verve Years (1950-1964) (Disc 2 - Small Groups & Guests)

Used drive : ATAPI iHAS124 F (revision CL9N)
Media type : Pressed CD

Ripper mode : XLD Secure Ripper
Disable audio cache : OK for the drive with a cache less than 1375KiB
Make use of C2 pointers : NO
Read offset correction : 6
Max retry count : 20
Gap status : Analyzed, Appended (except HTOA)

TOC of the extracted CD
Track | Start | Length | Start sector | End sector
––––––––––––––––––––––––––––-
1 | 00:00:32 | 11:51:68 | 32 | 53424
2 | 11:52:25 | 04:01:07 | 53425 | 71506
3 | 15:53:32 | 05:38:43 | 71507 | 96899
4 | 21:32:00 | 06:30:05 | 96900 | 126154
5 | 28:02:05 | 06:35:65 | 126155 | 155844
6 | 34:37:70 | 02:31:60 | 155845 | 167229
7 | 37:09:55 | 03:40:20 | 167230 | 183749
8 | 40:50:00 | 03:26:35 | 183750 | 199234
9 | 44:16:35 | 06:12:25 | 199235 | 227159
10 | 50:28:60 | 05:31:05 | 227160 | 251989
11 | 55:59:65 | 07:09:17 | 251990 | 284181
12 | 63:09:07 | 10:55:05 | 284182 | 333311

AccurateRip Summary (DiscID: 0020d143-01297987-a7115c0c)
Track 01 : OK (v1+v2, confidence 30/49)
Track 02 : OK (v1+v2, confidence 31/51)
Track 03 : OK (v1+v2, confidence 31/50)
Track 04 : OK (v1+v2, confidence 30/49)
Track 05 : OK (v1+v2, confidence 30/49)
Track 06 : OK (v1+v2, confidence 31/50)
Track 07 : OK (v1+v2, confidence 32/51)
Track 08 : OK (v1+v2, confidence 32/50)
Track 09 : OK (v1+v2, confidence 32/51)
Track 10 : OK (v1+v2, confidence 32/51)
Track 11 : OK (v1+v2, confidence 32/51)
Track 12 : OK (v1+v2, confidence 29/46)
->All tracks accurately ripped.

All Tracks
Album gain : -1.74 dB
Peak : 0.851135
Statistics
Read error : 0
Jitter error (maybe fixed) : 0
Retry sector count : 0
Damaged sector count : 0

Track 01
Filename : /Rips/Dizzy Gillespie - Dizzy's Diamonds - The Best of Verve Years (1950-1964) (Disc 2 - Small Groups & Guests) (1992) [FLAC]/01 Blue 'N' Boogie.flac
Pre-gap length : 00:02:32

Track gain : 1.11 dB
Peak : 0.758575
CRC32 hash (test run) : 27A9E804
CRC32 hash : 27A9E804
CRC32 hash (skip zero) : A1F5FA2C
AccurateRip v1 signature : 17EDF201
AccurateRip v2 signature : F7EC94E5
->Accurately ripped (v1+v2, confidence 5+25/49)
Statistics
Read error : 0
Jitter error (maybe fixed) : 0
Retry sector count : 0
Damaged sector count : 0

Track 02
Filename : /Rips/Dizzy Gillespie - Dizzy's Diamonds - The Best of Verve Years (1950-1964) (Disc 2 - Small Groups & Guests) (1992) [FLAC]/02 Bonnie's Blues.flac
Pre-gap length : 00:02:63

Track gain : -0.67 dB
Peak : 0.851135
CRC32 hash (test run) : E465FD28
CRC32 hash : E465FD28
CRC32 hash (skip zero) : 18FC6C34
AccurateRip v1 signature : DB65FD0D
AccurateRip v2 signature : 1ECFD1B1
->Accurately ripped (v1+v2, confidence 5+26/51)
Statistics
Read error : 0
Jitter error (maybe fixed) : 0
Retry sector count : 0
Damaged sector count : 0

Track 03
Filename : /Rips/Dizzy Gillespie - Dizzy's Diamonds - The Best of Verve Years (1950-1964) (Disc 2 - Small Groups & Guests) (1992) [FLAC]/03 Ool-Ya-Koo.flac
Pre-gap length : 00:02:62

Track gain : 0.94 dB
Peak : 0.851135
CRC32 hash (test run) : A8BCE55C
CRC32 hash : A8BCE55C
CRC32 hash (skip zero) : 4A051548
AccurateRip v1 signature : 9F4CB023
AccurateRip v2 signature : B481CA83
->Accurately ripped (v1+v2, confidence 5+26/50)
Statistics
Read error : 0
Jitter error (maybe fixed) : 0
Retry sector count : 0
Damaged sector count : 0

Track 04
Filename : /Rips/Dizzy Gillespie - Dizzy's Diamonds - The Best of Verve Years (1950-1964) (Disc 2 - Small Groups & Guests) (1992) [FLAC]/04 Blues After Dark.flac
Pre-gap length : 00:01:63

Track gain : -1.33 dB
Peak : 0.851135
CRC32 hash (test run) : 22727ACD
CRC32 hash : 22727ACD
CRC32 hash (skip zero) : C52BA3A4
AccurateRip v1 signature : 7EB86B27
AccurateRip v2 signature : 0C91F43A
->Accurately ripped (v1+v2, confidence 5+25/49)
Statistics
Read error : 0
Jitter error (maybe fixed) : 0
Retry sector count : 0
Damaged sector count : 0

Track 05
Filename : /Rips/Dizzy Gillespie - Dizzy's Diamonds - The Best of Verve Years (1950-1964) (Disc 2 - Small Groups & Guests) (1992) [FLAC]/05 The Heat's On.flac
Pre-gap length : 00:02:63

Track gain : -3.03 dB
Peak : 0.851135
CRC32 hash (test run) : 341DED64
CRC32 hash : 341DED64
CRC32 hash (skip zero) : 93E9EA76
AccurateRip v1 signature : 040A1F48
AccurateRip v2 signature : 6AC05EF2
->Accurately ripped (v1+v2, confidence 5+25/49)
Statistics
Read error : 0
Jitter error (maybe fixed) : 0
Retry sector count : 0
Damaged sector count : 0

Track 06
Filename : /Rips/Dizzy Gillespie - Dizzy's Diamonds - The Best of Verve Years (1950-1964) (Disc 2 - Small Groups & Guests) (1992) [FLAC]/06 Leap Frog.flac
Pre-gap length : 00:02:63

Track gain : -2.63 dB
Peak : 0.708588
CRC32 hash (test run) : 9561BE21
CRC32 hash : 9561BE21
CRC32 hash (skip zero) : FC269F68
AccurateRip v1 signature : 2C7AEFF5
AccurateRip v2 signature : 96A06066
->Accurately ripped (v1+v2, confidence 5+26/50)
Statistics
Read error : 0
Jitter error (maybe fixed) : 0
Retry sector count : 0
Damaged sector count : 0

Track 07
Filename : /Rips/Dizzy Gillespie - Dizzy's Diamonds - The Best of Verve Years (1950-1964) (Disc 2 - Small Groups & Guests) (1992) [FLAC]/07 Where's Adam?.flac
Pre-gap length : 00:02:63

Track gain : 0.26 dB
Peak : 0.791565
CRC32 hash (test run) : 30E1B1B3
CRC32 hash : 30E1B1B3
CRC32 hash (skip zero) : 0E7E5C9A
AccurateRip v1 signature : AFCBD34C
AccurateRip v2 signature : AA88C502
->Accurately ripped (v1+v2, confidence 5+27/51)
Statistics
Read error : 0
Jitter error (maybe fixed) : 0
Retry sector count : 0
Damaged sector count : 0

Track 08
Filename : /Rips/Dizzy Gillespie - Dizzy's Diamonds - The Best of Verve Years (1950-1964) (Disc 2 - Small Groups & Guests) (1992) [FLAC]/08 There Is No Greater Love.flac
Pre-gap length : 00:02:63

Track gain : 0.88 dB
Peak : 0.798004
CRC32 hash (test run) : 57FAF459
CRC32 hash : 57FAF459
CRC32 hash (skip zero) : 9A65AB57
AccurateRip v1 signature : FB2665AF
AccurateRip v2 signature : 71D6EE72
->Accurately ripped (v1+v2, confidence 5+27/50)
Statistics
Read error : 0
Jitter error (maybe fixed) : 0
Retry sector count : 0
Damaged sector count : 0

Track 09
Filename : /Rips/Dizzy Gillespie - Dizzy's Diamonds - The Best of Verve Years (1950-1964) (Disc 2 - Small Groups & Guests) (1992) [FLAC]/09 Just One of Those Things.flac
Pre-gap length : 00:02:63

Track gain : -1.63 dB
Peak : 0.851135
CRC32 hash (test run) : 127FD0DF
CRC32 hash : 127FD0DF
CRC32 hash (skip zero) : 28310458
AccurateRip v1 signature : B2D72C4E
AccurateRip v2 signature : 1F92D1B7
->Accurately ripped (v1+v2, confidence 5+27/51)
Statistics
Read error : 0
Jitter error (maybe fixed) : 0
Retry sector count : 0
Damaged sector count : 0

Track 10
Filename : /Rips/Dizzy Gillespie - Dizzy's Diamonds - The Best of Verve Years (1950-1964) (Disc 2 - Small Groups & Guests) (1992) [FLAC]/10 I Know That You Know.flac
Pre-gap length : 00:02:63

Track gain : -4.06 dB
Peak : 0.851135
CRC32 hash (test run) : A3CAD840
CRC32 hash : A3CAD840
CRC32 hash (skip zero) : 5E142C2A
AccurateRip v1 signature : 4B1373C3
AccurateRip v2 signature : 68BFC181
->Accurately ripped (v1+v2, confidence 5+27/51)
Statistics
Read error : 0
Jitter error (maybe fixed) : 0
Retry sector count : 0
Damaged sector count : 0

Track 11
Filename : /Rips/Dizzy Gillespie - Dizzy's Diamonds - The Best of Verve Years (1950-1964) (Disc 2 - Small Groups & Guests) (1992) [FLAC]/11 Swing Low, Sweet Cadillac.flac
Pre-gap length : 00:02:63

Track gain : 0.46 dB
Peak : 0.800110
CRC32 hash (test run) : 0353F562
CRC32 hash : 0353F562
CRC32 hash (skip zero) : 7515932D
AccurateRip v1 signature : 98941B44
AccurateRip v2 signature : 5EA4C5F5
->Accurately ripped (v1+v2, confidence 5+27/51)
Statistics
Read error : 0
Jitter error (maybe fixed) : 0
Retry sector count : 0
Damaged sector count : 0

Track 12
Filename : /Rips/Dizzy Gillespie - Dizzy's Diamonds - The Best of Verve Years (1950-1964) (Disc 2 - Small Groups & Guests) (1992) [FLAC]/12 Dizzy Atmosphere.flac
Pre-gap length : 00:02:62

Track gain : -3.47 dB
Peak : 0.851105
CRC32 hash (test run) : B749D612
CRC32 hash : B749D612
CRC32 hash (skip zero) : 38251E14
AccurateRip v1 signature : 8FF83548
AccurateRip v2 signature : 51401003
->Accurately ripped (v1+v2, confidence 3+26/46)
Statistics
Read error : 0
Jitter error (maybe fixed) : 0
Retry sector count : 0
Damaged sector count : 0

No errors occurred

End of status report

––-BEGIN XLD SIGNATURE––-
P42Y8qcRdPKKLSi6b_q4nZ1yJIUjleQ8inklHEWR1pzMIeRhwYA4kW.Le40MttT1uGkE6TST.37xTyX7eEq.BLSDyzf_vCEdJk76HLO
––-END XLD SIGNATURE––-

X Lossless Decoder version 20181019 (151.1)

XLD extraction logfile from 2019-07-04 11:28:41 -0400

Dizzy Gillespie / Dizzy's Diamonds - The Best of Verve Years (1950-1964) (Disc 3 - In an Afro Cuban, Bossa Nova, Calpyso Groove)

Used drive : ATAPI iHAS124 F (revision CL9N)
Media type : Pressed CD

Ripper mode : XLD Secure Ripper
Disable audio cache : OK for the drive with a cache less than 1375KiB
Make use of C2 pointers : NO
Read offset correction : 6
Max retry count : 20
Gap status : Analyzed, Appended (except HTOA)

TOC of the extracted CD
Track | Start | Length | Start sector | End sector
––––––––––––––––––––––––––––-
1 | 00:00:32 | 06:27:43 | 32 | 29099
2 | 06:28:00 | 03:56:17 | 29100 | 46816
3 | 10:24:17 | 04:17:35 | 46817 | 66126
4 | 14:41:52 | 03:21:10 | 66127 | 81211
5 | 18:02:62 | 04:18:08 | 81212 | 100569
6 | 22:20:70 | 03:29:27 | 100570 | 116271
7 | 25:50:22 | 07:36:45 | 116272 | 150516
8 | 33:26:67 | 02:45:50 | 150517 | 162941
9 | 36:12:42 | 07:21:45 | 162942 | 196061
10 | 43:34:12 | 03:04:60 | 196062 | 209921
11 | 46:38:72 | 03:22:33 | 209922 | 225104
12 | 50:01:30 | 04:55:10 | 225105 | 247239
13 | 54:56:40 | 05:02:35 | 247240 | 269924
14 | 59:59:00 | 11:32:70 | 269925 | 321894
15 | 71:31:70 | 05:01:70 | 321895 | 344539

List of alternate offset correction values
# | Absolute | Relative | Confidence
–––––––––––––––––––––
1 | -2144 | -2150 | 11

AccurateRip Summary (DiscID: 00273056-01be820a-bc11f10f)
Track 01 : OK (v1+v2, confidence 41/52)
Track 02 : OK (v1+v2, confidence 42/53)
Track 03 : OK (v1+v2, confidence 41/52)
Track 04 : OK (v1+v2, confidence 41/52)
Track 05 : OK (v1+v2, confidence 41/52)
Track 06 : OK (v1+v2, confidence 41/52)
Track 07 : OK (v1+v2, confidence 41/52)
Track 08 : OK (v1+v2, confidence 41/51)
Track 09 : OK (v1+v2, confidence 42/53)
Track 10 : OK (v1+v2, confidence 40/51)
Track 11 : OK (v1+v2, confidence 42/53)
Track 12 : OK (v1+v2, confidence 42/53)
Track 13 : OK (v1+v2, confidence 41/51)
Track 14 : OK (v1+v2, confidence 41/52)
Track 15 : OK (v1+v2, confidence 36/46)
->All tracks accurately ripped.

All Tracks
Album gain : -4.11 dB
Peak : 0.999969
Statistics
Read error : 0
Jitter error (maybe fixed) : 0
Retry sector count : 47
Damaged sector count : 0

Track 01
Filename : /Rips/Dizzy Gillespie - Dizzy's Diamonds - The Best of Verve Years (1950-1964) (Disc 3 - In an Afro Cuban, Bossa Nova, Calpyso Groove) (1992) [FLAC]/01 Manteca.flac
Pre-gap length : 00:02:32

Track gain : -0.60 dB
Peak : 0.999969
CRC32 hash (test run) : 6BABF0D0
CRC32 hash : 6BABF0D0
CRC32 hash (skip zero) : 27B009BD
AccurateRip v1 signature : 53D1CDFA
AccurateRip v2 signature : B9528B31
->Accurately ripped (v1+v2, confidence 11+30/52)
Statistics
Read error : 0
Jitter error (maybe fixed) : 0
Retry sector count : 0
Damaged sector count : 0

Track 02
Filename : /Rips/Dizzy Gillespie - Dizzy's Diamonds - The Best of Verve Years (1950-1964) (Disc 3 - In an Afro Cuban, Bossa Nova, Calpyso Groove) (1992) [FLAC]/02 Fiesta Mojo.flac
Pre-gap length : 00:02:63

Track gain : -4.54 dB
Peak : 0.990997
CRC32 hash (test run) : 3742508B
CRC32 hash : 3742508B
CRC32 hash (skip zero) : C875368B
AccurateRip v1 signature : 3F1FA638
AccurateRip v2 signature : 4698D3B4
->Accurately ripped (v1+v2, confidence 11+31/53)
Statistics
Read error : 0
Jitter error (maybe fixed) : 0
Retry sector count : 0
Damaged sector count : 0

Track 03
Filename : /Rips/Dizzy Gillespie - Dizzy's Diamonds - The Best of Verve Years (1950-1964) (Disc 3 - In an Afro Cuban, Bossa Nova, Calpyso Groove) (1992) [FLAC]/03 A Night in Tunisia.flac
Pre-gap length : 00:02:62

Track gain : -3.08 dB
Peak : 0.830109
CRC32 hash (test run) : D47073CD
CRC32 hash : D47073CD
CRC32 hash (skip zero) : 246B2340
AccurateRip v1 signature : 3FC69035
AccurateRip v2 signature : 711A2FCD
->Accurately ripped (v1+v2, confidence 10+31/52)
Statistics
Read error : 0
Jitter error (maybe fixed) : 0
Retry sector count : 0
Damaged sector count : 0

Track 04
Filename : /Rips/Dizzy Gillespie - Dizzy's Diamonds - The Best of Verve Years (1950-1964) (Disc 3 - In an Afro Cuban, Bossa Nova, Calpyso Groove) (1992) [FLAC]/04 And Then She Stopped.flac
Pre-gap length : 00:02:62

Track gain : -5.06 dB
Peak : 0.999969
CRC32 hash (test run) : 5914C87D
CRC32 hash : 5914C87D
CRC32 hash (skip zero) : CADBAC60
AccurateRip v1 signature : BF2CDE33
AccurateRip v2 signature : 1DAC8D4A
->Accurately ripped (v1+v2, confidence 10+31/52)
Statistics
Read error : 0
Jitter error (maybe fixed) : 0
Retry sector count : 0
Damaged sector count : 0

Track 05
Filename : /Rips/Dizzy Gillespie - Dizzy's Diamonds - The Best of Verve Years (1950-1964) (Disc 3 - In an Afro Cuban, Bossa Nova, Calpyso Groove) (1992) [FLAC]/05 Tin Tin Deo.flac
Pre-gap length : 00:02:62

Track gain : -2.52 dB
Peak : 0.945862
CRC32 hash (test run) : 4595FFDA
CRC32 hash : 4595FFDA
CRC32 hash (skip zero) : 1427D219
AccurateRip v1 signature : 705437FA
AccurateRip v2 signature : A5AC94EB
->Accurately ripped (v1+v2, confidence 11+30/52)
Statistics
Read error : 0
Jitter error (maybe fixed) : 0
Retry sector count : 0
Damaged sector count : 0

Track 06
Filename : /Rips/Dizzy Gillespie - Dizzy's Diamonds - The Best of Verve Years (1950-1964) (Disc 3 - In an Afro Cuban, Bossa Nova, Calpyso Groove) (1992) [FLAC]/06 Desafinado.flac
Pre-gap length : 00:02:63

Track gain : -2.09 dB
Peak : 0.895844
CRC32 hash (test run) : A56A9DA8
CRC32 hash : A56A9DA8
CRC32 hash (skip zero) : C416C83F
AccurateRip v1 signature : D0EF97C8
AccurateRip v2 signature : C0374104
->Accurately ripped (v1+v2, confidence 11+30/52)
Statistics
Read error : 0
Jitter error (maybe fixed) : 0
Retry sector count : 0
Damaged sector count : 0

Track 07
Filename : /Rips/Dizzy Gillespie - Dizzy's Diamonds - The Best of Verve Years (1950-1964) (Disc 3 - In an Afro Cuban, Bossa Nova, Calpyso Groove) (1992) [FLAC]/07 Africana.flac
Pre-gap length : 00:02:62

Track gain : -5.40 dB
Peak : 0.999969
CRC32 hash (test run) : CD677E76
CRC32 hash : CD677E76
CRC32 hash (skip zero) : 0DEF8A53
AccurateRip v1 signature : B52ECEAC
AccurateRip v2 signature : 704C7E08
->Accurately ripped (v1+v2, confidence 11+30/52)
Statistics
Read error : 0
Jitter error (maybe fixed) : 0
Retry sector count : 0
Damaged sector count : 0

Track 08
Filename : /Rips/Dizzy Gillespie - Dizzy's Diamonds - The Best of Verve Years (1950-1964) (Disc 3 - In an Afro Cuban, Bossa Nova, Calpyso Groove) (1992) [FLAC]/08 Pergunte Ao João.flac
Pre-gap length : 00:02:62

Track gain : -5.77 dB
Peak : 0.999969
CRC32 hash (test run) : 02019F7E
CRC32 hash : 02019F7E
CRC32 hash (skip zero) : 649FF12F
AccurateRip v1 signature : BEC22824
AccurateRip v2 signature : C0621D29
->Accurately ripped (v1+v2, confidence 11+30/51)
Statistics
Read error : 0
Jitter error (maybe fixed) : 0
Retry sector count : 0
Damaged sector count : 0

Track 09
Filename : /Rips/Dizzy Gillespie - Dizzy's Diamonds - The Best of Verve Years (1950-1964) (Disc 3 - In an Afro Cuban, Bossa Nova, Calpyso Groove) (1992) [FLAC]/09 Caravan.flac
Pre-gap length : 00:02:62

Track gain : -5.97 dB
Peak : 0.999969
CRC32 hash (test run) : F4699756
CRC32 hash : F4699756
CRC32 hash (skip zero) : 37BBF5FD
AccurateRip v1 signature : 0F343E74
AccurateRip v2 signature : 3EE7E37D
->Accurately ripped (v1+v2, confidence 11+31/53)
Statistics
Read error : 0
Jitter error (maybe fixed) : 0
Retry sector count : 0
Damaged sector count : 0

Track 10
Filename : /Rips/Dizzy Gillespie - Dizzy's Diamonds - The Best of Verve Years (1950-1964) (Disc 3 - In an Afro Cuban, Bossa Nova, Calpyso Groove) (1992) [FLAC]/10 This Lovely Feeling.flac
Pre-gap length : 00:02:62

Track gain : -3.73 dB
Peak : 0.999969
CRC32 hash (test run) : 0EEAC5E7
CRC32 hash : 0EEAC5E7
CRC32 hash (skip zero) : AF574820
AccurateRip v1 signature : AF5E8772
AccurateRip v2 signature : 65F1AB95
->Accurately ripped (v1+v2, confidence 10+30/51)
Statistics
Read error : 0
Jitter error (maybe fixed) : 0
Retry sector count : 0
Damaged sector count : 0

Track 11
Filename : /Rips/Dizzy Gillespie - Dizzy's Diamonds - The Best of Verve Years (1950-1964) (Disc 3 - In an Afro Cuban, Bossa Nova, Calpyso Groove) (1992) [FLAC]/11 Ungawa.flac
Pre-gap length : 00:02:62

Track gain : -4.02 dB
Peak : 0.999207
CRC32 hash (test run) : 85ECFAF7
CRC32 hash : 85ECFAF7
CRC32 hash (skip zero) : CEC12213
AccurateRip v1 signature : 534FEF28
AccurateRip v2 signature : 7FAF3015
->Accurately ripped (v1+v2, confidence 11+31/53)
Statistics
Read error : 0
Jitter error (maybe fixed) : 0
Retry sector count : 0
Damaged sector count : 0

Track 12
Filename : /Rips/Dizzy Gillespie - Dizzy's Diamonds - The Best of Verve Years (1950-1964) (Disc 3 - In an Afro Cuban, Bossa Nova, Calpyso Groove) (1992) [FLAC]/12 Begin the Beguine.flac
Pre-gap length : 00:02:63

Track gain : -5.48 dB
Peak : 0.999969
CRC32 hash (test run) : D8A83D3E
CRC32 hash : D8A83D3E
CRC32 hash (skip zero) : AA0A0D7D
AccurateRip v1 signature : D7698301
AccurateRip v2 signature : 32108998
->Accurately ripped (v1+v2, confidence 10+32/53)
Statistics
Read error : 0
Jitter error (maybe fixed) : 0
Retry sector count : 0
Damaged sector count : 0

Track 13
Filename : /Rips/Dizzy Gillespie - Dizzy's Diamonds - The Best of Verve Years (1950-1964) (Disc 3 - In an Afro Cuban, Bossa Nova, Calpyso Groove) (1992) [FLAC]/13 Con Alma.flac
Pre-gap length : 00:02:63

Track gain : -2.06 dB
Peak : 0.948059
CRC32 hash (test run) : C486661A
CRC32 hash : C486661A
CRC32 hash (skip zero) : 6FA5205C
AccurateRip v1 signature : 5A6A4528
AccurateRip v2 signature : 696575BC
->Accurately ripped (v1+v2, confidence 10+31/51)
Statistics
Read error : 0
Jitter error (maybe fixed) : 0
Retry sector count : 0
Damaged sector count : 0

Track 14
Filename : /Rips/Dizzy Gillespie - Dizzy's Diamonds - The Best of Verve Years (1950-1964) (Disc 3 - In an Afro Cuban, Bossa Nova, Calpyso Groove) (1992) [FLAC]/14 Rio Pakistan.flac
Pre-gap length : 00:02:63

Track gain : -2.29 dB
Peak : 0.892120
CRC32 hash (test run) : E4D56A77
CRC32 hash : E4D56A77
CRC32 hash (skip zero) : E7DA06E7
AccurateRip v1 signature : 175012F9
AccurateRip v2 signature : 1678B8E2
->Accurately ripped (v1+v2, confidence 10+31/52)
Statistics
Read error : 0
Jitter error (maybe fixed) : 0
Retry sector count : 1
Damaged sector count : 0

Track 15
Filename : /Rips/Dizzy Gillespie - Dizzy's Diamonds - The Best of Verve Years (1950-1964) (Disc 3 - In an Afro Cuban, Bossa Nova, Calpyso Groove) (1992) [FLAC]/15 Jambo.flac
Pre-gap length : 00:02:63

Track gain : -5.53 dB
Peak : 0.999969
CRC32 hash (test run) : C44B1E06
CRC32 hash : C44B1E06
CRC32 hash (skip zero) : 09157E40
AccurateRip v1 signature : 20ADC987
AccurateRip v2 signature : 9C1F6B09
->Accurately ripped (v1+v2, confidence 7+29/46)
Statistics
Read error : 0
Jitter error (maybe fixed) : 0
Retry sector count : 46
Damaged sector count : 0

No errors occurred

End of status report

––-BEGIN XLD SIGNATURE––-
p4x_glbbQSccD7lub_Eh1AqpLoQo0dEPfd38VLzHyidN0vQoArecuiMNr2aoViCde4IsA2w83ZAG68x6VGw31VWLEd9h70LTjNfIKm0
––-END XLD SIGNATURE––-

All thanks go to the punkblues

More Music in My Blog
Follow My RSS Channel