Tags
Language
Tags

Dollar Brand (Abdullah Ibrahim) - African Marketplace (1980)

Posted By:
Dollar Brand (Abdullah Ibrahim) - African Marketplace (1980)

Dollar Brand - African Marketplace (1980)
EAC Rip | FLAC (tracks+log+.cue) | 00:35:55 | 170 Mb
Jazz, Post-Bop, Folk | Label: Elektra, Discovery Records

This is one of Abdullah Ibrahim's most colorful band recordings. With a 12-piece group that includes altoist Carlos Ward, trombonist Craig Harris and bassist Cecil McBee along with some lesser-known names, Ibrahim performs eight folklike originals that pay tribute to his life growing up in South Africa. "The Homecoming Song," "Anthem for the New Nation" and especially "The Wedding" (a beautiful hymn) are particularly memorable.
Tracklist:
1 Whoza Mtwana
2 The Homecoming Song
3 The Wedding
4 Moniebeh
5 African Marketplace
6 Mamma
7 Anthem For The New Nation
8 Ubu Suku

Exact Audio Copy V1.0 beta 1 from 15. November 2010

EAC extraction logfile from 26. May 2011, 19:07

Dollar Brand / African Marketplace

Used drive : TSSTcorpDVD+-RW TS-H653G Adapter: 2 ID: 0

Read mode : Secure
Utilize accurate stream : Yes
Defeat audio cache : Yes
Make use of C2 pointers : No

Read offset correction : 6
Overread into Lead-In and Lead-Out : No
Fill up missing offset samples with silence : Yes
Delete leading and trailing silent blocks : No
Null samples used in CRC calculations : Yes
Used interface : Native Win32 interface for Win NT & 2000
Gap handling : Appended to previous track

Used output format : User Defined Encoder
Selected bitrate : 128 kBit/s
Quality : High
Add ID3 tag : No
Command line compressor : D:\Program Files (x86)\Exact Audio Copy\Flac\flac.exe
Additional command line options : -V -8 -T "artist=%a" -T "title=%t" -T "album=%g" -T "date=%y" -T "tracknumber=%n" -T "genre=%m" %s


TOC of the extracted CD

Track | Start | Length | Start sector | End sector
––––––––––––––––––––––––––––-
1 | 0:00.00 | 6:04.07 | 0 | 27306
2 | 6:04.07 | 3:45.53 | 27307 | 44234
3 | 9:49.60 | 3:49.47 | 44235 | 61456
4 | 13:39.32 | 3:20.28 | 61457 | 76484
5 | 16:59.60 | 7:04.60 | 76485 | 108344
6 | 24:04.45 | 3:46.07 | 108345 | 125301
7 | 27:50.52 | 4:30.38 | 125302 | 145589
8 | 32:21.15 | 3:34.05 | 145590 | 161644


Track 1

Filename G:\Dollar Brand - African Marketplace - 1980\01 - Whoza Mtwana.wav

Pre-gap length 0:00:02.00

Peak level 94.4 %
Extraction speed 1.8 X
Track quality 100.0 %
Test CRC 5FF575FC
Copy CRC 5FF575FC
Accurately ripped (confidence 3) [78DF1B2A]
Copy OK

Track 2

Filename G:\Dollar Brand - African Marketplace - 1980\02 - The Homecoming Song.wav

Pre-gap length 0:00:01.76

Peak level 94.4 %
Extraction speed 1.9 X
Track quality 100.0 %
Test CRC 79F1C99F
Copy CRC 79F1C99F
Accurately ripped (confidence 3) [82617DB0]
Copy OK

Track 3

Filename G:\Dollar Brand - African Marketplace - 1980\03 - The Wedding.wav

Pre-gap length 0:00:01.40

Peak level 78.2 %
Extraction speed 2.1 X
Track quality 100.0 %
Test CRC 7CC46A39
Copy CRC 7CC46A39
Accurately ripped (confidence 3) [1E7EC295]
Copy OK

Track 4

Filename G:\Dollar Brand - African Marketplace - 1980\04 - Moniebah.wav

Pre-gap length 0:00:01.33

Peak level 61.9 %
Extraction speed 2.2 X
Track quality 100.0 %
Test CRC 3CA3952F
Copy CRC 3CA3952F
Accurately ripped (confidence 3) [236117E4]
Copy OK

Track 5

Filename G:\Dollar Brand - African Marketplace - 1980\05 - African Marketplace.wav

Pre-gap length 0:00:00.93

Peak level 89.1 %
Extraction speed 2.4 X
Track quality 99.9 %
Test CRC 39F4C28A
Copy CRC 39F4C28A
Accurately ripped (confidence 3) [01B83A82]
Copy OK

Track 6

Filename G:\Dollar Brand - African Marketplace - 1980\06 - Mamma.wav

Pre-gap length 0:00:02.10

Peak level 94.4 %
Extraction speed 2.6 X
Track quality 100.0 %
Test CRC 69C7E6AD
Copy CRC 69C7E6AD
Accurately ripped (confidence 3) [B08F90D4]
Copy OK

Track 7

Filename G:\Dollar Brand - African Marketplace - 1980\07 - Anthem For The New Nation.wav

Pre-gap length 0:00:00.49

Peak level 94.4 %
Extraction speed 2.8 X
Track quality 100.0 %
Test CRC 78C02A51
Copy CRC 78C02A51
Accurately ripped (confidence 3) [D1036B04]
Copy OK

Track 8

Filename G:\Dollar Brand - African Marketplace - 1980\08 - Ubu-Suku.wav

Pre-gap length 0:00:02.57

Peak level 90.0 %
Extraction speed 2.8 X
Track quality 100.0 %
Test CRC 29D39D86
Copy CRC 29D39D86
Accurately ripped (confidence 3) [71CE4F47]
Copy OK


All tracks accurately ripped

No errors occurred

End of status report

Thanks to the Original ripper angularFrequency !