Subcategories
Tags
Language
Tags

Dusty Springfield - The Complete BBC Sessions (2007)

Posted By: delpotro
Dusty Springfield - The Complete BBC Sessions (2007)

Dusty Springfield - The Complete BBC Sessions (2007)
EAC Rip | FLAC (tracks+log+.cue) - 219 Mb | MP3 CBR 320 kbps - 137 Mb | 00:59:57
Pop, Pop Rock, Soul, Female Vocal | Label: Mercury Records

Dusty Springfield was the finest female vocalist of her era, a performer of remarkable emotional resonance whose body of work spans the decades and their attendant musical transformations with a consistency and purity unmatched by any of her contemporaries. This wonderful collection compiles her complete surviving BBC sessions onto one CD for the very first time. The first three tracks, by the Springfields, includes their first single 'Dear John' alongside two follow up singles 'Swahili Papa' and 'Say I Won't Be There'. This session and the following solo session in 1964 have only recently surfaced at the BBC, having been considered 'lost' for a number of years. The album racks up five Top 10 hits alongside a string of album tracks and B-sides but most excitingly includes 'To Love Somebody', a cover of the Bee Gees classic that was originally recorded in Atlanta for inclusion in the seminal Dusty in Memphis album however that version was destroyed in a fire. This track and 'Tossing and Turning', 'Up Tight (Everything's Alright)', 'We're Doing Fine', 'Good Loving' and 'Higher and Higher (Your Love Keeps Lifting Me)' only exist in the BBC's archives.

AllMusic Review by Richie Unterberger
This 22-track CD isn't exactly the "complete" group of sessions Dusty Springfield recorded for the BBC. It's just all of the ones that have survived in good sound quality; there were some others, sadly, that the radio network didn't preserve (including her first solo session in November 1963, and performances of some songs she never put on her official record releases). Fortunately, the 22 that do remain (including three she recorded in July 1962 in a pop-folk style as part of the Springfields) make for a good and lengthy disc. True, it's a little short on the prime bonuses that 1960s BBC rock comps usually offer, namely songs that were never included on standard releases. But there are a half dozen of those, all of them quality covers that suit her style, including Bobby Lewis' "Tossin' and Turnin'," Stevie Wonder's "Uptight (Everything's Alright)," Dee Dee Warwick's "We're Doing Fine," the Rascals' "Good Lovin'," Jackie Wilson's "Higher and Higher (Your Love Keeps Lifting Me)," and the Bee Gees' "To Love Somebody." The other tracks include BBC renditions of some of her hits ("Wishin' and Hopin'," "Little by Little," "You Don't Have to Say You Love Me," "Son of a Preacher Man," "I Just Don't Know What to with Myself," "Little by Little"), though there are just as many lesser-known tunes from her '60s releases (including two notably different versions, oddly enough, of Betty Everett's "I Can't Hear You [No More]"). In common with many BBC releases, the arrangements and performances of the songs she also cut for records aren't too different from the studio versions; in fact, since Springfield habitually employed pretty elaborate orchestral production, they're noticeably thinner. But they're still good, and detectably different from their more familiar official counterparts. That's what you want from a BBC collection, and in some ways it's actually a more consistent listen than most of Springfield's non-best-of albums, since almost every song is a soulful pop number that suits her strengths.
Tracklist:
1. The Springfields – Swahili Papa (BBC Russ Conway Show 26/7/62) (02:20)
2. The Springfields – Dear John (BBC Russ Conway Show 26/7/62) (02:26)
3. The Springfields – Say I Won't Be There (BBC Ken Dodd Show 14/7/63) (02:52)
4. Dusty Springfield – La Bamba (BBC Top Gear 16/7/64) (02:39)
5. Dusty Springfield – Tossin' and Turnin' (BBC Top Gear 16/7/64) (02:28)
6. Dusty Springfield – I Just Don't Know What to Do With Myself (BBC Top Gear 16/7/64) (03:09)
7. Dusty Springfield – I Can't Hear You (No More) [BBC Top Gear 10/11/64] (02:20)
8. Dusty Springfield – Wishin' and Hopin' (BBC Top Gear 10/11/64) (02:49)
9. Dusty Springfield – Losing You (BBC Top Gear 10/11/64) (03:02)
10. Dusty Springfield – I Can't Hear You (No More) [BBC Saturday Club 5/7/65] (02:28)
11. Dusty Springfield – In the Middle of Nowhere (BBC Saturday Club 5/7/65) (03:02)
12. Dusty Springfield – Mockingbird (BBC Saturday Club 5/7/65) (02:18)
13. Dusty Springfield – Little By Little (BBC Saturday Club 24/1/66) (02:35)
14. Dusty Springfield – Uptight (Everything's Alright) [BBC Saturday Club 24/1/66] (03:02)
15. Dusty Springfield – Chained to a Memory (BBC Saturday Club 24/1/66) (02:42)
16. Dusty Springfield – We're Doing Fine (BBC Saturday Club 12/4/66) (02:41)
17. Dusty Springfield – Every Ounce of Strength (BBC Saturday Club 12/4/66) (01:59)
18. Dusty Springfield – You Don't Have to Say You Love Me (BBC Saturday Club 12/4/66) (02:50)
19. Dusty Springfield – Good Lovin' (BBC Saturday Club 12/4/66) (02:46)
20. Dusty Springfield – To Love Somebody (BBC DLT 5/1/70) (03:20)
21. Dusty Springfield – Son of a Preacher Man (BBC DLT 5/1/70) (02:39)
22. Dusty Springfield – (Your Love Has Lifted Me) Higher and Higher [BBC DLT 5/1/70] (02:58)

Exact Audio Copy V1.5 from 20. February 2020

EAC extraction logfile from 3. July 2020, 20:01

Dusty Springfield / The Complete BBC Sessions

Used drive : ATAPI iHAS324 E Adapter: 1 ID: 0

Read mode : Secure
Utilize accurate stream : Yes
Defeat audio cache : Yes
Make use of C2 pointers : No

Read offset correction : 6
Overread into Lead-In and Lead-Out : No
Fill up missing offset samples with silence : Yes
Delete leading and trailing silent blocks : No
Null samples used in CRC calculations : Yes
Used interface : Native Win32 interface for Win NT & 2000
Gap handling : Appended to previous track

Used output format : User Defined Encoder
Selected bitrate : 1024 kBit/s
Quality : High
Add ID3 tag : No
Command line compressor : C:\Program Files (x86)\Exact Audio Copy\Flac\flac.exe
Additional command line options : -8 -e -p -V -T "ARTIST=%artist%" -T "TITLE=%title%" -T "ALBUM=%albumtitle%" -T "DATE=%year%" -T "TRACKNUMBER=%tracknr%" -T "GENRE=%genre%" -T "PERFORMER=%albuminterpret%" -T "COMPOSER=%composer%" %haslyrics%–tag-from-file=LYRICS="%lyricsfile%"%haslyrics% -T "ALBUMARTIST=%albumartist%" -T "DISCNUMBER=%cdnumber%" -T "TOTALDISCS=%totalcds%" -T "TOTALTRACKS=%numtracks%" -T "COMMENT=%comment%" %source% -o %dest%


TOC of the extracted CD

Track | Start | Length | Start sector | End sector
––––––––––––––––––––––––––––-
1 | 0:00.00 | 2:21.74 | 0 | 10648
2 | 2:21.74 | 2:27.42 | 10649 | 21715
3 | 4:49.41 | 2:53.00 | 21716 | 34690
4 | 7:42.41 | 2:40.08 | 34691 | 46698
5 | 10:22.49 | 2:29.09 | 46699 | 57882
6 | 12:51.58 | 3:10.07 | 57883 | 72139
7 | 16:01.65 | 2:21.03 | 72140 | 82717
8 | 18:22.68 | 2:50.22 | 82718 | 95489
9 | 21:13.15 | 3:03.73 | 95490 | 109287
10 | 24:17.13 | 2:29.40 | 109288 | 120502
11 | 26:46.53 | 3:03.65 | 120503 | 134292
12 | 29:50.43 | 2:19.67 | 134293 | 144784
13 | 32:10.35 | 2:36.42 | 144785 | 156526
14 | 34:47.02 | 3:03.07 | 156527 | 170258
15 | 37:50.09 | 2:43.51 | 170259 | 182534
16 | 40:33.60 | 2:42.52 | 182535 | 194736
17 | 43:16.37 | 2:00.57 | 194737 | 203793
18 | 45:17.19 | 2:51.60 | 203794 | 216678
19 | 48:09.04 | 2:47.38 | 216679 | 229241
20 | 50:56.42 | 3:21.56 | 229242 | 244372
21 | 54:18.23 | 2:40.39 | 244373 | 256411
22 | 56:58.62 | 2:58.51 | 256412 | 269812


Track 1

Filename E:\FLAC\Dusty - The Complete BBC Sessions (2007) [FLAC] {9843562}\ 01 - The Springfields - Swahili Papa.wav

Pre-gap length 0:00:02.00

Peak level 96.6 %
Extraction speed 4.7 X
Track quality 100.0 %
Test CRC AA4D81E5
Copy CRC AA4D81E5
Accurately ripped (confidence 17) [1E5E406B] (AR v2)
Copy OK

Track 2

Filename E:\FLAC\Dusty - The Complete BBC Sessions (2007) [FLAC] {9843562}\ 02 - The Springfields - Dear John.wav

Pre-gap length 0:00:01.00

Peak level 96.6 %
Extraction speed 5.1 X
Track quality 100.0 %
Test CRC EAFF8FFA
Copy CRC EAFF8FFA
Accurately ripped (confidence 16) [2E44AC43] (AR v2)
Copy OK

Track 3

Filename E:\FLAC\Dusty - The Complete BBC Sessions (2007) [FLAC] {9843562}\ 03 - The Springfields - Say I Won’t Be There.wav

Pre-gap length 0:00:01.00

Peak level 96.6 %
Extraction speed 4.5 X
Track quality 99.9 %
Test CRC 14B1880D
Copy CRC 14B1880D
Accurately ripped (confidence 17) [C36E0963] (AR v2)
Copy OK

Track 4

Filename E:\FLAC\Dusty - The Complete BBC Sessions (2007) [FLAC] {9843562}\ 04 - Dusty Springfield - La Bamba.wav

Pre-gap length 0:00:00.98

Peak level 96.6 %
Extraction speed 5.8 X
Track quality 100.0 %
Test CRC 89EAC35F
Copy CRC 89EAC35F
Accurately ripped (confidence 17) [AA116233] (AR v2)
Copy OK

Track 5

Filename E:\FLAC\Dusty - The Complete BBC Sessions (2007) [FLAC] {9843562}\ 05 - Dusty Springfield - Tossin’ and Turnin’.wav

Pre-gap length 0:00:01.00

Peak level 96.6 %
Extraction speed 6.1 X
Track quality 100.0 %
Test CRC 6964FA0C
Copy CRC 6964FA0C
Accurately ripped (confidence 18) [B3996604] (AR v2)
Copy OK

Track 6

Filename E:\FLAC\Dusty - The Complete BBC Sessions (2007) [FLAC] {9843562}\ 06 - Dusty Springfield - I Just Don’t Know What to Do With Myself.wav

Pre-gap length 0:00:01.00

Peak level 96.6 %
Extraction speed 6.7 X
Track quality 100.0 %
Test CRC 8B2261FE
Copy CRC 8B2261FE
Accurately ripped (confidence 17) [F077686F] (AR v2)
Copy OK

Track 7

Filename E:\FLAC\Dusty - The Complete BBC Sessions (2007) [FLAC] {9843562}\ 07 - Dusty Springfield - I Can’t Hear You (No More).wav

Pre-gap length 0:00:01.00

Peak level 96.6 %
Extraction speed 6.5 X
Track quality 100.0 %
Test CRC 1A00442B
Copy CRC 1A00442B
Accurately ripped (confidence 17) [72839AB2] (AR v2)
Copy OK

Track 8

Filename E:\FLAC\Dusty - The Complete BBC Sessions (2007) [FLAC] {9843562}\ 08 - Dusty Springfield - Wishin’ and Hopin’.wav

Pre-gap length 0:00:01.00

Peak level 96.6 %
Extraction speed 5.6 X
Track quality 99.9 %
Test CRC F7C91BB8
Copy CRC F7C91BB8
Accurately ripped (confidence 17) [A3E3495F] (AR v2)
Copy OK

Track 9

Filename E:\FLAC\Dusty - The Complete BBC Sessions (2007) [FLAC] {9843562}\ 09 - Dusty Springfield - Losing You.wav

Pre-gap length 0:00:01.00

Peak level 96.6 %
Extraction speed 7.5 X
Track quality 100.0 %
Test CRC 96E5EC98
Copy CRC 96E5EC98
Accurately ripped (confidence 17) [5DEEEB8E] (AR v2)
Copy OK

Track 10

Filename E:\FLAC\Dusty - The Complete BBC Sessions (2007) [FLAC] {9843562}\ 10 - Dusty Springfield - I Can’t Hear You No More.wav

Pre-gap length 0:00:01.00

Peak level 96.6 %
Extraction speed 7.5 X
Track quality 100.0 %
Test CRC 7D0FC755
Copy CRC 7D0FC755
Accurately ripped (confidence 17) [DB663825] (AR v2)
Copy OK

Track 11

Filename E:\FLAC\Dusty - The Complete BBC Sessions (2007) [FLAC] {9843562}\ 11 - Dusty Springfield - In the Middle of Nowhere.wav

Pre-gap length 0:00:01.00

Peak level 96.6 %
Extraction speed 8.0 X
Track quality 100.0 %
Test CRC 8BAC65E0
Copy CRC 8BAC65E0
Accurately ripped (confidence 17) [67B7EB34] (AR v2)
Copy OK

Track 12

Filename E:\FLAC\Dusty - The Complete BBC Sessions (2007) [FLAC] {9843562}\ 12 - Dusty Springfield - Mockingbird.wav

Pre-gap length 0:00:01.00

Peak level 96.6 %
Extraction speed 7.8 X
Track quality 100.0 %
Test CRC 9BDC0DED
Copy CRC 9BDC0DED
Accurately ripped (confidence 17) [03CEED86] (AR v2)
Copy OK

Track 13

Filename E:\FLAC\Dusty - The Complete BBC Sessions (2007) [FLAC] {9843562}\ 13 - Dusty Springfield - Little by Little.wav

Pre-gap length 0:00:01.00

Peak level 96.6 %
Extraction speed 8.2 X
Track quality 100.0 %
Test CRC D099F543
Copy CRC D099F543
Accurately ripped (confidence 17) [E03C5DFE] (AR v2)
Copy OK

Track 14

Filename E:\FLAC\Dusty - The Complete BBC Sessions (2007) [FLAC] {9843562}\ 14 - Dusty Springfield - Uptight (Everything’s Alright).wav

Pre-gap length 0:00:01.00

Peak level 96.6 %
Extraction speed 8.7 X
Track quality 100.0 %
Test CRC B3EE8E40
Copy CRC B3EE8E40
Accurately ripped (confidence 17) [26B2ED20] (AR v2)
Copy OK

Track 15

Filename E:\FLAC\Dusty - The Complete BBC Sessions (2007) [FLAC] {9843562}\ 15 - Dusty Springfield - Chained to a Memory.wav

Pre-gap length 0:00:01.00

Peak level 96.6 %
Extraction speed 6.8 X
Track quality 99.9 %
Test CRC E4A7D545
Copy CRC E4A7D545
Accurately ripped (confidence 17) [65207F07] (AR v2)
Copy OK

Track 16

Filename E:\FLAC\Dusty - The Complete BBC Sessions (2007) [FLAC] {9843562}\ 16 - Dusty Springfield - We’re Doing Fine.wav

Pre-gap length 0:00:01.00

Peak level 96.4 %
Extraction speed 6.9 X
Track quality 99.9 %
Test CRC 5E411323
Copy CRC 5E411323
Accurately ripped (confidence 17) [27F3C6B7] (AR v2)
Copy OK

Track 17

Filename E:\FLAC\Dusty - The Complete BBC Sessions (2007) [FLAC] {9843562}\ 17 - Dusty Springfield - Every Ounce of Strength.wav

Pre-gap length 0:00:01.00

Peak level 96.5 %
Extraction speed 8.5 X
Track quality 100.0 %
Test CRC AD80A42A
Copy CRC AD80A42A
Accurately ripped (confidence 17) [265FB82B] (AR v2)
Copy OK

Track 18

Filename E:\FLAC\Dusty - The Complete BBC Sessions (2007) [FLAC] {9843562}\ 18 - Dusty Springfield - You Don’t Have to Say You Love Me.wav

Pre-gap length 0:00:01.00

Peak level 96.4 %
Extraction speed 9.3 X
Track quality 100.0 %
Test CRC B210C015
Copy CRC B210C015
Accurately ripped (confidence 17) [E3298CE9] (AR v2)
Copy OK

Track 19

Filename E:\FLAC\Dusty - The Complete BBC Sessions (2007) [FLAC] {9843562}\ 19 - Dusty Springfield - Good Lovin’.wav

Pre-gap length 0:00:01.00

Peak level 96.5 %
Extraction speed 9.5 X
Track quality 100.0 %
Test CRC 2BE16D89
Copy CRC 2BE16D89
Accurately ripped (confidence 17) [0647716C] (AR v2)
Copy OK

Track 20

Filename E:\FLAC\Dusty - The Complete BBC Sessions (2007) [FLAC] {9843562}\ 20 - Dusty Springfield - To Love Somebody.wav

Pre-gap length 0:00:01.00

Peak level 91.2 %
Extraction speed 10.0 X
Track quality 100.0 %
Test CRC E9BF6533
Copy CRC E9BF6533
Accurately ripped (confidence 18) [F3CE96D5] (AR v2)
Copy OK

Track 21

Filename E:\FLAC\Dusty - The Complete BBC Sessions (2007) [FLAC] {9843562}\ 21 - Dusty Springfield - Son of a Preacher Man.wav

Pre-gap length 0:00:01.00

Peak level 91.2 %
Extraction speed 9.7 X
Track quality 100.0 %
Test CRC D3FF8094
Copy CRC D3FF8094
Accurately ripped (confidence 18) [64144A12] (AR v2)
Copy OK

Track 22

Filename E:\FLAC\Dusty - The Complete BBC Sessions (2007) [FLAC] {9843562}\ 22 - Dusty Springfield - (Your Love Has Lifted Me) Higher and Higher.wav

Pre-gap length 0:00:01.00

Peak level 91.2 %
Extraction speed 10.2 X
Track quality 100.0 %
Test CRC 816EEAC9
Copy CRC 816EEAC9
Accurately ripped (confidence 17) [8D9C9A9F] (AR v2)
Copy OK


All tracks accurately ripped

No errors occurred

End of status report

–– CUETools DB Plugin V2.1.6

[CTDB TOCID: yXVBjI9P.pKVPE65OUNW8wUh80A-] found
Submit result: yXVBjI9P.pKVPE65OUNW8wUh80A- has been confirmed
Track | CTDB Status
1 | (31/31) Accurately ripped
2 | (31/31) Accurately ripped
3 | (31/31) Accurately ripped
4 | (31/31) Accurately ripped
5 | (31/31) Accurately ripped
6 | (31/31) Accurately ripped
7 | (31/31) Accurately ripped
8 | (31/31) Accurately ripped
9 | (31/31) Accurately ripped
10 | (31/31) Accurately ripped
11 | (31/31) Accurately ripped
12 | (31/31) Accurately ripped
13 | (31/31) Accurately ripped
14 | (30/31) Accurately ripped
15 | (31/31) Accurately ripped
16 | (31/31) Accurately ripped
17 | (31/31) Accurately ripped
18 | (31/31) Accurately ripped
19 | (30/31) Accurately ripped
20 | (30/31) Accurately ripped
21 | (31/31) Accurately ripped
22 | (29/31) Accurately ripped


==== Log checksum F4CCCA9BD8D0048298D764E690F2BAA6AB5493DCA98F204548B37735196DB480 ====

Thanks to the Original ripper !