Tags
Language
Tags

Eleni Karaindrou - Music And Songs For The Theatre (2015) {2CD Mikri Arktos MA 15232-58Α}

Posted By: ruskaval
Eleni Karaindrou - Music And Songs For The Theatre (2015) {2CD Mikri Arktos MA 15232-58Α}

Eleni Karaindrou - Music And Songs For The Theatre (2015) {2CD Mikri Arktos MA 15232-58Α}
EAC rip (secure mode) | FLAC (tracks)+CUE+LOG -> 763 Mb | MP3 @320 -> 338 Mb
Full Artwork @ 600 dpi (jpg) -> 119 Mb | 5% repair rar
© 2015 Mikri Arktos | MA 15232-58Α
Classical / Orchestral / Contemporary Classics / Choral / Electronic / Stage & Screen / Ambient / Jazz

Film composer Eleni Karaindou was born in the Greek mountain village of Teichio and raised in Athens, going on to study piano and music theory at the Hellenikon Odion. Relocating to Paris in 1969, she studied ethnomusicology for five years before returning to Greece to found the Laboratory for Traditional Instruments at the ORA Cultural Centre. Karaindrou's most successful collaboration was with filmmaker Theo Angelopoulos, with whom she first teamed in 1982, going on to score features including 1991's The Suspended Step of the Stork, 1995's Ulysses' Gaze, and 1998's Palme d'Or-winning Eternity and a Day.

Although primarily aligned with the Greek film industry, Karaindrou has also worked with noted European directors, including Jules Dassin and the great Chris Marker. 2004's Oscar-nominated film The Weeping Meadow featured a score by Karaindrou, which was also nominated for a European Film Award. Next, she delivered 2005's epic retrospective Elegy of the Uprooting. Karaindrou also revisited many of her scores during a 2010 live concert featuring saxophonist Jan Garbarek, which was released in 2013 as Eleni Karaindrou: Concert in Athens. In 2014, Karaindrou released her haunting score to an adaptation of Euripides' Medea.
Eleni Karaindrou - Music And Songs For The Theatre (2015) {2CD Mikri Arktos MA 15232-58Α}

Μία νέα συλλεκτική έκδοση με μουσική και τραγούδια της κορυφαίας Ελληνίδας συνθέτριας για το θέατρο, παρουσιάζει η Μικρή Άρκτος.
Η μουσική εργασία της Ελένης Καραΐνδρου στο θέατρο, μέσα από τη συνεργασία της με πέντε κορυφαίους έλληνες σκηνοθέτες: Λευτέρη Βογιατζή, Ζυλ Ντασσέν, Αντώνη Αντύπα, Μάγια Λυμπεροπούλου και Βασίλη Παπαβασιλείου. Στην έκδοση αποτυπώνεται η μουσική αλλά και έντεκα τραγούδια της Ελένης Καραΐνδρου, από δώδεκα θεατρικές παραστάσεις που σημάδεψαν το ελληνικό θέατρο στο διάστημα από το 1983 έως το 2011 (Οι Αγροίκοι, Ο Θάνατος του Εμποράκου, Διαμάντια και Μπλουζ, Συμφορά από το πολύ μυαλό, Το καινούργιο σπίτι, Ο Επιστάτης, Ένας μήνας στην εξοχή, Ευτυχισμένες μέρες, Βαγόνι στα νερά, Ο Γλάρος, Οι Μικροαστοί, Αγάπης αγώνας άγονος). Οι μουσικές αυτές συνθέσεις που έως σήμερα παρέμεναν ανέκδοτες αλλά και οι φωνές της Τζένης Καρέζη, της Αρλέτας, του Σίμου Βογιατζή, της Μ. Χατζιάνο, Α. Παρλαπάνου, Ρ. Οικονομίδου και άλλων σπουδαίων καλλιτεχνών δημιουργούν το πλαίσιο μιας ιστορικής έκδοσης.

«Κρατάω στα χέρια μου ένα πολύτιμο φορτίο, μια κιβωτό γεμάτη ταξίδια, όνειρα, υποσχέσεις, βλέμματα, φωνές, αγγίγματα, χρώματα, ήχους, μνήμες, χαμόγελα, αποφάσεις, δάκρυα, αποχωρισμούς, πάθη, έρωτες και θανάτους. Είναι τα δώρα μου από τις συναντήσεις μου, στον μαγικό κόσμο του θεάτρου, με έντεκα σπουδαίους συγγραφείς και πέντε κορυφαίους σκηνοθέτες, πέντε ανθρώπους ταγμένους που με εμπιστεύτηκαν και μού χάρισαν ταξίδια μοναδικά, γεμάτα εμπειρίες και συγκίνηση» αναφέρει η Ελένη Καραΐνδρου για τη δουλειά αυτή.
Eleni Karaindrou - Music And Songs For The Theatre (2015) {2CD Mikri Arktos MA 15232-58Α}


tracklist:
CD1

01 - Waltz
02 - Venetsianiko karnavali (Venice Carnival)
03 - Caro mio ben
04 - Felizze I
05 - Anastatosi Felipeto (Disturbance Felipeto)
06 - Felizze II
07 - Finale
08 - Symfora apo to poly myalo (Distress from Cleverness - Intro)
09 - Tou 'stripse (He Lost It - Mazurka)
10 - Poso omorfa niotho konta sou (It Feels Nice Being with You)
11 - Tsatski's Monologue and Waltz
12 - Intro Theme (Variation)
13 - Ateliotos einai o dromos (Endless Is the Road)
14 - Tsigganiko I (Gypsy I)
15 - Nyhterini exomologisi (Nocturnal Confession)
16 - Thema tragoudiou (Song Theme)
17 - Notes - anamnisi (Notes - Memory)
18 - Tsigganiko II (Gypsy II)
19 - Sfyrigma (Whistle)
20 - O glaros - enarxi (The Seagull - Intro)
21 - Capiamento I
22 - Chryso mou noufaro (My Golden Water Lily)
23 - Proaisthima (Premonition)
24 - Capiamento II
25 - Kostia - piano
26 - To tragoudi tis limnis (Lake Song)
27 - Thema tou Ouilly I (Willy's Theme I - Intro)
28 - Afixi A' - o theios Ben (Arrival A - Uncle Ben)
29 - Agonia (Anguish)
30 - Swing - Domatio Gynaikas (Swing - Woman's Room)
31 - Apofasi (Decision)
32 - Thema tou Ouilly II (Willy's Theme II)
33 - Afixi B' - o theios Ben (Arrival B - Uncle Ben)
34 - Slow - Thema Gynaikas (Slow - Woman's Theme)
35 - Anahorisi (Departure)
36 - Giati to 'kanes afto (Why Did You Do This)

Eleni Karaindrou - Music And Songs For The Theatre (2015) {2CD Mikri Arktos MA 15232-58Α}


CD2
01 - Alli mia thespesia mera (One More Marvellous Day)
02 - Mousiko kouti (Music Box)
03 - Haire agio fos (Ave, Holly Light)
04 - Eftyhismenes meres (Happy Days)
05 - Finale - Waltz
06 - Aprosmeni episkepsi (Unexpected Visit)
07 - Anamoni I (Waiting I)
08 - Apeili (Threat)
09 - Davies' Theme
10 - Anamoni II (Waiting II)
11 - Erimia (Solitude)
12 - To asylo (Asylum)
13 - Ti na kano Pou na pao (What Else Can I Do)
14 - Horis epistrofi (No Return)
15 - Tango nostalgias (Nostalgia Tango)
16 - Stous adeious dromous (Empty Streets)
17 - Horevontas swing (Dancing Swing)
18 - Hamena oneira (Broken Dreams)
19 - Mnimes (Memories)
20 - Vagoni sto nero (Carriage in the Water)
21 - Anapolisi (Reminiscence)
22 - Anekplirota oneira (Unfulfilled Dreams)
23 - Esperinos (Evensong)
24 - Odynira erotimata (Painful Questions
25 - Tatiana's Theme
26 - Etoimasies gia gamo (Wedding Planning)
27 - Theatro (Theatre)
28 - Prosefhi koritsion (Girls' Prayer)
29 - Pagonia (Freezing Cold)
30 - Finale
31 - Agapis agonas agonos (Love's Labour's Lost)
32 - Yposhesi (Promise)
33 - Sonnet I
34 - To fos (The Light)
35 - Sonnet II
36 - Oi theatrinoi (Actors)
37 - Erotas (Eros)
38 - Epilogos (Epilogue)
39 - To kainourgio spiti (The New House)
40 - Oneiriko (Dreamy)
41 - Parexigiseis (Misunderstandings)
42 - Symfiliosi (Reconciliation)
43 - Ap' to kako vgike kalo (From Bad Came Good)
44 - Diamantia kai mplouz (Diamonds and Blues)
45 - Hathika mesa sti zoi mou (I Got Lost Inside My Life)
46 - Anazitisi (Quest)
47 - Nyhterino (Nocturnal)
48 - Apohairetismos (Farewell)

Eleni Karaindrou - Music And Songs For The Theatre (2015) {2CD Mikri Arktos MA 15232-58Α}


Exact Audio Copy V1.1 from 23. June 2015

EAC extraction logfile from 16. September 2016, 17:30

Eleni Karaindrou / Music And Songs For The Theatre CD1

Used drive : TSSTcorpCDDVDW SH-224FB Adapter: 1 ID: 0

Read mode : Secure
Utilize accurate stream : Yes
Defeat audio cache : Yes
Make use of C2 pointers : No

Read offset correction : 6
Overread into Lead-In and Lead-Out : No
Fill up missing offset samples with silence : Yes
Delete leading and trailing silent blocks : No
Null samples used in CRC calculations : Yes
Used interface : Native Win32 interface for Win NT & 2000
Gap handling : Appended to previous track

Used output format : User Defined Encoder
Selected bitrate : 128 kBit/s
Quality : High
Add ID3 tag : No
Command line compressor : C:\Program Files (x86)\Exact Audio Copy\Flac\flac.exe
Additional command line options : -8 -V -T "ARTIST=%artist%" -T "TITLE=%title%" -T "ALBUM=%albumtitle%" -T "DATE=%year%" -T "TRACKNUMBER=%tracknr%" -T "TOTALTRACKS=%numtracks%" -T "GENRE=%genre%" -T "ALBUMARTIST=%albumartist%" -T "ALBUM ARTIST=%albumartist%" -T "COMMENT=EAC Secure Mode, Test & Copy, AccurateRip, FLAC -8" %source%


TOC of the extracted CD

Track | Start | Length | Start sector | End sector
––––––––––––––––––––––––––––-
1 | 0:00.00 | 2:25.36 | 0 | 10910
2 | 2:25.36 | 1:27.57 | 10911 | 17492
3 | 3:53.18 | 1:49.32 | 17493 | 25699
4 | 5:42.50 | 2:04.65 | 25700 | 35064
5 | 7:47.40 | 0:49.01 | 35065 | 38740
6 | 8:36.41 | 1:21.28 | 38741 | 44843
7 | 9:57.69 | 1:59.63 | 44844 | 53831
8 | 11:57.57 | 2:15.37 | 53832 | 63993
9 | 14:13.19 | 1:49.38 | 63994 | 72206
10 | 16:02.57 | 2:55.15 | 72207 | 85346
11 | 18:57.72 | 4:15.46 | 85347 | 104517
12 | 23:13.43 | 2:09.63 | 104518 | 114255
13 | 25:23.31 | 2:35.54 | 114256 | 125934
14 | 27:59.10 | 2:48.32 | 125935 | 138566
15 | 30:47.42 | 3:52.28 | 138567 | 155994
16 | 34:39.70 | 1:59.60 | 155995 | 164979
17 | 36:39.55 | 0:53.44 | 164980 | 168998
18 | 37:33.24 | 4:27.21 | 168999 | 189044
19 | 42:00.45 | 0:41.23 | 189045 | 192142
20 | 42:41.68 | 1:32.60 | 192143 | 199102
21 | 44:14.53 | 1:15.19 | 199103 | 204746
22 | 45:29.72 | 2:04.64 | 204747 | 214110
23 | 47:34.61 | 1:15.14 | 214111 | 219749
24 | 48:50.00 | 1:42.36 | 219750 | 227435
25 | 50:32.36 | 1:55.50 | 227436 | 236110
26 | 52:28.11 | 3:04.05 | 236111 | 249915
27 | 55:32.16 | 1:25.28 | 249916 | 256318
28 | 56:57.44 | 1:49.32 | 256319 | 264525
29 | 58:47.01 | 1:14.16 | 264526 | 270091
30 | 60:01.17 | 1:31.05 | 270092 | 276921
31 | 61:32.22 | 2:27.31 | 276922 | 287977
32 | 63:59.53 | 1:23.29 | 287978 | 294231
33 | 65:23.07 | 1:51.27 | 294232 | 302583
34 | 67:14.34 | 1:15.70 | 302584 | 308278
35 | 68:30.29 | 2:26.27 | 308279 | 319255
36 | 70:56.56 | 4:00.06 | 319256 | 337261


Track 1

Filename H:\MY RIPS\01 - Waltz.wav

Pre-gap length 0:00:02.00

Peak level 98.9 %
Extraction speed 1.6 X
Track quality 100.0 %
Test CRC C25CEDA1
Copy CRC C25CEDA1
Track not present in AccurateRip database
Copy OK

Track 2

Filename H:\MY RIPS\02 - Venetsianiko karnavali (Venice Carnival).wav

Pre-gap length 0:00:01.74

Peak level 98.9 %
Extraction speed 1.5 X
Track quality 100.0 %
Test CRC 0FE00F41
Copy CRC 0FE00F41
Track not present in AccurateRip database
Copy OK

Track 3

Filename H:\MY RIPS\03 - Caro mio ben.wav

Pre-gap length 0:00:01.68

Peak level 98.9 %
Extraction speed 1.7 X
Track quality 100.0 %
Test CRC C31363BC
Copy CRC C31363BC
Track not present in AccurateRip database
Copy OK

Track 4

Filename H:\MY RIPS\04 - Felizze I.wav

Pre-gap length 0:00:01.72

Peak level 98.9 %
Extraction speed 1.8 X
Track quality 100.0 %
Test CRC AC41FD47
Copy CRC AC41FD47
Track not present in AccurateRip database
Copy OK

Track 5

Filename H:\MY RIPS\05 - Anastatosi Felipeto (Disturbance Felipeto).wav

Pre-gap length 0:00:02.13

Peak level 98.9 %
Extraction speed 1.3 X
Track quality 100.0 %
Test CRC F3B04B12
Copy CRC F3B04B12
Track not present in AccurateRip database
Copy OK

Track 6

Filename H:\MY RIPS\06 - Felizze II.wav

Pre-gap length 0:00:01.53

Peak level 98.9 %
Extraction speed 1.7 X
Track quality 100.0 %
Test CRC 2A0B8394
Copy CRC 2A0B8394
Track not present in AccurateRip database
Copy OK

Track 7

Filename H:\MY RIPS\07 - Finale.wav

Pre-gap length 0:00:02.07

Peak level 98.9 %
Extraction speed 1.5 X
Track quality 99.9 %
Test CRC 1E65542A
Copy CRC 1E65542A
Track not present in AccurateRip database
Copy OK

Track 8

Filename H:\MY RIPS\08 - Symfora apo to poly myalo (Distress from Cleverness - Intro).wav

Pre-gap length 0:00:01.17

Peak level 98.8 %
Extraction speed 2.1 X
Track quality 100.0 %
Test CRC 48BF3777
Copy CRC 48BF3777
Track not present in AccurateRip database
Copy OK

Track 9

Filename H:\MY RIPS\09 - Tou 'stripse (He Lost It - Mazurka).wav

Pre-gap length 0:00:01.62

Peak level 98.8 %
Extraction speed 2.0 X
Track quality 100.0 %
Test CRC EA184B77
Copy CRC EA184B77
Track not present in AccurateRip database
Copy OK

Track 10

Filename H:\MY RIPS\10 - Poso omorfa niotho konta sou (It Feels Nice Being with You).wav

Pre-gap length 0:00:02.19

Peak level 98.9 %
Extraction speed 2.3 X
Track quality 100.0 %
Test CRC 02CA12F2
Copy CRC 02CA12F2
Track not present in AccurateRip database
Copy OK

Track 11

Filename H:\MY RIPS\11 - Tsatski's Monologue and Waltz.wav

Pre-gap length 0:00:02.07

Peak level 98.8 %
Extraction speed 2.2 X
Track quality 99.9 %
Test CRC 3AA6050E
Copy CRC 3AA6050E
Track not present in AccurateRip database
Copy OK

Track 12

Filename H:\MY RIPS\12 - Intro Theme (Variation).wav

Pre-gap length 0:00:02.61

Peak level 98.8 %
Extraction speed 2.4 X
Track quality 100.0 %
Test CRC ACBB35FA
Copy CRC ACBB35FA
Track not present in AccurateRip database
Copy OK

Track 13

Filename H:\MY RIPS\13 - Ateliotos einai o dromos (Endless Is the Road).wav

Pre-gap length 0:00:02.16

Peak level 82.0 %
Extraction speed 1.9 X
Track quality 99.9 %
Test CRC CE0EA729
Copy CRC CE0EA729
Track not present in AccurateRip database
Copy OK

Track 14

Filename H:\MY RIPS\14 - Tsigganiko I (Gypsy I).wav

Pre-gap length 0:00:01.23

Peak level 98.8 %
Extraction speed 2.7 X
Track quality 100.0 %
Test CRC F3943C02
Copy CRC F3943C02
Track not present in AccurateRip database
Copy OK

Track 15

Filename H:\MY RIPS\15 - Nyhterini exomologisi (Nocturnal Confession).wav

Pre-gap length 0:00:01.57

Peak level 84.4 %
Extraction speed 2.3 X
Track quality 99.9 %
Test CRC 54650517
Copy CRC 54650517
Track not present in AccurateRip database
Copy OK

Track 16

Filename H:\MY RIPS\16 - Thema tragoudiou (Song Theme).wav

Pre-gap length 0:00:02.24

Peak level 58.2 %
Extraction speed 2.6 X
Track quality 100.0 %
Test CRC A5C67CFD
Copy CRC A5C67CFD
Track not present in AccurateRip database
Copy OK

Track 17

Filename H:\MY RIPS\17 - Notes - anamnisi (Notes - Memory).wav

Pre-gap length 0:00:02.11

Peak level 70.3 %
Extraction speed 2.0 X
Track quality 100.0 %
Test CRC 83DAD1CE
Copy CRC 83DAD1CE
Track not present in AccurateRip database
Copy OK

Track 18

Filename H:\MY RIPS\18 - Tsigganiko II (Gypsy II).wav

Pre-gap length 0:00:02.30

Peak level 98.8 %
Extraction speed 3.1 X
Track quality 100.0 %
Test CRC 78ECA26E
Copy CRC 78ECA26E
Track not present in AccurateRip database
Copy OK

Track 19

Filename H:\MY RIPS\19 - Sfyrigma (Whistle).wav

Pre-gap length 0:00:02.31

Peak level 22.2 %
Extraction speed 1.8 X
Track quality 100.0 %
Test CRC C9BA9E77
Copy CRC C9BA9E77
Track not present in AccurateRip database
Copy OK

Track 20

Filename H:\MY RIPS\20 - O glaros - enarxi (The Seagull - Intro).wav

Pre-gap length 0:00:01.43

Peak level 98.8 %
Extraction speed 2.6 X
Track quality 100.0 %
Test CRC 52CC9971
Copy CRC 52CC9971
Track not present in AccurateRip database
Copy OK

Track 21

Filename H:\MY RIPS\21 - Capiamento I.wav

Pre-gap length 0:00:01.52

Peak level 98.8 %
Extraction speed 2.4 X
Track quality 100.0 %
Test CRC 0D166018
Copy CRC 0D166018
Track not present in AccurateRip database
Copy OK

Track 22

Filename H:\MY RIPS\22 - Chryso mou noufaro (My Golden Water Lily).wav

Pre-gap length 0:00:01.68

Peak level 98.8 %
Extraction speed 1.9 X
Track quality 99.9 %
Test CRC 27CF27E3
Copy CRC 27CF27E3
Track not present in AccurateRip database
Copy OK

Track 23

Filename H:\MY RIPS\23 - Proaisthima (Premonition).wav

Pre-gap length 0:00:01.27

Peak level 80.0 %
Extraction speed 2.5 X
Track quality 100.0 %
Test CRC 8306461B
Copy CRC 8306461B
Track not present in AccurateRip database
Copy OK

Track 24

Filename H:\MY RIPS\24 - Capiamento II.wav

Pre-gap length 0:00:01.42

Peak level 98.8 %
Extraction speed 2.8 X
Track quality 100.0 %
Test CRC A2EEBC93
Copy CRC A2EEBC93
Track not present in AccurateRip database
Copy OK

Track 25

Filename H:\MY RIPS\25 - Kostia - piano.wav

Pre-gap length 0:00:02.26

Peak level 98.8 %
Extraction speed 2.9 X
Track quality 100.0 %
Test CRC A33D341E
Copy CRC A33D341E
Track not present in AccurateRip database
Copy OK

Track 26

Filename H:\MY RIPS\26 - To tragoudi tis limnis (Lake Song).wav

Pre-gap length 0:00:01.35

Peak level 98.8 %
Extraction speed 3.3 X
Track quality 100.0 %
Test CRC 98B8330D
Copy CRC 98B8330D
Track not present in AccurateRip database
Copy OK

Track 27

Filename H:\MY RIPS\27 - Thema tou Ouilly I (Willy's Theme I - Intro).wav

Pre-gap length 0:00:01.57

Peak level 98.7 %
Extraction speed 2.8 X
Track quality 100.0 %
Test CRC E6ACD933
Copy CRC E6ACD933
Track not present in AccurateRip database
Copy OK

Track 28

Filename H:\MY RIPS\28 - Afixi A' - o theios Ben (Arrival A - Uncle Ben).wav

Peak level 79.0 %
Extraction speed 2.9 X
Track quality 100.0 %
Test CRC 0B033D4F
Copy CRC 0B033D4F
Track not present in AccurateRip database
Copy OK

Track 29

Filename H:\MY RIPS\29 - Agonia (Anguish).wav

Pre-gap length 0:00:01.68

Peak level 92.3 %
Extraction speed 2.7 X
Track quality 100.0 %
Test CRC 4BCCA22C
Copy CRC 4BCCA22C
Track not present in AccurateRip database
Copy OK

Track 30

Filename H:\MY RIPS\30 - Swing - Domatio Gynaikas (Swing - Woman's Room).wav

Pre-gap length 0:00:01.36

Peak level 98.9 %
Extraction speed 2.9 X
Track quality 100.0 %
Test CRC 21E76F23
Copy CRC 21E76F23
Track not present in AccurateRip database
Copy OK

Track 31

Filename H:\MY RIPS\31 - Apofasi (Decision).wav

Pre-gap length 0:00:01.37

Peak level 83.0 %
Extraction speed 2.2 X
Track quality 99.9 %
Test CRC 8B58B395
Copy CRC 8B58B395
Track not present in AccurateRip database
Copy OK

Track 32

Filename H:\MY RIPS\32 - Thema tou Ouilly II (Willy's Theme II).wav

Pre-gap length 0:00:02.27

Peak level 47.6 %
Extraction speed 2.9 X
Track quality 100.0 %
Test CRC 2D2BCF7F
Copy CRC 2D2BCF7F
Track not present in AccurateRip database
Copy OK

Track 33

Filename H:\MY RIPS\33 - Afixi B' - o theios Ben (Arrival B - Uncle Ben).wav

Pre-gap length 0:00:02.37

Peak level 80.0 %
Extraction speed 3.2 X
Track quality 100.0 %
Test CRC 086607F1
Copy CRC 086607F1
Track not present in AccurateRip database
Copy OK

Track 34

Filename H:\MY RIPS\34 - Slow - Thema Gynaikas (Slow - Woman's Theme).wav

Pre-gap length 0:00:01.51

Peak level 98.8 %
Extraction speed 2.8 X
Track quality 100.0 %
Test CRC 2EC223E0
Copy CRC 2EC223E0
Track not present in AccurateRip database
Copy OK

Track 35

Filename H:\MY RIPS\35 - Anahorisi (Departure).wav

Pre-gap length 0:00:02.07

Peak level 98.8 %
Extraction speed 3.4 X
Track quality 100.0 %
Test CRC 9841E10C
Copy CRC 9841E10C
Track not present in AccurateRip database
Copy OK

Track 36

Filename H:\MY RIPS\36 - Giati to 'kanes afto (Why Did You Do This).wav

Pre-gap length 0:00:01.59

Peak level 98.8 %
Extraction speed 3.8 X
Track quality 100.0 %
Test CRC D68DB147
Copy CRC D68DB147
Track not present in AccurateRip database
Copy OK


None of the tracks are present in the AccurateRip database

No errors occurred

End of status report

–– CUETools DB Plugin V2.1.6

[CTDB TOCID: lGO6Way0pFWO0QhTcPKJ2OTWlDc-] disk not present in database
Submit result: lGO6Way0pFWO0QhTcPKJ2OTWlDc- has been uploaded


==== Log checksum D01549F627A57ACD7EE44201443A3DCC655C31ED265B7BAD5E4243C0C0B4425A ====

Exact Audio Copy V1.1 from 23. June 2015

EAC extraction logfile from 16. September 2016, 21:49

Eleni Karaindrou / Music And Songs For The Theatre CD2

Used drive : TSSTcorpCDDVDW SH-224FB Adapter: 1 ID: 0

Read mode : Secure
Utilize accurate stream : Yes
Defeat audio cache : Yes
Make use of C2 pointers : No

Read offset correction : 6
Overread into Lead-In and Lead-Out : No
Fill up missing offset samples with silence : Yes
Delete leading and trailing silent blocks : No
Null samples used in CRC calculations : Yes
Used interface : Native Win32 interface for Win NT & 2000
Gap handling : Appended to previous track

Used output format : User Defined Encoder
Selected bitrate : 128 kBit/s
Quality : High
Add ID3 tag : No
Command line compressor : C:\Program Files (x86)\Exact Audio Copy\Flac\flac.exe
Additional command line options : -8 -V -T "ARTIST=%artist%" -T "TITLE=%title%" -T "ALBUM=%albumtitle%" -T "DATE=%year%" -T "TRACKNUMBER=%tracknr%" -T "TOTALTRACKS=%numtracks%" -T "GENRE=%genre%" -T "ALBUMARTIST=%albumartist%" -T "ALBUM ARTIST=%albumartist%" -T "COMMENT=EAC Secure Mode, Test & Copy, AccurateRip, FLAC -8" %source%


TOC of the extracted CD

Track | Start | Length | Start sector | End sector
––––––––––––––––––––––––––––-
1 | 0:00.00 | 2:36.51 | 0 | 11750
2 | 2:36.51 | 0:35.45 | 11751 | 14420
3 | 3:12.21 | 1:59.41 | 14421 | 23386
4 | 5:11.62 | 1:43.67 | 23387 | 31178
5 | 6:55.54 | 1:51.24 | 31179 | 39527
6 | 8:47.03 | 1:04.38 | 39528 | 44365
7 | 9:51.41 | 0:37.05 | 44366 | 47145
8 | 10:28.46 | 1:12.63 | 47146 | 52608
9 | 11:41.34 | 0:57.68 | 52609 | 56951
10 | 12:39.27 | 0:53.14 | 56952 | 60940
11 | 13:32.41 | 0:38.05 | 60941 | 63795
12 | 14:10.46 | 2:10.38 | 63796 | 73583
13 | 16:21.09 | 0:57.29 | 73584 | 77887
14 | 17:18.38 | 1:19.32 | 77888 | 83844
15 | 18:37.70 | 2:53.09 | 83845 | 96828
16 | 21:31.04 | 0:48.04 | 96829 | 100432
17 | 22:19.08 | 2:01.26 | 100433 | 109533
18 | 24:20.34 | 0:41.48 | 109534 | 112656
19 | 25:02.07 | 1:19.16 | 112657 | 118597
20 | 26:21.23 | 2:09.27 | 118598 | 128299
21 | 28:30.50 | 1:47.07 | 128300 | 136331
22 | 30:17.57 | 1:28.24 | 136332 | 142955
23 | 31:46.06 | 1:25.01 | 142956 | 149331
24 | 33:11.07 | 1:18.12 | 149332 | 155193
25 | 34:29.19 | 1:42.73 | 155194 | 162916
26 | 36:12.17 | 1:23.28 | 162917 | 169169
27 | 37:35.45 | 1:42.50 | 169170 | 176869
28 | 39:18.20 | 1:40.48 | 176870 | 184417
29 | 40:58.68 | 1:44.48 | 184418 | 192265
30 | 42:43.41 | 1:15.19 | 192266 | 197909
31 | 43:58.60 | 1:36.69 | 197910 | 205178
32 | 45:35.54 | 1:08.52 | 205179 | 210330
33 | 46:44.31 | 2:19.29 | 210331 | 220784
34 | 49:03.60 | 1:23.34 | 220785 | 227043
35 | 50:27.19 | 0:57.72 | 227044 | 231390
36 | 51:25.16 | 1:43.42 | 231391 | 239157
37 | 53:08.58 | 0:57.04 | 239158 | 243436
38 | 54:05.62 | 2:43.34 | 243437 | 255695
39 | 56:49.21 | 1:42.44 | 255696 | 263389
40 | 58:31.65 | 0:43.26 | 263390 | 266640
41 | 59:15.16 | 0:43.11 | 266641 | 269876
42 | 59:58.27 | 1:43.38 | 269877 | 277639
43 | 61:41.65 | 1:19.57 | 277640 | 283621
44 | 63:01.47 | 1:41.34 | 283622 | 291230
45 | 64:43.06 | 1:53.11 | 291231 | 299716
46 | 66:36.17 | 1:26.36 | 299717 | 306202
47 | 68:02.53 | 1:01.46 | 306203 | 310823
48 | 69:04.24 | 2:45.23 | 310824 | 323221


Track 1

Filename H:\MY RIPS\01 - Alli mia thespesia mera (One More Marvellous Day).wav

Pre-gap length 0:00:02.00

Peak level 98.8 %
Extraction speed 1.4 X
Track quality 99.9 %
Test CRC EC04630A
Copy CRC EC04630A
Track not present in AccurateRip database
Copy OK

Track 2

Filename H:\MY RIPS\02 - Mousiko kouti (Music Box).wav

Pre-gap length 0:00:01.73

Peak level 20.6 %
Extraction speed 1.0 X
Track quality 100.0 %
Test CRC 0A6E1A59
Copy CRC 0A6E1A59
Track not present in AccurateRip database
Copy OK

Track 3

Filename H:\MY RIPS\03 - Haire agio fos (Ave, Holly Light).wav

Peak level 98.8 %
Extraction speed 1.6 X
Track quality 100.0 %
Test CRC 530F8140
Copy CRC 530F8140
Track not present in AccurateRip database
Copy OK

Track 4

Filename H:\MY RIPS\04 - Eftyhismenes meres (Happy Days).wav

Pre-gap length 0:00:01.72

Peak level 98.8 %
Extraction speed 1.3 X
Track quality 99.8 %
Test CRC E14E9F73
Copy CRC E14E9F73
Track not present in AccurateRip database
Copy OK

Track 5

Filename H:\MY RIPS\05 - Finale - Waltz.wav

Pre-gap length 0:00:01.73

Peak level 98.8 %
Extraction speed 1.7 X
Track quality 100.0 %
Test CRC 433337AD
Copy CRC 433337AD
Track not present in AccurateRip database
Copy OK

Track 6

Filename H:\MY RIPS\06 - Aprosmeni episkepsi (Unexpected Visit).wav

Pre-gap length 0:00:01.64

Peak level 98.8 %
Extraction speed 1.5 X
Track quality 100.0 %
Test CRC 129730EC
Copy CRC 129730EC
Track not present in AccurateRip database
Copy OK

Track 7

Filename H:\MY RIPS\07 - Anamoni I (Waiting I).wav

Pre-gap length 0:00:01.72

Peak level 38.9 %
Extraction speed 1.1 X
Track quality 100.0 %
Test CRC F5C1D01C
Copy CRC F5C1D01C
Track not present in AccurateRip database
Copy OK

Track 8

Filename H:\MY RIPS\08 - Apeili (Threat).wav

Pre-gap length 0:00:01.73

Peak level 98.8 %
Extraction speed 1.6 X
Track quality 100.0 %
Test CRC 59334E79
Copy CRC 59334E79
Track not present in AccurateRip database
Copy OK

Track 9

Filename H:\MY RIPS\09 - Davies' Theme.wav

Pre-gap length 0:00:01.72

Peak level 98.8 %
Extraction speed 1.5 X
Track quality 100.0 %
Test CRC C864DC2D
Copy CRC C864DC2D
Track not present in AccurateRip database
Copy OK

Track 10

Filename H:\MY RIPS\10 - Anamoni II (Waiting II).wav

Pre-gap length 0:00:01.72

Peak level 86.5 %
Extraction speed 1.5 X
Track quality 100.0 %
Test CRC 00DD7ABC
Copy CRC 00DD7ABC
Track not present in AccurateRip database
Copy OK

Track 11

Filename H:\MY RIPS\11 - Erimia (Solitude).wav

Pre-gap length 0:00:01.72

Peak level 42.3 %
Extraction speed 1.2 X
Track quality 100.0 %
Test CRC B8689B5B
Copy CRC B8689B5B
Track not present in AccurateRip database
Copy OK

Track 12

Filename H:\MY RIPS\12 - To asylo (Asylum).wav

Pre-gap length 0:00:01.73

Peak level 63.4 %
Extraction speed 2.0 X
Track quality 100.0 %
Test CRC 712F816E
Copy CRC 712F816E
Track not present in AccurateRip database
Copy OK

Track 13

Filename H:\MY RIPS\13 - Ti na kano Pou na pao (What Else Can I Do).wav

Pre-gap length 0:00:01.73

Peak level 98.8 %
Extraction speed 1.6 X
Track quality 100.0 %
Test CRC 3BFA8F28
Copy CRC 3BFA8F28
Track not present in AccurateRip database
Copy OK

Track 14

Filename H:\MY RIPS\14 - Horis epistrofi (No Return).wav

Pre-gap length 0:00:03.73

Peak level 79.6 %
Extraction speed 1.8 X
Track quality 100.0 %
Test CRC B468C0C3
Copy CRC B468C0C3
Track not present in AccurateRip database
Copy OK

Track 15

Filename H:\MY RIPS\15 - Tango nostalgias (Nostalgia Tango).wav

Pre-gap length 0:00:01.73

Peak level 99.4 %
Extraction speed 2.3 X
Track quality 100.0 %
Test CRC F2946FB9
Copy CRC F2946FB9
Track not present in AccurateRip database
Copy OK

Track 16

Filename H:\MY RIPS\16 - Stous adeious dromous (Empty Streets).wav

Pre-gap length 0:00:01.15

Peak level 98.8 %
Extraction speed 1.5 X
Track quality 100.0 %
Test CRC D6A8D924
Copy CRC D6A8D924
Track not present in AccurateRip database
Copy OK

Track 17

Filename H:\MY RIPS\17 - Horevontas swing (Dancing Swing).wav

Pre-gap length 0:00:01.73

Peak level 99.3 %
Extraction speed 2.2 X
Track quality 100.0 %
Test CRC 74A4BF69
Copy CRC 74A4BF69
Track not present in AccurateRip database
Copy OK

Track 18

Filename H:\MY RIPS\18 - Hamena oneira (Broken Dreams).wav

Pre-gap length 0:00:03.02

Peak level 98.8 %
Extraction speed 1.5 X
Track quality 100.0 %
Test CRC 90C09319
Copy CRC 90C09319
Track not present in AccurateRip database
Copy OK

Track 19

Filename H:\MY RIPS\19 - Mnimes (Memories).wav

Pre-gap length 0:00:01.73

Peak level 79.6 %
Extraction speed 2.0 X
Track quality 100.0 %
Test CRC 6E5FE6B7
Copy CRC 6E5FE6B7
Track not present in AccurateRip database
Copy OK

Track 20

Filename H:\MY RIPS\20 - Vagoni sto nero (Carriage in the Water).wav

Pre-gap length 0:00:01.73

Peak level 98.8 %
Extraction speed 2.3 X
Track quality 100.0 %
Test CRC FDB018D3
Copy CRC FDB018D3
Track not present in AccurateRip database
Copy OK

Track 21

Filename H:\MY RIPS\21 - Anapolisi (Reminiscence).wav

Pre-gap length 0:00:01.73

Peak level 84.5 %
Extraction speed 2.3 X
Track quality 100.0 %
Test CRC C01EDF81
Copy CRC C01EDF81
Track not present in AccurateRip database
Copy OK

Track 22

Filename H:\MY RIPS\22 - Anekplirota oneira (Unfulfilled Dreams).wav

Pre-gap length 0:00:01.72

Peak level 98.8 %
Extraction speed 1.4 X
Track quality 99.8 %
Test CRC EF3B1A19
Copy CRC EF3B1A19
Track not present in AccurateRip database
Copy OK

Track 23

Filename H:\MY RIPS\23 - Esperinos (Evensong).wav

Peak level 70.6 %
Extraction speed 1.4 X
Track quality 99.8 %
Test CRC BB4A7CF8
Copy CRC BB4A7CF8
Track not present in AccurateRip database
Copy OK

Track 24

Filename H:\MY RIPS\24 - Odynira erotimata (Painful Questions.wav

Pre-gap length 0:00:01.73

Peak level 94.9 %
Extraction speed 2.2 X
Track quality 100.0 %
Test CRC 222A08A5
Copy CRC 222A08A5
Track not present in AccurateRip database
Copy OK

Track 25

Filename H:\MY RIPS\25 - Tatiana's Theme.wav

Pre-gap length 0:00:01.18

Peak level 98.8 %
Extraction speed 2.4 X
Track quality 100.0 %
Test CRC 725CDDD5
Copy CRC 725CDDD5
Track not present in AccurateRip database
Copy OK

Track 26

Filename H:\MY RIPS\26 - Etoimasies gia gamo (Wedding Planning).wav

Peak level 98.9 %
Extraction speed 2.3 X
Track quality 100.0 %
Test CRC 7DE0BEAC
Copy CRC 7DE0BEAC
Track not present in AccurateRip database
Copy OK

Track 27

Filename H:\MY RIPS\27 - Theatro (Theatre).wav

Peak level 90.7 %
Extraction speed 2.5 X
Track quality 100.0 %
Test CRC 8BEE014E
Copy CRC 8BEE014E
Track not present in AccurateRip database
Copy OK

Track 28

Filename H:\MY RIPS\28 - Prosefhi koritsion (Girls' Prayer).wav

Pre-gap length 0:00:03.00

Peak level 73.4 %
Extraction speed 2.5 X
Track quality 100.0 %
Test CRC B2577471
Copy CRC B2577471
Track not present in AccurateRip database
Copy OK

Track 29

Filename H:\MY RIPS\29 - Pagonia (Freezing Cold).wav

Pre-gap length 0:00:01.19

Peak level 91.8 %
Extraction speed 2.6 X
Track quality 100.0 %
Test CRC B76AFDEB
Copy CRC B76AFDEB
Track not present in AccurateRip database
Copy OK

Track 30

Filename H:\MY RIPS\30 - Finale.wav

Pre-gap length 0:00:01.72

Peak level 98.9 %
Extraction speed 2.4 X
Track quality 100.0 %
Test CRC 87E7508A
Copy CRC 87E7508A
Track not present in AccurateRip database
Copy OK

Track 31

Filename H:\MY RIPS\31 - Agapis agonas agonos (Love's Labour's Lost).wav

Peak level 98.8 %
Extraction speed 1.7 X
Track quality 99.8 %
Test CRC E3C7CB75
Copy CRC E3C7CB75
Track not present in AccurateRip database
Copy OK

Track 32

Filename H:\MY RIPS\32 - Yposhesi (Promise).wav

Pre-gap length 0:00:02.29

Peak level 88.9 %
Extraction speed 1.3 X
Track quality 99.8 %
Test CRC 3D915748
Copy CRC 3D915748
Track not present in AccurateRip database
Copy OK

Track 33

Filename H:\MY RIPS\33 - Sonnet I.wav

Pre-gap length 0:00:01.03

Peak level 93.8 %
Extraction speed 2.9 X
Track quality 100.0 %
Test CRC A8C1B92E
Copy CRC A8C1B92E
Track not present in AccurateRip database
Copy OK

Track 34

Filename H:\MY RIPS\34 - To fos (The Light).wav

Pre-gap length 0:00:01.58

Peak level 45.6 %
Extraction speed 2.6 X
Track quality 100.0 %
Test CRC AE5B60E9
Copy CRC AE5B60E9
Track not present in AccurateRip database
Copy OK

Track 35

Filename H:\MY RIPS\35 - Sonnet II.wav

Pre-gap length 0:00:01.41

Peak level 44.4 %
Extraction speed 2.3 X
Track quality 100.0 %
Test CRC 7CDAC536
Copy CRC 7CDAC536
Track not present in AccurateRip database
Copy OK

Track 36

Filename H:\MY RIPS\36 - Oi theatrinoi (Actors).wav

Pre-gap length 0:00:01.15

Peak level 94.9 %
Extraction speed 1.8 X
Track quality 99.8 %
Test CRC D8B01C43
Copy CRC D8B01C43
Track not present in AccurateRip database
Copy OK

Track 37

Filename H:\MY RIPS\37 - Erotas (Eros).wav

Peak level 76.1 %
Extraction speed 2.2 X
Track quality 100.0 %
Test CRC 00634790
Copy CRC 00634790
Track not present in AccurateRip database
Copy OK

Track 38

Filename H:\MY RIPS\38 - Epilogos (Epilogue).wav

Pre-gap length 0:00:01.50

Peak level 98.8 %
Extraction speed 3.2 X
Track quality 100.0 %
Test CRC 851740F0
Copy CRC 851740F0
Track not present in AccurateRip database
Copy OK

Track 39

Filename H:\MY RIPS\39 - To kainourgio spiti (The New House).wav

Pre-gap length 0:00:02.15

Peak level 99.0 %
Extraction speed 1.9 X
Track quality 99.8 %
Test CRC 713C26B7
Copy CRC 713C26B7
Track not present in AccurateRip database
Copy OK

Track 40

Filename H:\MY RIPS\40 - Oneiriko (Dreamy).wav

Pre-gap length 0:00:01.28

Peak level 97.6 %
Extraction speed 2.0 X
Track quality 100.0 %
Test CRC CC5B886E
Copy CRC CC5B886E
Track not present in AccurateRip database
Copy OK

Track 41

Filename H:\MY RIPS\41 - Parexigiseis (Misunderstandings).wav

Pre-gap length 0:00:01.30

Peak level 98.8 %
Extraction speed 1.1 X
Track quality 99.7 %
Test CRC 92EC6624
Copy CRC 92EC6624
Track not present in AccurateRip database
Copy OK

Track 42

Filename H:\MY RIPS\42 - Symfiliosi (Reconciliation).wav

Pre-gap length 0:00:01.08

Peak level 97.3 %
Extraction speed 2.9 X
Track quality 100.0 %
Test CRC 3A07E73B
Copy CRC 3A07E73B
Track not present in AccurateRip database
Copy OK

Track 43

Filename H:\MY RIPS\43 - Ap' to kako vgike kalo (From Bad Came Good).wav

Pre-gap length 0:00:02.07

Peak level 99.0 %
Extraction speed 2.8 X
Track quality 100.0 %
Test CRC BFFB1019
Copy CRC BFFB1019
Track not present in AccurateRip database
Copy OK

Track 44

Filename H:\MY RIPS\44 - Diamantia kai mplouz (Diamonds and Blues).wav

Peak level 86.0 %
Extraction speed 2.9 X
Track quality 100.0 %
Test CRC FD0761D4
Copy CRC FD0761D4
Track not present in AccurateRip database
Copy OK

Track 45

Filename H:\MY RIPS\45 - Hathika mesa sti zoi mou (I Got Lost Inside My Life).wav

Pre-gap length 0:00:02.43

Peak level 82.6 %
Extraction speed 3.1 X
Track quality 100.0 %
Test CRC 3C303BA2
Copy CRC 3C303BA2
Track not present in AccurateRip database
Copy OK

Track 46

Filename H:\MY RIPS\46 - Anazitisi (Quest).wav

Pre-gap length 0:00:01.31

Peak level 98.8 %
Extraction speed 2.9 X
Track quality 100.0 %
Test CRC C1B6A447
Copy CRC C1B6A447
Track not present in AccurateRip database
Copy OK

Track 47

Filename H:\MY RIPS\47 - Nyhterino (Nocturnal).wav

Pre-gap length 0:00:01.16

Peak level 98.8 %
Extraction speed 2.6 X
Track quality 100.0 %
Test CRC CE0631F2
Copy CRC CE0631F2
Track not present in AccurateRip database
Copy OK

Track 48

Filename H:\MY RIPS\48 - Apohairetismos (Farewell).wav

Pre-gap length 0:00:01.36

Peak level 85.9 %
Extraction speed 3.5 X
Track quality 100.0 %
Test CRC 4C858AB1
Copy CRC 4C858AB1
Track not present in AccurateRip database
Copy OK


None of the tracks are present in the AccurateRip database

No errors occurred

End of status report

–– CUETools DB Plugin V2.1.6

[CTDB TOCID: B1ZrIUPQrU6EIccYotquoj7rCeI-] disk not present in database
Submit result: B1ZrIUPQrU6EIccYotquoj7rCeI- has been uploaded


==== Log checksum 76751C2DE868EFF6A71CE05A73520788A1E2544BB00F8158397E2F3DA1E13BFE ====


Eleni Karaindrou - Music And Songs For The Theatre (2015) {2CD Mikri Arktos MA 15232-58Α}


see more Eleni Karaindrou…

All thanks goes to the original releaser!


===