Tags
Language
Tags

Fear Factory - Aggression Continuum (2021)

Posted By: delpotro
Fear Factory - Aggression Continuum (2021)

Fear Factory - Aggression Continuum (2021)
EAC Rip | FLAC (tracks+log+.cue) - 372 Mb | MP3 CBR 320 kbps - 117 Mb | 00:48:38
Groove Metal, Industrial Metal | Label: Nuclear Blast

One can’t overstate the size of the Fear Factory boot print on the neck of heavy metal. Unleashing influential albums with devastating anthems for over 30 years, Fear Factory is widely recognized as both crucial and innovative in extreme metal circles. Fear Factory manufactured, demanufactured, and remanufactured a sound that reverberates across several subgenres. They perfected an explosive blend of staccato paint-stripping riffs, industrial-tinged drums, electronic flourishes, and a scream/sing dichotomy, all of which became staples in heavy music, ever since the group first emerged in L.A.

Fear Factory headline major festivals; earned several awards from the international sales charts; toured with Black Sabbath, Slayer, Iron Maiden, and Metallica; and influenced generations of bands. But it’s the group’s commitment to unrelenting extremity and creative authenticity which ensured its place in heavy metal history, from the highly-revered Demanufacture to the similarly dominating Genexus. Songs like “Zero Signal,” “Shock,” and “Fear Campaign” are instantly recognizable anthems, as much a part of the musical DNA of modern metal subculture as the riffs and scream/sing style within them.

Fear Factory records are cinematic in scope; sonic landscapes, echoing the dystopian post-apocalyptic futures found in classic sci-fi literature and films, from Ray Bradbury to Blade Runner. Aggression Continuum, the tenth studio album, is the culmination of three decades of unforgettable songs, performances, and forward-thinking storytelling concepts, while simultaneously rebooting Fear Factory onto a brilliant and excitingly unpredictable new path. Like the liquid metal T-1000 in the Terminator franchise or the Academy-Award winning reboot of Mad Max, Aggression Continuum is a turning point where what “was” transforms into what will be. It’s Fear Factory’s own Fury Road.

Aggression Continuum boasts the definitive attack of songs like “Recode,” “Distruptor,” and “Purity.” The riffs, concepts, and passion remain strong, as Fear Factory celebrates its past, present, and future. Whatever may come, Fear Factory will be there, a soundtrack to humankind’s uncertain times ahead.
Tracklist:
1. Recode (05:47)
2. Disruptor (03:45)
3. Aggression Continuum (04:54)
4. Purity (03:50)
5. Fuel Injected Suicide Machine (05:28)
6. Collapse (04:20)
7. Manufactured Hope (05:01)
8. Cognitive Dissonance (04:37)
9. Monolith (03:34)
10. End of Line (07:18)

Exact Audio Copy V1.5 from 20. February 2020

EAC extraction logfile from 17. June 2021, 21:50

Fear Factory / Aggression Continuum

Used drive : PLDS DVD+-RW DH-16ACS Adapter: 1 ID: 0

Read mode : Secure
Utilize accurate stream : Yes
Defeat audio cache : Yes
Make use of C2 pointers : No

Read offset correction : 6
Overread into Lead-In and Lead-Out : No
Fill up missing offset samples with silence : Yes
Delete leading and trailing silent blocks : No
Null samples used in CRC calculations : Yes
Used interface : Native Win32 interface for Win NT & 2000
Gap handling : Appended to previous track

Used output format : User Defined Encoder
Selected bitrate : 1024 kBit/s
Quality : High
Add ID3 tag : No
Command line compressor : C:\Program Files (x86)\Exact Audio Copy\Flac\flac.exe
Additional command line options : -8 -V -T "ARTIST=%artist%" -T "TITLE=%title%" -T "ALBUM=%albumtitle%" -T "DATE=%year%" -T "TRACKNUMBER=%tracknr%" -T "GENRE=%genre%" -T "PERFORMER=%albuminterpret%" -T "COMPOSER=%composer%" %haslyrics%–tag-from-file=LYRICS="%lyricsfile%"%haslyrics% -T "ALBUMARTIST=%albumartist%" -T "DISCNUMBER=%cdnumber%" -T "TOTALDISCS=%totalcds%" -T "TOTALTRACKS=%numtracks%" -T "COMMENT=%comment%" %source% -o %dest%


TOC of the extracted CD

Track | Start | Length | Start sector | End sector
––––––––––––––––––––––––––––-
1 | 0:00.00 | 5:47.17 | 0 | 26041
2 | 5:47.17 | 3:45.10 | 26042 | 42926
3 | 9:32.27 | 4:54.66 | 42927 | 65042
4 | 14:27.18 | 3:50.61 | 65043 | 82353
5 | 18:18.04 | 5:28.52 | 82354 | 107005
6 | 23:46.56 | 4:20.16 | 107006 | 126521
7 | 28:06.72 | 5:01.39 | 126522 | 149135
8 | 33:08.36 | 4:37.46 | 149136 | 169956
9 | 37:46.07 | 3:34.21 | 169957 | 186027
10 | 41:20.28 | 7:18.42 | 186028 | 218919


Track 1

Filename C:\Fear Factory [2021] Aggression Continuum {CD-FLAC}\01 - Recode.wav

Pre-gap length 0:00:02.00

Peak level 100.0 %
Extraction speed 4.0 X
Track quality 99.9 %
Test CRC CA508012
Copy CRC CA508012
Track not present in AccurateRip database
Copy OK

Track 2

Filename C:\Fear Factory [2021] Aggression Continuum {CD-FLAC}\02 - Disruptor.wav

Peak level 100.0 %
Extraction speed 4.8 X
Track quality 100.0 %
Test CRC 1534F1F1
Copy CRC 1534F1F1
Track not present in AccurateRip database
Copy OK

Track 3

Filename C:\Fear Factory [2021] Aggression Continuum {CD-FLAC}\03 - Aggression Continuum.wav

Peak level 100.0 %
Extraction speed 5.5 X
Track quality 100.0 %
Test CRC 894D2849
Copy CRC 894D2849
Track not present in AccurateRip database
Copy OK

Track 4

Filename C:\Fear Factory [2021] Aggression Continuum {CD-FLAC}\04 - Purity.wav

Peak level 100.0 %
Extraction speed 5.7 X
Track quality 100.0 %
Test CRC 4DC99747
Copy CRC 4DC99747
Track not present in AccurateRip database
Copy OK

Track 5

Filename C:\Fear Factory [2021] Aggression Continuum {CD-FLAC}\05 - Fuel Injected Suicide Machine.wav

Peak level 100.0 %
Extraction speed 5.5 X
Track quality 99.9 %
Test CRC 771E88A3
Copy CRC 771E88A3
Track not present in AccurateRip database
Copy OK

Track 6

Filename C:\Fear Factory [2021] Aggression Continuum {CD-FLAC}\06 - Collapse.wav

Peak level 100.0 %
Extraction speed 6.5 X
Track quality 100.0 %
Test CRC CB860D97
Copy CRC CB860D97
Track not present in AccurateRip database
Copy OK

Track 7

Filename C:\Fear Factory [2021] Aggression Continuum {CD-FLAC}\07 - Manufactured Hope.wav

Peak level 100.0 %
Extraction speed 7.0 X
Track quality 100.0 %
Test CRC EAB6B056
Copy CRC EAB6B056
Track not present in AccurateRip database
Copy OK

Track 8

Filename C:\Fear Factory [2021] Aggression Continuum {CD-FLAC}\08 - Cognitive Dissonance.wav

Peak level 100.0 %
Extraction speed 7.3 X
Track quality 100.0 %
Test CRC 512EDA5C
Copy CRC 512EDA5C
Track not present in AccurateRip database
Copy OK

Track 9

Filename C:\Fear Factory [2021] Aggression Continuum {CD-FLAC}\09 - Monolith.wav

Peak level 100.0 %
Extraction speed 7.2 X
Track quality 100.0 %
Test CRC B7579240
Copy CRC B7579240
Track not present in AccurateRip database
Copy OK

Track 10

Filename C:\Fear Factory [2021] Aggression Continuum {CD-FLAC}\10 - End of Line.wav

Peak level 100.0 %
Extraction speed 7.3 X
Track quality 99.9 %
Test CRC 6F61B17F
Copy CRC 6F61B17F
Track not present in AccurateRip database
Copy OK


None of the tracks are present in the AccurateRip database

No errors occurred

End of status report

–– CUETools DB Plugin V2.1.6

[CTDB TOCID: x_A_wdUYLiTxVOfLX7vOnUUNkkk-] found
Submit result: x_A_wdUYLiTxVOfLX7vOnUUNkkk- has been confirmed
Track | CTDB Status
1 | (1/1) Accurately ripped
2 | (1/1) Accurately ripped
3 | (1/1) Accurately ripped
4 | (1/1) Accurately ripped
5 | (1/1) Accurately ripped
6 | (1/1) Accurately ripped
7 | (1/1) Accurately ripped
8 | (1/1) Accurately ripped
9 | (1/1) Accurately ripped
10 | (1/1) Accurately ripped


==== Log checksum AD51B3E1E6DE7B1876C90810A2DFC2CC4571EF06D01DA0C5C4A3E0AEB7FB1D51 ====

Thanks to the Original ripper !