Tags
Language
Tags

Franz Ferdinand - Hits To The Head (2022)

Posted By: delpotro
Franz Ferdinand - Hits To The Head (2022)

Franz Ferdinand - Hits To The Head (2022)
XLD Rip | FLAC (tracks+log+.cue) | 01:09:30 | 507 Mb
Indie Rock | Label: Domino

Hits To The Head is a 20-track greatest hits collection spanning the almost 20 year existence of Franz Ferdinand. Alongside 18 classics the album features two brand-new tracks “Billy Goodbye” and “Curious” co-produced by Alex Kapranos, Julian Corrie and Stuart Price.

Armed with an astute sense of what constitutes the ‘classic pop song’ (famously proclaiming that they write music ‘to make girls dance to’) the music of Franz Ferdinand continues to resonate globally and over the course of nearly two decades they’ve become, commercially and critically, one of the biggest UK bands in the world, selling over 10 million albums, 1.2 billion streams to date, 14 platinum albums, winning Brit, Ivor Novello and Mercury Prize awards, Grammy nominations and selling 6 million tickets for their incendiary live show worldwide.
Tracklist:
1. Darts of Pleasure (03:00)
2. Take Me Out (03:59)
3. The Dark of the Matinée (04:05)
4. Michael (03:23)
5. This Fire (03:34)
6. Do You Want To (03:36)
7. Walk Away (7") (03:28)
8. The Fallen (7") (02:57)
9. Outsiders (03:37)
10. Lucid Dreams (03:44)
11. Ulysses (03:10)
12. No You Girls (03:22)
13. Right Action (02:56)
14. Evil Eye (02:46)
15. Love Illumination (03:45)
16. Stand on the Horizon (04:25)
17. Always Ascending (03:50)
18. Glimpse of Love (03:13)
19. Curious (02:49)
20. Billy Goodbye (03:41)

X Lossless Decoder version 20211018 (154.0)

XLD extraction logfile from 2022-03-11 17:20:56 +0100

Franz Ferdinand / Hits to the Head

Used drive : HL-DT-ST DVDRAM GP90EB70 (revision RC00)
Media type : Pressed CD

Ripper mode : XLD Secure Ripper
Disable audio cache : OK for the drive with a cache less than 1375KiB
Make use of C2 pointers : NO
Read offset correction : 6
Max retry count : 100
Gap status : Analyzed, Appended (except HTOA)

TOC of the extracted CD
Track | Start | Length | Start sector | End sector
––––––––––––––––––––––––––––-
1 | 00:00:00 | 03:00:16 | 0 | 13515
2 | 03:00:16 | 03:59:53 | 13516 | 31493
3 | 06:59:69 | 04:05:61 | 31494 | 49929
4 | 11:05:55 | 03:23:72 | 49930 | 65226
5 | 14:29:52 | 03:34:22 | 65227 | 81298
6 | 18:03:74 | 03:36:56 | 81299 | 97554
7 | 21:40:55 | 03:28:39 | 97555 | 113193
8 | 25:09:19 | 02:57:47 | 113194 | 126515
9 | 28:06:66 | 03:37:68 | 126516 | 142858
10 | 31:44:59 | 03:44:04 | 142859 | 159662
11 | 35:28:63 | 03:10:67 | 159663 | 173979
12 | 38:39:55 | 03:22:43 | 173980 | 189172
13 | 42:02:23 | 02:56:39 | 189173 | 202411
14 | 44:58:62 | 02:46:33 | 202412 | 214894
15 | 47:45:20 | 03:45:26 | 214895 | 231795
16 | 51:30:46 | 04:25:31 | 231796 | 251701
17 | 55:56:02 | 03:50:10 | 251702 | 268961
18 | 59:46:12 | 03:13:26 | 268962 | 283462
19 | 62:59:38 | 02:49:46 | 283463 | 296183
20 | 65:49:09 | 03:41:15 | 296184 | 312773

AccurateRip Summary
Disc not found in AccurateRip DB.

All Tracks
Album gain : -11.21 dB
Peak : 0.999969
Statistics
Read error : 0
Jitter error (maybe fixed) : 0
Retry sector count : 0
Damaged sector count : 0

Track 01
Filename : /Volumes/LaCieD2 1 DL/Franz Ferdinand -2022- Hits To The Head (FLAC)/01 - Darts of Pleasure.flac
Pre-gap length : 00:02:00

Track gain : -11.69 dB
Peak : 0.978394
CRC32 hash (test run) : 5D7B18DA
CRC32 hash : 5D7B18DA
CRC32 hash (skip zero) : 3C8F7583
AccurateRip v1 signature : A732DAFF
AccurateRip v2 signature : 0AEB7CED
->Track not present in AccurateRip database.
Statistics
Read error : 0
Jitter error (maybe fixed) : 0
Retry sector count : 0
Damaged sector count : 0

Track 02
Filename : /Volumes/LaCieD2 1 DL/Franz Ferdinand -2022- Hits To The Head (FLAC)/02 - Take Me Out.flac

Track gain : -12.23 dB
Peak : 0.982330
CRC32 hash (test run) : 7C961ACE
CRC32 hash : 7C961ACE
CRC32 hash (skip zero) : 964C5981
AccurateRip v1 signature : 6A2AB552
AccurateRip v2 signature : DF827A6F
->Track not present in AccurateRip database.
Statistics
Read error : 0
Jitter error (maybe fixed) : 0
Retry sector count : 0
Damaged sector count : 0

Track 03
Filename : /Volumes/LaCieD2 1 DL/Franz Ferdinand -2022- Hits To The Head (FLAC)/03 - The Dark of the Matinée.flac

Track gain : -11.70 dB
Peak : 0.979370
CRC32 hash (test run) : 94C10051
CRC32 hash : 94C10051
CRC32 hash (skip zero) : 23F746F3
AccurateRip v1 signature : 29667AB5
AccurateRip v2 signature : 24175119
->Track not present in AccurateRip database.
Statistics
Read error : 0
Jitter error (maybe fixed) : 0
Retry sector count : 0
Damaged sector count : 0

Track 04
Filename : /Volumes/LaCieD2 1 DL/Franz Ferdinand -2022- Hits To The Head (FLAC)/04 - Michael.flac

Track gain : -11.31 dB
Peak : 0.984619
CRC32 hash (test run) : E10B4765
CRC32 hash : E10B4765
CRC32 hash (skip zero) : C9A801FD
AccurateRip v1 signature : C6D360EA
AccurateRip v2 signature : 78545A14
->Track not present in AccurateRip database.
Statistics
Read error : 0
Jitter error (maybe fixed) : 0
Retry sector count : 0
Damaged sector count : 0

Track 05
Filename : /Volumes/LaCieD2 1 DL/Franz Ferdinand -2022- Hits To The Head (FLAC)/05 - This Fire.flac

Track gain : -11.37 dB
Peak : 0.999969
CRC32 hash (test run) : 629F988D
CRC32 hash : 629F988D
CRC32 hash (skip zero) : 9DE0C18B
AccurateRip v1 signature : AB919ADE
AccurateRip v2 signature : C192BD22
->Track not present in AccurateRip database.
Statistics
Read error : 0
Jitter error (maybe fixed) : 0
Retry sector count : 0
Damaged sector count : 0

Track 06
Filename : /Volumes/LaCieD2 1 DL/Franz Ferdinand -2022- Hits To The Head (FLAC)/06 - Do You Want To.flac

Track gain : -11.23 dB
Peak : 0.988831
CRC32 hash (test run) : BC0D08F3
CRC32 hash : BC0D08F3
CRC32 hash (skip zero) : 80CBC2D7
AccurateRip v1 signature : 2ECF6256
AccurateRip v2 signature : BA19F8EC
->Track not present in AccurateRip database.
Statistics
Read error : 0
Jitter error (maybe fixed) : 0
Retry sector count : 0
Damaged sector count : 0

Track 07
Filename : /Volumes/LaCieD2 1 DL/Franz Ferdinand -2022- Hits To The Head (FLAC)/07 - Walk Away (HTTH Edit).flac

Track gain : -12.02 dB
Peak : 0.995117
CRC32 hash (test run) : 8DFE266D
CRC32 hash : 8DFE266D
CRC32 hash (skip zero) : 07DF4358
AccurateRip v1 signature : 6F528E82
AccurateRip v2 signature : BFF44CDA
->Track not present in AccurateRip database.
Statistics
Read error : 0
Jitter error (maybe fixed) : 0
Retry sector count : 0
Damaged sector count : 0

Track 08
Filename : /Volumes/LaCieD2 1 DL/Franz Ferdinand -2022- Hits To The Head (FLAC)/08 - The Fallen (HTTH Edit).flac

Track gain : -11.75 dB
Peak : 0.986938
CRC32 hash (test run) : 3A9085AD
CRC32 hash : 3A9085AD
CRC32 hash (skip zero) : 5CEA8ADB
AccurateRip v1 signature : A75A3E87
AccurateRip v2 signature : 76584D98
->Track not present in AccurateRip database.
Statistics
Read error : 0
Jitter error (maybe fixed) : 0
Retry sector count : 0
Damaged sector count : 0

Track 09
Filename : /Volumes/LaCieD2 1 DL/Franz Ferdinand -2022- Hits To The Head (FLAC)/09 - Outsiders.flac

Track gain : -11.31 dB
Peak : 0.999969
CRC32 hash (test run) : 1BE549FF
CRC32 hash : 1BE549FF
CRC32 hash (skip zero) : 0636A15C
AccurateRip v1 signature : 49C2CD29
AccurateRip v2 signature : F60DC286
->Track not present in AccurateRip database.
Statistics
Read error : 0
Jitter error (maybe fixed) : 0
Retry sector count : 0
Damaged sector count : 0

Track 10
Filename : /Volumes/LaCieD2 1 DL/Franz Ferdinand -2022- Hits To The Head (FLAC)/10 - Lucid Dreams.flac

Track gain : -10.79 dB
Peak : 0.999969
CRC32 hash (test run) : DD84884B
CRC32 hash : DD84884B
CRC32 hash (skip zero) : F97686CD
AccurateRip v1 signature : 42C2E12B
AccurateRip v2 signature : EF9A1F12
->Track not present in AccurateRip database.
Statistics
Read error : 0
Jitter error (maybe fixed) : 0
Retry sector count : 0
Damaged sector count : 0

Track 11
Filename : /Volumes/LaCieD2 1 DL/Franz Ferdinand -2022- Hits To The Head (FLAC)/11 - Ulysses.flac

Track gain : -9.92 dB
Peak : 0.995789
CRC32 hash (test run) : CE0B2D66
CRC32 hash : CE0B2D66
CRC32 hash (skip zero) : 1ED2B9B2
AccurateRip v1 signature : 04AFC31F
AccurateRip v2 signature : F73E16C3
->Track not present in AccurateRip database.
Statistics
Read error : 0
Jitter error (maybe fixed) : 0
Retry sector count : 0
Damaged sector count : 0

Track 12
Filename : /Volumes/LaCieD2 1 DL/Franz Ferdinand -2022- Hits To The Head (FLAC)/12 - No You Girls.flac

Track gain : -10.86 dB
Peak : 0.985260
CRC32 hash (test run) : 4EB15A3E
CRC32 hash : 4EB15A3E
CRC32 hash (skip zero) : 48C44FA0
AccurateRip v1 signature : C1E1FDF2
AccurateRip v2 signature : A5B592C1
->Track not present in AccurateRip database.
Statistics
Read error : 0
Jitter error (maybe fixed) : 0
Retry sector count : 0
Damaged sector count : 0

Track 13
Filename : /Volumes/LaCieD2 1 DL/Franz Ferdinand -2022- Hits To The Head (FLAC)/13 - Right Action.flac

Track gain : -10.49 dB
Peak : 0.987061
CRC32 hash (test run) : 675ABCE9
CRC32 hash : 675ABCE9
CRC32 hash (skip zero) : 94046386
AccurateRip v1 signature : 274E4A34
AccurateRip v2 signature : 4383C435
->Track not present in AccurateRip database.
Statistics
Read error : 0
Jitter error (maybe fixed) : 0
Retry sector count : 0
Damaged sector count : 0

Track 14
Filename : /Volumes/LaCieD2 1 DL/Franz Ferdinand -2022- Hits To The Head (FLAC)/14 - Evil Eye.flac

Track gain : -10.56 dB
Peak : 0.990173
CRC32 hash (test run) : 7964EFE1
CRC32 hash : 7964EFE1
CRC32 hash (skip zero) : 6D5C9EA9
AccurateRip v1 signature : 070B87B6
AccurateRip v2 signature : 46857CEB
->Track not present in AccurateRip database.
Statistics
Read error : 0
Jitter error (maybe fixed) : 0
Retry sector count : 0
Damaged sector count : 0

Track 15
Filename : /Volumes/LaCieD2 1 DL/Franz Ferdinand -2022- Hits To The Head (FLAC)/15 - Love Illumination.flac

Track gain : -10.68 dB
Peak : 0.999969
CRC32 hash (test run) : 9D4FC848
CRC32 hash : 9D4FC848
CRC32 hash (skip zero) : 5E3C2B44
AccurateRip v1 signature : F850F34E
AccurateRip v2 signature : E341C31F
->Track not present in AccurateRip database.
Statistics
Read error : 0
Jitter error (maybe fixed) : 0
Retry sector count : 0
Damaged sector count : 0

Track 16
Filename : /Volumes/LaCieD2 1 DL/Franz Ferdinand -2022- Hits To The Head (FLAC)/16 - Stand on the Horizon.flac

Track gain : -10.60 dB
Peak : 0.999969
CRC32 hash (test run) : D7C27A90
CRC32 hash : D7C27A90
CRC32 hash (skip zero) : C740DF5A
AccurateRip v1 signature : 13B8838B
AccurateRip v2 signature : 61FAF9CC
->Track not present in AccurateRip database.
Statistics
Read error : 0
Jitter error (maybe fixed) : 0
Retry sector count : 0
Damaged sector count : 0

Track 17
Filename : /Volumes/LaCieD2 1 DL/Franz Ferdinand -2022- Hits To The Head (FLAC)/17 - Always Ascending.flac

Track gain : -11.02 dB
Peak : 0.999969
CRC32 hash (test run) : 55F7A347
CRC32 hash : 55F7A347
CRC32 hash (skip zero) : 9FFFA381
AccurateRip v1 signature : 064131D7
AccurateRip v2 signature : 51305D94
->Track not present in AccurateRip database.
Statistics
Read error : 0
Jitter error (maybe fixed) : 0
Retry sector count : 0
Damaged sector count : 0

Track 18
Filename : /Volumes/LaCieD2 1 DL/Franz Ferdinand -2022- Hits To The Head (FLAC)/18 - Glimps of Love.flac

Track gain : -11.19 dB
Peak : 0.993164
CRC32 hash (test run) : C854CDAE
CRC32 hash : C854CDAE
CRC32 hash (skip zero) : 54BCAA62
AccurateRip v1 signature : 08A75A98
AccurateRip v2 signature : AEC86554
->Track not present in AccurateRip database.
Statistics
Read error : 0
Jitter error (maybe fixed) : 0
Retry sector count : 0
Damaged sector count : 0

Track 19
Filename : /Volumes/LaCieD2 1 DL/Franz Ferdinand -2022- Hits To The Head (FLAC)/19 - Curious.flac

Track gain : -10.43 dB
Peak : 0.991211
CRC32 hash (test run) : D823CE8E
CRC32 hash : D823CE8E
CRC32 hash (skip zero) : ABBC7DD2
AccurateRip v1 signature : C2295591
AccurateRip v2 signature : B4E70EB6
->Track not present in AccurateRip database.
Statistics
Read error : 0
Jitter error (maybe fixed) : 0
Retry sector count : 0
Damaged sector count : 0

Track 20
Filename : /Volumes/LaCieD2 1 DL/Franz Ferdinand -2022- Hits To The Head (FLAC)/20 - Billy Goodbye.flac

Track gain : -11.79 dB
Peak : 0.988190
CRC32 hash (test run) : 7767EB2E
CRC32 hash : 7767EB2E
CRC32 hash (skip zero) : 92F6E88C
AccurateRip v1 signature : 9BE7385B
AccurateRip v2 signature : 4441A67C
->Track not present in AccurateRip database.
Statistics
Read error : 0
Jitter error (maybe fixed) : 0
Retry sector count : 0
Damaged sector count : 0

No errors occurred

End of status report

––-BEGIN XLD SIGNATURE––-
Wj6a1Ff6xl0tiy4.zu6v49KViv6MV_ckB2AUldF7xvksRofJv5_NMvWXYTk3RGkbZ_xSDIz8MICSnfJAYat.1UicZMufZxDhs1sbema
––-END XLD SIGNATURE––-

Thanks to the Original ripper !