Subcategories
Tags
Language
Tags

Gabrielle - Do It Again (2021)

Posted By: delpotro
Gabrielle - Do It Again (2021)

Gabrielle - Do It Again (2021)
XLD Rip | FLAC (tracks+log+.cue) - 278 Mb | MP3 CBR 320 kbps - 103 Mb | 00:44:50
Pop, Female Vocal | Label: BMG Rights Management

A twelve track album featuring iconic covers and new material (‘Stop Right Now’ and ‘Can’t Hurry Love’). Other songs on the record are made up of her covers performed on The Masked Singer, including Rihanna's Diamonds, Billie Eilish's Everything I Wanted, Harry Styles' Falling and Tracey Chapman's Fast Car.
Tracklist:
1. Killing Me Softly with His Song (04:23)
2. Everything I Wanted (03:43)
3. Falling (04:14)
4. Stop Right Now (03:25)
5. Teardrops (03:40)
6. Proud Mary (02:57)
7. Bring It on Home to Me (02:42)
8. Can't Hurry Love (03:46)
9. Smile (03:16)
10. Diamonds (03:51)
11. I'll Be There (03:36)
12. Fast Car (05:00)

X Lossless Decoder version 20210101 (153.1)

XLD extraction logfile from 2021-03-05 11:17:58 +0000

Gabrielle / Do It Again

Used drive : TSSTcorp CDDVDW SE-208GB (revision TS00)
Media type : Pressed CD

Ripper mode : XLD Secure Ripper
Disable audio cache : OK for the drive with a cache less than 1375KiB
Make use of C2 pointers : NO
Read offset correction : 6
Max retry count : 20
Gap status : Analyzed, Appended (except HTOA)

TOC of the extracted CD
Track | Start | Length | Start sector | End sector
––––––––––––––––––––––––––––-
1 | 00:00:00 | 04:24:07 | 0 | 19806
2 | 04:24:07 | 03:43:59 | 19807 | 36590
3 | 08:07:66 | 04:14:23 | 36591 | 55663
4 | 12:22:14 | 03:26:63 | 55664 | 71176
5 | 15:49:02 | 03:42:06 | 71177 | 87832
6 | 19:31:08 | 02:58:50 | 87833 | 101232
7 | 22:29:58 | 02:43:05 | 101233 | 113462
8 | 25:12:63 | 03:48:74 | 113463 | 130636
9 | 29:01:62 | 03:17:48 | 130637 | 145459
10 | 32:19:35 | 03:52:21 | 145460 | 162880
11 | 36:11:56 | 03:38:17 | 162881 | 179247
12 | 39:49:73 | 05:00:42 | 179248 | 201789

AccurateRip Summary
Disc not found in AccurateRip DB.

All Tracks
Album gain : -8.17 dB
Peak : 0.988617
Statistics
Read error : 0
Jitter error (maybe fixed) : 0
Retry sector count : 0
Damaged sector count : 0

Track 01
Filename : /Volumes/Data/Gabrielle - Do It Again (2021) [FLAC]/01 - Gabrielle - Killing Me Softly with His Song.flac
Pre-gap length : 00:02:00

Track gain : -5.80 dB
Peak : 0.988495
CRC32 hash (test run) : 1A13B3B2
CRC32 hash : 1A13B3B2
CRC32 hash (skip zero) : 099D320F
AccurateRip v1 signature : B570AB0F
AccurateRip v2 signature : 2980301F
->Track not present in AccurateRip database.
Statistics
Read error : 0
Jitter error (maybe fixed) : 0
Retry sector count : 0
Damaged sector count : 0

Track 02
Filename : /Volumes/Data/Gabrielle - Do It Again (2021) [FLAC]/02 - Gabrielle - Everything I wanted.flac
Pre-gap length : 00:00:19

Track gain : -8.49 dB
Peak : 0.988586
CRC32 hash (test run) : 685B486A
CRC32 hash : 685B486A
CRC32 hash (skip zero) : FF563407
AccurateRip v1 signature : F57E020A
AccurateRip v2 signature : ABDB404D
->Track not present in AccurateRip database.
Statistics
Read error : 0
Jitter error (maybe fixed) : 0
Retry sector count : 0
Damaged sector count : 0

Track 03
Filename : /Volumes/Data/Gabrielle - Do It Again (2021) [FLAC]/03 - Gabrielle - Falling.flac
Pre-gap length : 00:00:29

Track gain : -6.87 dB
Peak : 0.988556
CRC32 hash (test run) : 05CF4967
CRC32 hash : 05CF4967
CRC32 hash (skip zero) : 54F8A0FD
AccurateRip v1 signature : FB553BBD
AccurateRip v2 signature : E65E5B09
->Track not present in AccurateRip database.
Statistics
Read error : 0
Jitter error (maybe fixed) : 0
Retry sector count : 0
Damaged sector count : 0

Track 04
Filename : /Volumes/Data/Gabrielle - Do It Again (2021) [FLAC]/04 - Gabrielle - Stop Right Now.flac
Pre-gap length : 00:00:05

Track gain : -10.16 dB
Peak : 0.988586
CRC32 hash (test run) : E9E79106
CRC32 hash : E9E79106
CRC32 hash (skip zero) : 00FA04C9
AccurateRip v1 signature : 3CCA6D1D
AccurateRip v2 signature : A19288D8
->Track not present in AccurateRip database.
Statistics
Read error : 0
Jitter error (maybe fixed) : 0
Retry sector count : 0
Damaged sector count : 0

Track 05
Filename : /Volumes/Data/Gabrielle - Do It Again (2021) [FLAC]/05 - Gabrielle - Teardrops.flac
Pre-gap length : 00:00:34

Track gain : -8.75 dB
Peak : 0.988617
CRC32 hash (test run) : 70F9F12E
CRC32 hash : 70F9F12E
CRC32 hash (skip zero) : BF23BAE3
AccurateRip v1 signature : 835792B6
AccurateRip v2 signature : F134F707
->Track not present in AccurateRip database.
Statistics
Read error : 0
Jitter error (maybe fixed) : 0
Retry sector count : 0
Damaged sector count : 0

Track 06
Filename : /Volumes/Data/Gabrielle - Do It Again (2021) [FLAC]/06 - Gabrielle - Proud Mary.flac
Pre-gap length : 00:01:30

Track gain : -9.67 dB
Peak : 0.988586
CRC32 hash (test run) : 7622D3E8
CRC32 hash : 7622D3E8
CRC32 hash (skip zero) : 686FDBF8
AccurateRip v1 signature : 31B1730F
AccurateRip v2 signature : B1702BCE
->Track not present in AccurateRip database.
Statistics
Read error : 0
Jitter error (maybe fixed) : 0
Retry sector count : 0
Damaged sector count : 0

Track 07
Filename : /Volumes/Data/Gabrielle - Do It Again (2021) [FLAC]/07 - Gabrielle - Bring It on Home to Me.flac
Pre-gap length : 00:00:68

Track gain : -8.34 dB
Peak : 0.988617
CRC32 hash (test run) : 133E9F0E
CRC32 hash : 133E9F0E
CRC32 hash (skip zero) : 806AEEC8
AccurateRip v1 signature : 54D14287
AccurateRip v2 signature : 582212FE
->Track not present in AccurateRip database.
Statistics
Read error : 0
Jitter error (maybe fixed) : 0
Retry sector count : 0
Damaged sector count : 0

Track 08
Filename : /Volumes/Data/Gabrielle - Do It Again (2021) [FLAC]/08 - Gabrielle - Can't Hurry Love.flac
Pre-gap length : 00:00:52

Track gain : -7.66 dB
Peak : 0.988586
CRC32 hash (test run) : 771087A2
CRC32 hash : 771087A2
CRC32 hash (skip zero) : D25E61AC
AccurateRip v1 signature : F4C8F0DC
AccurateRip v2 signature : 5F9638E5
->Track not present in AccurateRip database.
Statistics
Read error : 0
Jitter error (maybe fixed) : 0
Retry sector count : 0
Damaged sector count : 0

Track 09
Filename : /Volumes/Data/Gabrielle - Do It Again (2021) [FLAC]/09 - Gabrielle - Smile.flac
Pre-gap length : 00:02:32

Track gain : -6.57 dB
Peak : 0.988617
CRC32 hash (test run) : 704DFB78
CRC32 hash : 704DFB78
CRC32 hash (skip zero) : B167A90E
AccurateRip v1 signature : FAE4E4BE
AccurateRip v2 signature : D85C6A6F
->Track not present in AccurateRip database.
Statistics
Read error : 0
Jitter error (maybe fixed) : 0
Retry sector count : 0
Damaged sector count : 0

Track 10
Filename : /Volumes/Data/Gabrielle - Do It Again (2021) [FLAC]/10 - Gabrielle - Diamonds.flac
Pre-gap length : 00:01:12

Track gain : -10.24 dB
Peak : 0.988617
CRC32 hash (test run) : AED782F9
CRC32 hash : AED782F9
CRC32 hash (skip zero) : D3A7F823
AccurateRip v1 signature : 6FC34F9D
AccurateRip v2 signature : CC511332
->Track not present in AccurateRip database.
Statistics
Read error : 0
Jitter error (maybe fixed) : 0
Retry sector count : 0
Damaged sector count : 0

Track 11
Filename : /Volumes/Data/Gabrielle - Do It Again (2021) [FLAC]/11 - Gabrielle - I'll Be There.flac
Pre-gap length : 00:00:67

Track gain : -6.06 dB
Peak : 0.988403
CRC32 hash (test run) : E5C5D1EA
CRC32 hash : E5C5D1EA
CRC32 hash (skip zero) : 8AADED82
AccurateRip v1 signature : 55D18FF4
AccurateRip v2 signature : 17CAC942
->Track not present in AccurateRip database.
Statistics
Read error : 0
Jitter error (maybe fixed) : 0
Retry sector count : 0
Damaged sector count : 0

Track 12
Filename : /Volumes/Data/Gabrielle - Do It Again (2021) [FLAC]/12 - Gabrielle - Fast Car.flac
Pre-gap length : 00:01:40

Track gain : -6.63 dB
Peak : 0.988617
CRC32 hash (test run) : B8050DE1
CRC32 hash : B8050DE1
CRC32 hash (skip zero) : F9475EA6
AccurateRip v1 signature : 55E00F64
AccurateRip v2 signature : D58652EE
->Track not present in AccurateRip database.
Statistics
Read error : 0
Jitter error (maybe fixed) : 0
Retry sector count : 0
Damaged sector count : 0

No errors occurred

End of status report

––-BEGIN XLD SIGNATURE––-
.o0c2ee9BV7SkThvJjidd0rM_0.z.3g_KnE3_NPVKSl4qrv02kQdIl35jxA1Zhg9ibiFadY.VA.p2CfB0iE73kuerwPOWO8lgHfyS14
––-END XLD SIGNATURE––-

Thanks to the Original ripper !